#TITLE:Kagachi;
#SUBTITLE:;
#ARTIST:Zektbach;
#TITLETRANSLIT:;
#SUBTITLETRANSLIT:;
#ARTISTTRANSLIT:;
#GENRE:;
#CREDIT:;
#BANNER:Kagachi-bn.png;
#BACKGROUND:Kagachi-bg.png;
#LYRICSPATH:;
#CDTITLE:;
#MUSIC:Kagachi.ogg;
#OFFSET:0.000000;
#SAMPLESTART:5.647059;
#SAMPLELENGTH:20.000000;
#SELECTABLE:YES;
#DISPLAYBPM:170.000000;
#BPMS:0.000000=170.000000
;
#STOPS:79.500000=1.412000
;
#BGCHANGES:;
#KEYSOUNDS:;
#ATTACKS:;

//---------------dance-single - ----------------
#NOTES:
     dance-single:
     :
     Hard:
     13:
     0.610804,0.683591,0.244322,0.374626,0.276898,525.000000,495.000000,30.000000,46.000000,0.000000,0.000000,0.610804,0.683591,0.244322,0.374626,0.276898,525.000000,495.000000,30.000000,46.000000,0.000000,0.000000:
0000
0000
0000
0000
,
0000
0000
0000
0000
,
0000
0000
0000
0000
,
0000
0000
0000
0000
,
0010
0000
0000
0001
0100
0000
0000
0000
0010
0000
0000
1000
0100
0000
0000
0000
,
0010
0000
0000
0001
0100
0000
0000
0010
1000
0000
0100
0000
0010
0000
0001
0000
,
0100
0000
0000
0010
1000
0000
0000
0000
0100
0000
0000
0010
0001
0000
0000
0000
,
0100
0000
0000
0010
1000
0000
0000
0001
0010
0000
0001
0000
1000
0000
0100
0000
,
1000
0000
0000
0001
0100
0000
0000
0000
0001
0000
0000
1000
0010
0000
0000
0000
,
1000
0000
0000
0001
0010
0000
0000
0001
0100
0000
0010
0000
1000
0000
0100
0000
,
1000
0000
0000
0001
0010
0000
0000
0000
0001
0000
0000
1000
0100
0000
0000
0000
,
1000
0000
0000
0001
0100
0000
0000
0010
0100
0000
0010
0000
1000
0000
0001
0000
,
0010
0000
0001
0100
1000
0100
0001
0000
,
0010
0000
0100
1000
0010
0001
0010
0000
,
0100
0000
0001
0010
1000
0010
0001
0000
,
0100
0000
0010
0001
0010
1000
0100
0000
,
1000
0010
0100
0001
0010
0100
1000
0000
,
0001
0010
0100
1000
0010
0100
0001
0000
,
0010
0001
1000
0010
1000
0001
0100
0000
,
0001
0010
0100
1000
0010
0100
0001
1000
,
1001
0000
0000
0001
0100
0001
0100
0000
0000
0101
0000
0000
,
1100
0000
0000
1000
0010
1000
0010
0000
0000
0100
0000
0000
,
0110
0000
0000
0010
1000
0010
2000
0000
0000
3100
0000
0000
,
2010
3001
0012
1003
,
1001
0000
0000
0010
0100
0010
0100
0000
0000
1010
0000
0000
,
0101
0000
0000
0001
1000
0001
1000
0000
0000
0010
0000
0000
,
0110
0000
0000
0001
0010
0001
0020
0000
0000
0130
0000
0000
,
2100
3001
0012
0103
,
1001
0000
0010
1000
0100
0010
0001
0000
,
0101
0000
0001
1000
0010
1000
0100
0000
,
1100
0000
0010
0100
0001
1000
0100
0000
,
0011
0000
1000
0001
0010
0001
0100
0000
,
1010
0000
0010
1000
0100
0010
0001
0000
,
0110
0000
0001
0100
0010
1000
0100
0000
,
1010
0000
0010
1000
0001
1000
0100
0000
,
0011
0000
0010
0100
1000
0001
0100
0000
,
0001
0010
0100
1000
0001
0100
0010
1000
,
0001
0010
0001
0100
0010
1000
0100
0000
,
1000
0010
0100
0001
0020
0100
0130
0000
,
2000
0001
3001
0000
0200
0010
0310
0000
,
0010
1000
0100
0010
0001
0100
0001
1000
,
0100
1000
0001
1000
0010
0100
0001
0010
,
0001
1000
0010
1000
0200
0010
0310
0000
,
0002
1000
1003
0000
2000
0001
3001
0000
,
0010
0000
0000
0010
0001
0000
0000
0001
1000
0000
0000
1000
0100
0000
0000
0000
,
1000
0000
0000
1000
0010
0000
0000
0010
0100
0000
0000
0100
0001
0000
0000
0000
,
0100
0000
0000
0100
0001
0000
0000
0001
1000
0000
0000
1000
0010
0000
0000
0000
,
0001
0000
0000
0001
0010
0000
0000
0010
0100
0000
0000
0100
1000
0000
0000
0000
,
0010
0000
0000
0010
1000
0000
0000
1000
0100
0000
0000
0100
0010
0000
0000
0010
,
0001
0000
0000
0001
0100
0000
0000
0100
0001
0000
0000
0001
1000
0000
0000
1000
,
0010
0000
0000
0010
1000
0000
0000
1000
0001
0000
0000
0001
0010
0000
0000
0010
,
0100
0000
0000
0100
1000
0000
0000
1000
0001
0000
0000
0001
0100
0000
0000
0100
,
0020
0000
1000
0000
0002
0000
0033
1000
,
2000
0000
0000
0000
3001
0000
0000
1000
0200
0000
0000
0000
0300
0000
0000
0000
,
0002
0000
0100
0000
2000
0000
3003
0100
,
0200
0000
0000
0000
1300
0000
0000
0001
0200
0000
0000
0000
0300
0000
0000
0000
,
0002
0000
0010
0000
0200
0000
0303
0001
,
0002
0000
0000
0000
1003
0000
0000
0010
2000
0000
0000
0000
3000
0000
0000
0000
,
0200
0000
0001
0000
2000
0000
3300
0010
,
0020
0000
0000
0000
0130
0000
0000
0100
0002
0000
0000
0000
0003
0000
0000
0000
,
1000
0010
0100
0001
0010
0100
1000
0000
,
0001
0100
0010
1000
0100
0010
0001
0000
,
1000
0001
0010
0001
1000
0100
0010
0000
,
0001
0100
0001
0010
0100
1000
0010
0000
,
1010
0000
1001
0000
0011
0000
0010
0001
,
0101
0110
1001
1100
,
2001
0100
3100
0000
1020
0100
0130
0000
,
0101
0000
0001
0000
0010
0000
0100
0000
1000
0000
0001
0000
0100
0010
0100
0010
,
0100
0000
0010
1000
0100
0010
0001
0000
,
0010
0000
0001
1000
0010
0100
0001
0000
,
0010
0000
0100
1000
0010
1000
0001
0000
,
1000
0000
0001
0010
0100
1000
0010
0000
,
0001
1000
0010
1000
0100
0010
0001
0100
,
0001
0010
0100
0010
0001
0100
0010
1000
,
0100
0010
0100
1000
0010
0100
0001
1000
,
0001
1000
0010
1000
0100
0010
0001
0100
,
0002
0000
1000
0000
0020
0000
0033
0100
,
0200
0000
0000
0000
1300
0000
0000
0001
0200
0000
0000
0000
0300
0000
0000
0000
,
0020
0000
0100
0000
2000
0000
3030
0001
,
0002
0000
0000
0000
1003
0000
0000
0001
0020
0000
0000
0000
0030
0000
0000
0000
,
0002
0000
0100
0000
0020
0000
0033
0001
,
0002
0000
0000
0000
0103
0000
0000
0010
2000
0000
0000
0000
3000
0000
0000
0000
,
0200
0000
0010
0000
2000
0000
3300
0001
,
0002
0000
0000
0000
0103
0000
0000
0010
2000
0000
0000
0000
3001
0010
0001
0010
;

//---------------dance-single - ----------------
#NOTES:
     dance-single:
     :
     Medium:
     11:
     0.492133,0.546466,0.244322,0.423491,0.000000,423.000000,393.000000,30.000000,52.000000,0.000000,0.000000,0.492133,0.546466,0.244322,0.423491,0.000000,423.000000,393.000000,30.000000,52.000000,0.000000,0.000000:
0000
0000
0000
0000
,
0000
0000
0000
0000
,
0000
0000
0000
0000
,
0000
0000
0000
0000
,
0010
0011
0100
1100
,
0001
0000
1001
0000
1000
0010
0100
0001
,
0010
0101
0100
1010
,
0001
0000
0110
0000
1000
0001
0010
0100
,
1000
1010
0001
0011
,
0100
0000
0110
0000
0010
1000
0001
0100
,
0001
0101
1000
1100
,
0010
0000
1001
0000
0100
0010
1000
0001
,
0010
0000
0001
0100
0000
0001
1000
0000
,
0010
0000
0100
0001
0000
1000
0001
0000
,
0010
0000
0100
1000
0000
0001
0100
0000
,
0001
0000
1000
0010
0000
1000
0100
0000
,
1000
0000
0010
0100
0000
0001
1000
0000
,
0010
0000
0100
0010
0000
1000
0001
0000
,
0010
0000
0001
0100
0000
0010
1000
0000
,
0100
0000
1000
0010
0000
1000
0001
0100
,
1002
0100
1003
0101
,
2100
0010
0100
3001
,
1000
0001
0012
0013
,
1020
1030
0210
0310
,
0120
0100
1030
1010
,
0201
0010
1000
0301
,
0100
0010
2001
3001
,
0012
0013
1200
1300
,
0001
0000
0100
0010
0000
1000
0001
0000
,
0010
0000
0001
0100
0000
0010
1000
0000
,
0100
0000
1000
0001
0000
0010
0001
0000
,
0100
0000
0010
1000
0000
0001
1000
0000
,
0001
0000
0010
0100
0000
1000
0010
0000
,
0100
0000
0001
0010
0000
0001
1000
0000
,
0001
0000
1000
0100
0000
0010
0100
0000
,
1000
0000
0010
0100
0000
0001
1000
0000
,
0010
1000
0100
1000
0000
0001
0100
0001
,
0000
1000
0010
1000
0000
0001
0010
0001
,
0000
0100
0010
0100
0000
0001
1000
0001
,
0000
0010
0001
0010
0000
0100
1000
0100
,
0000
1000
0001
1000
0000
0010
0100
0010
,
0000
0100
0001
0100
0000
0010
1000
0010
,
0000
1000
0001
0100
0000
0010
0100
0001
,
0000
0010
0100
1000
0000
0001
1000
0010
,
0100
0000
0100
0010
1000
0000
0001
0000
,
0010
0000
0010
0001
1000
0000
0100
0000
,
1000
0000
1000
0001
0100
0000
0010
0000
,
0001
0000
0001
1000
0010
0000
0100
0000
,
1000
0000
0001
0010
0100
0010
0001
0000
,
0010
0000
1000
0001
1000
0100
0010
0000
,
0100
0000
1000
0010
1000
0001
0100
0000
,
0001
0000
0010
0001
1000
0010
0100
0000
,
0002
0000
0100
0000
2000
0000
3003
0001
,
0020
1000
0200
0330
,
0020
0000
1000
0000
0002
0000
0033
1000
,
0200
0001
2000
3300
,
0020
0000
0001
0000
2000
0000
3030
1000
,
0002
0010
0200
0303
,
0200
0000
0001
0000
0020
0000
0330
0010
,
2000
0100
0002
3003
,
1001
0000
0010
1000
0100
0010
0001
0000
,
0101
0000
0001
1000
0010
1000
0100
0000
,
1100
0000
1000
0010
0100
0001
0010
0000
,
0110
0000
0100
0010
0001
1000
0010
0000
,
2000
0000
3002
0000
0023
0000
0030
0001
,
0200
0320
2030
3002
,
0023
0031
0012
1003
,
2010
0000
0001
0000
0100
0000
3010
1000
,
0001
0000
1000
0010
0000
1000
0100
0000
,
0010
0000
0001
0100
0000
0010
1000
0000
,
0001
0000
1000
0010
0000
0100
0010
0000
,
0100
0000
0001
0010
0000
0100
1000
0000
,
0010
1000
0100
0010
0001
1000
0001
0000
,
0100
0010
1000
0001
0010
0100
1000
0000
,
1000
0001
1000
0010
0100
0001
0010
0000
,
0100
1000
0010
0100
0001
0010
0001
0000
,
2000
0000
0001
0000
0200
0000
3300
1000
,
0020
0100
0002
0033
,
2000
0000
0001
0000
0020
0000
3030
1000
,
0002
1000
0200
0303
,
0020
0000
1000
0000
0200
0000
0330
0010
,
2000
0010
0002
3003
,
0020
0000
0001
0000
2000
0000
3030
0001
,
0200
0000
0010
0000
0302
0000
1003
0010
;

//---------------dance-single - ----------------
#NOTES:
     dance-single:
     :
     Easy:
     7:
     0.322272,0.409849,0.065152,0.390914,0.000000,277.000000,269.000000,8.000000,48.000000,0.000000,0.000000,0.322272,0.409849,0.065152,0.390914,0.000000,277.000000,269.000000,8.000000,48.000000,0.000000,0.000000:
0000
0000
0000
0000
,
0000
0000
0000
0000
,
0000
0000
0000
0000
,
0000
0000
0000
0000
,
0010
1000
0001
0100
,
0001
0010
0100
1000
,
0010
0100
0001
0010
,
0100
0010
0001
1000
,
0001
0100
0010
1000
,
0100
0010
0100
1000
,
0010
1000
0001
0010
,
0001
0100
0010
1000
,
0001
0000
0000
0100
0000
0000
0010
0000
,
0100
0000
0000
0001
0000
0000
1000
0000
,
0100
0000
0000
1000
0000
0000
0010
0000
,
0100
0000
0000
0001
0000
0000
0010
0000
,
0001
0000
0000
1000
0000
0000
0010
0000
,
0100
0000
0000
0010
0000
0000
1000
0000
,
0010
0000
0000
1000
0000
0000
0100
0000
,
0010
0000
0000
0001
0000
0000
1000
0000
,
2002
0000
3003
0100
,
2200
0000
0000
3300
,
0002
0003
2000
3000
,
0020
0030
0200
0300
,
0220
0000
0330
0001
,
0022
0000
0000
0033
,
0020
0030
0002
0003
,
2000
3000
0200
0300
,
1000
0010
0100
0001
,
0010
0100
1000
0001
,
0100
0010
1000
0001
,
0010
0001
0100
0010
,
0100
0001
0010
0100
,
1000
0010
1000
0100
,
1000
0001
0010
0100
,
0010
0001
1000
0010
,
2000
3100
0002
0103
,
0020
1000
0001
0130
,
0001
0100
0020
0130
,
0002
0013
2000
3010
,
0200
0310
2000
3001
,
0020
0100
0001
1030
,
0001
1000
0200
1300
,
0002
1003
0200
0310
,
0001
0000
0000
0010
0000
0000
1000
0000
,
0100
0000
0000
0010
0000
0000
0001
0000
,
1000
0000
0000
0010
0000
0000
0100
0000
,
0001
0000
0000
0010
0000
0000
0100
0000
,
1000
1000
1000
1000
,
0001
0001
0001
0001
,
0100
0100
0100
0100
,
0010
0010
0010
0010
,
1000
0001
0200
0300
,
0010
1000
0002
0003
,
0010
0001
2000
3000
,
0100
1000
0020
0030
,
1000
0001
0200
0300
,
0010
1000
0002
0003
,
0010
0001
2000
3000
,
0100
1000
0020
0030
,
1001
0100
1000
0001
,
0011
0010
0100
1000
,
1100
0010
1000
0001
,
0110
0100
0010
1000
,
0001
0000
0001
0000
0002
0000
0003
1000
,
0002
0023
0230
2300
,
3020
0030
2000
3000
,
0200
0000
0000
0000
0000
0000
1300
0001
,
1000
0000
0000
0010
0000
0000
0100
0000
,
0001
0000
0000
0010
0000
0000
0100
0000
,
1000
0000
0000
0001
0000
0000
0100
0000
,
0010
0000
0000
1000
0000
0000
0001
0000
,
0010
0000
0001
0100
0001
0000
1000
0000
,
0100
0000
1000
0010
1000
0000
0001
0000
,
0100
0000
0010
1000
0010
0000
0100
0000
,
0001
0000
1000
0100
1000
0000
0010
0000
,
1000
0000
0001
0000
,
0010
1000
0200
0300
,
0010
0000
0100
0000
,
1000
0010
0002
0003
,
0010
0000
0001
0000
,
0100
0010
2000
3000
,
0010
0000
1000
0000
,
0100
0000
1000
0000
0020
0000
0130
0010
;

//---------------dance-single - ----------------
#NOTES:
     dance-single:
     :
     Beginner:
     2:
     0.125651,0.204619,0.032576,0.065152,0.000000,108.000000,104.000000,4.000000,8.000000,0.000000,0.000000,0.125651,0.204619,0.032576,0.065152,0.000000,108.000000,104.000000,4.000000,8.000000,0.000000,0.000000:
// measure 0
0000
0000
0000
0000
,  // measure 1
0000
0000
0000
0000
,  // measure 2
0000
0000
0000
0000
,  // measure 3
0000
0000
0000
0000
,  // measure 4
0010
0000
0010
0000
,  // measure 5
0010
0000
0010
0000
,  // measure 6
0100
0000
0100
0000
,  // measure 7
0100
0000
0100
0000
,  // measure 8
0001
0000
0001
0000
,  // measure 9
0001
0000
0001
0000
,  // measure 10
1000
0000
1000
0000
,  // measure 11
1000
0000
1000
0000
,  // measure 12
0010
0000
0000
0000
,  // measure 13
0100
0000
0000
0000
,  // measure 14
0001
0000
0000
0000
,  // measure 15
1000
0000
0000
0000
,  // measure 16
0100
0000
0000
0000
,  // measure 17
0010
0000
0000
0000
,  // measure 18
0001
0000
0000
0000
,  // measure 19
1000
0000
0000
0000
,  // measure 20
1001
0000
0000
0000
,  // measure 21
0110
0000
0000
0000
,  // measure 22
0000
0000
1000
0000
,  // measure 23
0001
0000
1000
0000
,  // measure 24
1001
0000
0000
0000
,  // measure 25
0110
0000
0000
0000
,  // measure 26
0000
0000
0010
0000
,  // measure 27
0100
0000
0010
0000
,  // measure 28
2000
0000
3000
0000
,  // measure 29
0002
0000
0003
0000
,  // measure 30
0020
0000
0030
0000
,  // measure 31
0200
0000
0300
0000
,  // measure 32
0020
0000
0030
0000
,  // measure 33
0200
0000
0300
0000
,  // measure 34
2000
0000
3000
0000
,  // measure 35
0002
0000
0003
0000
,  // measure 36
1000
0000
0010
0000
,  // measure 37
0100
0000
0000
0000
,  // measure 38
0000
0000
0001
0000
,  // measure 39
0010
0000
0100
0000
,  // measure 40
0010
0000
0001
0000
,  // measure 41
1000
0000
0000
0000
,  // measure 42
0000
0000
0001
0000
,  // measure 43
1000
0000
0100
0000
,  // measure 44
1000
0000
0000
0000
,  // measure 45
0010
0000
0000
0000
,  // measure 46
0100
0000
0000
0000
,  // measure 47
0001
0000
0000
0000
,  // measure 48
0010
0000
0000
0000
,  // measure 49
0001
0000
0000
0000
,  // measure 50
1000
0000
0000
0000
,  // measure 51
0100
0000
0000
0000
,  // measure 52
1000
0000
0000
0000
,  // measure 53
0010
0000
0000
0000
,  // measure 54
1000
0000
0000
0000
,  // measure 55
0010
0000
0000
0000
,  // measure 56
0100
0000
0000
0000
,  // measure 57
0001
0000
0000
0000
,  // measure 58
0100
0000
0000
0000
,  // measure 59
0001
0000
0000
0000
,  // measure 60
0001
0000
0000
1000
,  // measure 61
1000
0000
0000
0000
,  // measure 62
0010
0000
0000
0100
,  // measure 63
0100
0000
0000
0000
,  // measure 64
0001
0000
0001
0000
,  // measure 65
1000
0000
1000
0000
,  // measure 66
0010
0000
0010
0000
,  // measure 67
0010
0000
0000
0000
,  // measure 68
1000
0000
0000
0000
,  // measure 69
0100
0000
0000
0000
,  // measure 70
0010
0000
0000
0000
,  // measure 71
0001
0000
0000
0000
,  // measure 72
0010
0000
0010
0000
,  // measure 73
0100
0000
0100
0000
,  // measure 74
1000
0000
0001
0000
,  // measure 75
1000
0000
0001
0000
,  // measure 76
0010
0000
0000
0000
,  // measure 77
0001
0000
0000
0000
,  // measure 78
0010
0000
0000
0000
,  // measure 79
0001
0000
0000
0000
,  // measure 80
1000
0000
0000
0000
,  // measure 81
0100
0000
0000
0000
,  // measure 82
1000
0000
0000
0000
,  // measure 83
0100
0000
0000
0010
;
