#VERSION:0.83;
#TITLE:鏡花水月楼 (DDR EDITION);
#SUBTITLE:;
#ARTIST:TЁЯRA feat.Uchusentai NOIZ;
#TITLETRANSLIT:KYOKA-SUIGETSU-ROW (DDR EDITION);
#SUBTITLETRANSLIT:;
#ARTISTTRANSLIT:TERRA feat. Uchusentai NOIZ;
#GENRE:;
#ORIGIN:;
#CREDIT:;
#BANNER:KYOKA-SUIGETSU-ROW (DDR EDITION)-bn.png;
#BACKGROUND:KYOKA-SUIGETSU-ROW (DDR EDITION)-bg.png;
#PREVIEWVID:;
#JACKET:KYOKA-SUIGETSU-ROW (DDR EDITION)-jacket.png;
#CDIMAGE:;
#DISCIMAGE:;
#LYRICSPATH:;
#CDTITLE:;
#MUSIC:KYOKA-SUIGETSU-ROW (DDR EDITION).ogg;
#OFFSET:0.000000;
#SAMPLESTART:61.013000;
#SAMPLELENGTH:20.000000;
#SELECTABLE:YES;
#BPMS:0.000=175.000;
#STOPS:;
#DELAYS:;
#WARPS:;
#TIMESIGNATURES:0.000=4=4;
#TICKCOUNTS:0.000=4;
#COMBOS:0.000=1;
#SPEEDS:0.000=1.000=0.000=0;
#SCROLLS:0.000=1.000;
#FAKES:;
#LABELS:0.000=Song Start;
#BGCHANGES:0.000=KYOKA-SUIGETSU-ROW (DDR EDITION).avi=1.000=0=0=0=StretchNoLoop====,
99999=-nosongbg-=1.000=0=0=0 // don't automatically add -songbackground-
;
#KEYSOUNDS:;
#ATTACKS:
;

//---------------dance-single - ----------------
#NOTEDATA:;
#CHARTNAME:;
#STEPSTYPE:dance-single;
#DESCRIPTION:;
#CHARTSTYLE:;
#DIFFICULTY:Beginner;
#METER:3;
#RADARVALUES:0.172622,0.273518,0.103038,0.000000,0.000000,129.000000,118.000000,11.000000,0.000000,0.000000,0.000000,0.000000,0.000000,0.000000,0.172622,0.273518,0.103038,0.000000,0.000000,129.000000,118.000000,11.000000,0.000000,0.000000,0.000000,0.000000,0.000000,0.000000;
#CREDIT:;
#NOTES:
0000
0000
0000
0000
,
0000
0000
0000
0000
,
0000
0000
0000
0000
,
1000
0000
0000
0000
,
0100
0000
0000
0000
,
0001
0000
0000
0000
,
0010
0000
0000
0000
,
0100
0000
0000
0000
,
0010
0000
0000
0000
,
1000
0000
1000
0000
,
0001
0000
0001
0000
,
1001
0000
0000
0000
,
1000
0000
0010
0000
,
1000
0000
0010
0000
,
0001
0000
0010
0000
,
0001
0000
0100
0000
,
1000
0000
0100
0000
,
1000
0000
0100
0000
,
0001
0000
0100
0000
,
0001
0000
0000
0000
,
0001
0000
0100
0000
,
0001
0000
0100
0000
,
1000
0000
0100
0000
,
1001
0000
0000
0000
,
0010
0000
0000
0000
,
0100
0000
0000
0000
,
1000
0000
0010
0000
,
0100
0000
0010
0000
,
0010
0000
0000
0000
,
0001
0000
0010
0000
,
1000
0000
0000
0000
,
1000
0000
0010
0000
,
0010
0000
0000
0000
,
0100
0000
0000
0000
,
0001
0000
0010
0000
,
0100
0000
0010
0000
,
0010
0000
0000
0000
,
1000
0000
0010
0000
,
0001
0000
0000
0000
,
0001
0000
0010
0000
,
1001
0000
0000
0000
,
1001
0000
0000
0000
,
0100
0000
0100
0000
,
0010
0000
0010
0000
,
0000
0000
0000
0000
,
1001
0000
0000
0000
,
0010
0000
1000
1000
,
1000
0000
0000
0000
,
0001
0000
0100
0100
,
0100
0000
0000
0000
,
1000
0000
0010
0010
,
0010
0000
0000
0000
,
0110
0000
0000
0000
,
1001
0000
0000
0000
,
0010
0000
0001
0001
,
0001
0000
0000
0000
,
1000
0000
0100
0100
,
0100
0000
0000
0000
,
0001
0000
0010
0010
,
0010
0000
0000
0000
,
0110
0000
0000
0000
,
0010
0010
0010
0000
,
0100
0100
0100
0000
,
1000
0000
0000
0000
,
0001
0000
0000
0000
,
1000
1000
1000
0000
,
0001
0001
0001
0000
,
0100
0000
0010
0000
,
0100
0000
0010
0000
,
1000
0000
0100
0000
,
1000
0000
0010
0000
,
0001
0000
0010
0000
,
1001
0000
0110
0000
,
1001
0000
0000
0000
;

//---------------dance-single - ----------------
#NOTEDATA:;
#CHARTNAME:;
#STEPSTYPE:dance-single;
#DESCRIPTION:;
#CHARTSTYLE:;
#DIFFICULTY:Easy;
#METER:6;
#RADARVALUES:0.247558,0.315085,0.065569,0.224810,0.000000,185.000000,178.000000,7.000000,24.000000,0.000000,0.000000,0.000000,0.000000,0.000000,0.247558,0.315085,0.065569,0.224810,0.000000,185.000000,178.000000,7.000000,24.000000,0.000000,0.000000,0.000000,0.000000,0.000000;
#CREDIT:;
#NOTES:
0000
0000
0000
0000
,
0000
0000
0000
0000
,
0000
0000
0000
0000
,
0020
0000
0030
0000
,
2000
0000
3000
0000
,
0200
0000
0300
0000
,
0020
0000
0030
0000
,
0002
0000
0003
0000
,
0200
0000
0300
0000
,
1000
0000
0010
0000
,
0001
0000
0100
0000
,
2002
0000
3003
0000
,
0001
0010
0001
0010
,
0001
0010
0100
0100
,
1000
0010
1000
0010
,
1000
0100
0100
0000
,
0001
0100
0001
0100
,
0001
0100
0010
0010
,
1000
0100
1000
0100
,
1000
0000
0000
0000
,
1000
0010
1000
0010
,
1000
0010
0100
0100
,
0001
0010
0001
0010
,
0100
0000
1001
0000
,
0001
0000
0100
0000
,
0001
0000
0010
0000
,
0001
1000
0001
1000
,
0001
0010
0100
0000
,
0010
0000
0100
0000
,
1000
0010
1000
0010
,
1000
0000
0001
0001
,
1000
0000
0010
0000
,
1000
0000
0100
0000
,
1000
0000
0010
0000
,
1000
0001
1000
0001
,
1000
0010
0100
0000
,
0010
0000
0100
0000
,
0001
0010
0001
0010
,
0001
0000
1000
1000
,
0001
0000
0110
0000
,
2000
0000
3000
0000
,
0002
0000
0003
0000
,
1000
0100
0010
0100
,
0010
0001
0010
0000
,
0000
0000
0000
0000
,
2000
0000
3000
0000
,
0100
0010
0100
0100
,
2000
0000
3000
0000
,
1000
0001
1000
1000
,
0200
0000
0300
0000
,
0001
0010
0001
0010
,
0002
0000
0003
0000
,
0110
0000
1000
0001
,
0002
0000
0003
0000
,
0100
0010
0100
0100
,
0002
0000
0003
0000
,
0001
1000
0001
0001
,
0200
0000
0300
0000
,
1000
0010
1000
0010
,
2000
0000
3000
0000
,
0110
0000
0000
0000
,
0001
0100
0001
0100
,
0001
1000
0001
1000
,
0002
0000
0003
0000
,
0200
0000
0300
0000
,
1000
0010
1000
0010
,
1000
0001
1000
0001
,
2000
0000
3010
0000
,
0002
0000
0103
0100
,
0100
0000
0010
0000
,
1000
0100
0010
0001
,
0001
0010
0100
1000
,
0010
0000
0110
0000
,
2002
0000
0000
0000
,
0000
0000
0000
3003
;

//---------------dance-single - ----------------
#NOTEDATA:;
#CHARTNAME:;
#STEPSTYPE:dance-single;
#DESCRIPTION:;
#CHARTSTYLE:;
#DIFFICULTY:Medium;
#METER:10;
#RADARVALUES:0.422856,0.595160,0.327847,0.562024,0.004684,316.000000,281.000000,35.000000,60.000000,0.000000,0.000000,0.000000,0.000000,0.000000,0.422856,0.595160,0.327847,0.562024,0.004684,316.000000,281.000000,35.000000,60.000000,0.000000,0.000000,0.000000,0.000000,0.000000;
#CREDIT:;
#NOTES:
0000
0000
0000
0000
,
0000
0000
0000
0000
,
0000
0000
0000
0000
,
2000
0000
0000
3000
,
0020
0000
0000
0030
,
2000
0000
0000
3000
,
0020
0000
0000
0030
,
0002
0000
0000
0003
,
0020
0000
0000
0030
,
2000
3000
0200
0300
,
0002
0003
0200
0300
,
2002
0000
0000
3003
,
1000
0100
0010
0100
,
1000
0000
0100
0000
0010
0001
0010
0000
,
0001
0010
0100
0010
,
1000
0000
0010
0000
1000
0100
0000
0000
,
0001
1100
0010
0101
,
0001
0000
0100
0000
0010
1000
0010
0000
,
1000
0011
0100
0011
,
0001
0000
0010
0000
0001
0100
0010
1000
,
1000
0011
0100
1010
,
1000
0000
0010
0000
0100
0001
0100
0000
,
0001
1000
0100
0010
0010
0001
0100
0100
,
1000
0000
0000
0001
0000
0000
0100
0000
0100
0000
0000
0000
0000
0000
0000
0000
,
1010
0000
0100
1000
,
0001
0000
0110
0001
,
0020
0100
0032
0100
,
2003
0000
0100
0000
3001
0010
0100
0000
,
1000
0001
1000
0110
,
1000
0000
0011
0000
1000
0100
0010
0000
,
0001
0000
0100
0000
0010
0100
0010
0000
,
0002
0100
0023
0130
,
0101
0000
0010
0001
,
1000
0000
0110
1000
,
0200
0010
2300
0010
,
3002
0000
0010
0000
1003
0100
0010
0000
,
0001
1000
0001
0110
,
0001
0000
1100
0000
0001
0010
0100
0000
,
1000
0000
0010
0000
0100
0010
0100
0000
,
0020
0130
0010
1001
,
2020
3030
1000
0100
,
0022
0033
1000
0010
,
2001
3100
1002
0103
,
2200
3300
0022
0033
,
0000
0000
0010
1100
,
0021
0000
0130
1000
,
1000
0100
0010
0000
0001
0010
0001
0000
,
2000
0000
3010
0100
,
1000
0100
1000
0000
1000
0010
1000
0000
,
0201
0000
0301
0010
,
0001
0000
0010
0000
0001
0100
1000
0000
,
0200
0300
1000
0001
,
0110
0000
0000
1001
0000
0000
0101
0000
,
1020
0000
0130
0001
,
0001
0100
0010
0000
1000
0010
1000
0000
,
0002
0000
0013
0100
,
0001
0100
0001
0000
0001
0010
0001
0000
,
1200
0000
1300
0010
,
1000
0000
0010
0000
1000
0010
0001
0000
,
0200
0300
0001
1000
,
1100
0000
0000
1001
,
1000
0010
1000
0001
1000
0100
1000
0001
,
1000
0010
1000
0001
0001
0010
0100
1000
,
0002
0000
0100
0103
,
0020
1000
0100
0130
,
0001
0100
0001
1000
0001
0010
0001
1000
,
0001
0100
0001
1000
1000
0100
0010
0001
,
2000
3100
0020
0130
,
2010
3100
0102
0013
,
2000
3002
0023
0230
,
1300
2000
0100
3200
1000
2300
0010
3020
,
0001
0032
0010
0023
1000
2030
0100
3100
,
0020
0000
0200
0330
,
2002
0000
0000
0000
,
0000
0000
0000
3003
;

//---------------dance-single - ----------------
#NOTEDATA:;
#CHARTNAME:;
#STEPSTYPE:dance-single;
#DESCRIPTION:;
#CHARTSTYLE:;
#DIFFICULTY:Hard;
#METER:13;
#RADARVALUES:0.616888,0.770207,0.281012,0.543290,0.084304,461.000000,431.000000,30.000000,58.000000,0.000000,0.000000,0.000000,0.000000,0.000000,0.616888,0.770207,0.281012,0.543290,0.084304,461.000000,431.000000,30.000000,58.000000,0.000000,0.000000,0.000000,0.000000,0.000000;
#CREDIT:;
#NOTES:
0000
0000
0000
0000
,
0000
0000
0000
0000
,
0000
0000
0000
0000
,
0200
0000
0000
0000
,
2300
0000
0000
0000
,
3002
0000
0000
0000
,
0023
0000
0000
0000
,
0230
0000
0000
0000
,
2300
0000
0000
0000
0000
0000
0000
0001
,
3002
0000
0000
0010
0023
0000
0000
0100
,
0230
0000
0000
1000
2300
0000
0000
0010
,
3020
0000
0000
0030
,
1000
0001
0010
0100
2000
0000
3001
0000
,
0001
0100
0010
0100
0001
0010
0200
0000
,
1300
0001
0100
0010
2000
0000
3001
0000
,
0010
1000
0001
1000
0010
0100
0000
0000
,
0001
1000
0100
0010
0012
0000
1003
0000
,
1000
0010
0100
0010
1000
0100
0120
0000
,
0031
1000
0010
0100
0102
0000
1003
0000
,
0100
0001
1000
0001
0100
0010
0100
0010
,
1000
0001
0010
0100
2100
0000
3001
0000
,
0001
0100
0010
0100
0001
0010
0210
0000
,
0310
1000
0001
1000
0010
0100
0001
0010
,
0100
0000
0000
0010
0000
0000
0100
0000
1001
0000
0000
0000
0000
0000
0000
0000
,
1100
0000
0010
1000
0100
0001
0100
2000
,
0000
3010
0001
0020
0000
1030
0100
1000
,
0010
1000
1100
0000
0100
0010
0001
0100
,
1000
0100
0010
0000
0001
0100
0110
0000
,
0100
0010
1000
0001
0010
0100
1000
0001
,
0010
0001
0100
0010
1000
0100
0010
0100
,
1000
0010
1100
0000
0001
0010
0101
0000
,
0002
0100
0103
0010
2000
0100
3100
0000
,
1010
0000
0100
1000
0010
0001
0010
2000
,
0000
3100
0001
0200
0000
1300
0010
1000
,
0100
1000
1010
0000
0010
0100
0001
0010
,
1000
0010
0100
0000
0001
0010
0110
0000
,
0010
0100
1000
0010
0100
0010
1000
0001
,
0100
0001
0010
0100
1000
0010
0110
0000
,
0001
0100
0101
0000
1000
0010
1010
0000
,
0001
0100
0100
1000
0100
0100
0110
0000
,
0002
0000
0010
0013
0200
0000
1000
1300
,
0020
0000
0001
0031
2000
0000
0100
3100
,
0001
0200
0310
2000
3001
0020
0130
1000
,
0001
0000
0000
0000
0010
0000
0000
0000
0001
0100
0000
0000
1000
0100
1000
0200
,
0000
0000
1300
0011
,
1001
0001
0010
0001
0100
0010
1000
0010
,
0200
0000
0301
0020
0000
0130
1000
0000
,
0011
0010
0001
0100
0010
0100
0010
1000
,
0002
0000
1003
0020
0000
1030
0100
0000
,
0101
0001
1000
0010
0100
0010
1000
0001
,
2000
0000
3100
0200
0000
0310
0001
0010
,
0001
0010
0100
0010
0001
0010
0100
1000
,
1100
0000
0001
0101
0000
0100
0010
0100
,
1001
1000
0010
1000
0100
0010
0001
0010
,
0200
0000
1300
0020
0000
0130
0001
0000
,
1010
0010
1000
0100
0010
0100
0010
0001
,
2000
0000
3001
0020
0000
0031
0100
0000
,
1100
1000
0001
0010
0100
0010
0001
1000
,
0002
0000
0103
0200
0000
0310
1000
0010
,
1000
0010
0100
0010
1000
0010
0100
0001
,
1001
0000
0000
0110
,
1000
0000
0100
0000
0010
0000
0001
0000
0010
0001
0000
0000
0100
0010
1000
0000
,
0100
0000
1000
0000
0001
0000
0010
0000
0001
1000
0001
0000
0010
0000
0000
0000
,
1000
0000
0010
0000
0000
0000
0001
0000
0100
0000
0001
0000
0010
0100
1000
0000
,
0010
1000
0001
0100
0010
0010
0010
0010
,
0002
1000
1000
1003
0200
0010
0010
0310
,
0002
0100
0100
0103
2000
0001
0001
3001
,
0010
0200
0000
1300
0001
0020
0000
0031
,
2000
0000
3010
0200
0000
0301
1001
0000
,
2000
3002
0023
0230
,
1300
0000
0100
0000
1000
0000
0100
0000
1000
0000
0010
0000
1000
0100
0010
0000
,
0001
0000
0100
0000
0001
0000
0100
0000
0001
0000
0010
0000
0001
0100
0010
0000
,
1000
0010
0100
0010
0001
0010
1000
0100
0010
0100
0001
0100
,
2000
0000
0000
0000
,
0000
0000
0000
3000
;

//---------------dance-single - ----------------
#NOTEDATA:;
#CHARTNAME:;
#STEPSTYPE:dance-single;
#DESCRIPTION:;
#CHARTSTYLE:;
#DIFFICULTY:Challenge;
#METER:16;
#RADARVALUES:0.903253,1.155311,0.524556,0.262278,0.538606,675.000000,619.000000,56.000000,28.000000,0.000000,0.000000,0.000000,0.000000,0.000000,0.903253,1.155311,0.524556,0.262278,0.538606,675.000000,619.000000,56.000000,28.000000,0.000000,0.000000,0.000000,0.000000,0.000000;
#CREDIT:;
#NOTES:
// measure 0
0000
0000
0000
0000
,  // measure 1
0000
0000
0000
0000
,  // measure 2
0000
0000
0000
0000
,  // measure 3
0200
0000
0301
0010
0100
1000
0010
1000
,  // measure 4
0002
0000
1003
0010
1000
0001
0010
0100
,  // measure 5
2000
0000
3010
1000
0001
0100
0001
1000
,  // measure 6
0020
0000
0130
0001
0010
0100
1000
0001
,  // measure 7
1001
0000
0100
0001
0010
0001
1000
0010
,  // measure 8
0110
0000
0010
1000
0100
0010
0001
0100
,  // measure 9
0101
0000
0001
1000
1100
0000
0010
0100
,  // measure 10
0001
0001
1000
1000
0010
0010
0100
0100
,  // measure 11
1000
0100
1000
0100
0010
0100
0010
0100
0001
0010
0001
0010
0001
1000
0001
1000
,  // measure 12
0010
0000
1000
0001
0100
0000
0202
0000
0303
0000
2200
0000
3300
0000
0001
0000
,  // measure 13
1000
0100
0010
0001
0100
0000
0010
0000
1010
0000
0001
0000
0101
0000
0000
0000
,  // measure 14
0001
0000
0010
0100
1000
0000
2020
0000
3030
0000
0022
0000
0033
0000
0010
0000
,  // measure 15
0001
0100
0001
0100
0010
0100
0010
0100
0010
1000
0100
0010
0001
0000
0100
0000
,  // measure 16
0010
0000
1000
0100
0010
0000
0001
0000
0100
0000
0010
0000
1000
0000
0001
0000
,  // measure 17
0010
0001
0100
0010
1000
0000
0100
0000
0010
0000
0001
0000
1000
0000
0000
0000
,  // measure 18
0101
1001
1100
1001
0101
0010
0100
1000
,  // measure 19
0010
1000
0010
1000
0001
1000
0001
1000
0001
0010
0100
1000
0010
0000
0100
0000
,  // measure 20
1000
0000
0010
0100
0001
0000
1000
0000
0001
0000
0010
0000
0100
0000
1000
0000
,  // measure 21
0001
1000
0010
0100
0010
0000
1000
0000
0100
0000
0010
0000
0001
0000
0000
0000
,  // measure 22
0011
0110
1100
0110
0011
0100
0010
0000
,  // measure 23
1010
0000
0000
0101
0000
0000
0011
0000
1100
0000
0010
1000
0001
0000
0000
0000
,  // measure 24
1001
0010
1000
0100
0010
0100
1000
0001
,  // measure 25
0010
0100
0010
0100
0010
0001
0100
0010
,  // measure 26
1000
0001
0010
0001
0100
0010
1000
0100
,  // measure 27
0010
0100
1000
0000
0011
0110
1100
1001
,  // measure 28
0101
0000
0001
1000
0010
1000
0100
0010
,  // measure 29
0001
1000
0001
0010
0100
1000
0010
0100
,  // measure 30
0010
1000
0100
0010
0100
1000
0010
0100
,  // measure 31
0001
0000
1000
0000
0010
0000
1000
0000
0100
0000
0010
0000
0001
1000
0001
1000
,  // measure 32
0001
0100
0010
0100
0001
1000
0010
1000
,  // measure 33
0010
0100
0010
1000
0100
0010
0001
0100
,  // measure 34
0010
1000
0001
0010
0001
1000
0010
1000
,  // measure 35
0100
0010
0100
1000
0001
1000
0010
0100
,  // measure 36
0110
0000
1000
0001
0010
0100
0010
0001
,  // measure 37
0101
0000
0001
1000
0010
1000
0100
0000
,  // measure 38
0001
1000
0010
0100
0001
0010
0100
1000
,  // measure 39
0010
0000
1000
0000
0100
0000
0010
0000
0001
0000
0100
0001
1000
0000
0000
0000
,  // measure 40
1010
0000
0110
0000
1001
0000
1100
0000
0000
0000
0001
0010
0100
0000
1000
0000
,  // measure 41
1010
0000
1001
0000
0011
0000
0110
0000
0000
0000
1000
0010
0100
0000
0001
0000
,  // measure 42
0010
0100
0010
0001
0100
0010
1000
0001
,  // measure 43
0010
0000
0001
0100
0010
0000
1000
0000
0100
0000
0010
0100
1000
0000
0000
0000
,  // measure 44
0001
1000
0001
1000
0010
1000
0010
1000
0010
0100
0010
0100
0001
0100
0001
0100
,  // measure 45
0001
1000
0010
0100
0001
0010
0100
1000
,  // measure 46
0010
1000
0100
1000
0010
0000
0100
0000
0001
0000
0010
0000
0100
0000
1000
0000
,  // measure 47
0010
0100
0001
0010
0100
1000
0001
0010
,  // measure 48
0100
1000
0001
1000
0100
0000
0010
0000
0001
0000
0100
0000
0001
0000
1000
0000
,  // measure 49
0010
1000
0001
0010
0100
0010
0001
0100
,  // measure 50
0010
0100
0001
0100
0010
0000
1000
0000
0100
0000
0010
0000
0001
0000
0100
0000
,  // measure 51
0001
1000
0010
1000
0100
0010
0001
0100
,  // measure 52
0001
1000
0010
1000
0100
0000
0110
0000
0000
0000
1001
0000
0100
0001
0100
0010
,  // measure 53
1000
0001
0010
0100
1000
0001
1000
0010
,  // measure 54
0100
0000
0010
1000
0100
0000
1000
0001
0010
0000
0100
0000
1000
0000
0001
0000
,  // measure 55
0010
0100
1000
0010
1000
0001
0100
0001
,  // measure 56
0010
0001
0100
0010
0100
0000
0001
0000
0010
0000
0100
0000
1000
0000
0010
0000
,  // measure 57
1000
0001
0010
0001
0100
0010
1000
0100
,  // measure 58
0010
0100
1000
0001
0100
0000
0010
0000
1000
0000
0001
0000
0010
0000
0100
0000
,  // measure 59
1000
0000
0010
0100
0001
0000
0010
0000
0100
0000
1000
0010
0100
0000
0000
0000
,  // measure 60
0101
0011
0110
1100
0000
1001
0000
1010
,  // measure 61
0001
0010
0001
0010
0100
1000
0100
1000
0010
0100
0010
0100
0001
1000
0001
1000
,  // measure 62
0001
0100
0001
0100
0010
1000
0010
1000
0001
0010
0100
1000
0002
0000
0000
0000
,  // measure 63
1000
0000
0000
0000
0203
0000
0000
0000
0310
1000
0010
0100
0001
0000
2000
0000
,  // measure 64
0000
0001
3001
1000
1010
1000
0102
0000
,  // measure 65
0023
0000
0000
0032
0000
0000
2003
0000
0000
3020
0000
0000
0230
0000
0000
0302
,  // measure 66
0000
0000
1000
0000
1003
0001
1000
0001
0010
0100
0010
0100
1000
0010
0100
0001
,  // measure 67
0100
0010
0100
0010
0100
0001
0100
0001
0010
0001
0010
0100
1000
0010
1000
0001
,  // measure 68
0020
0000
0000
0030
,  // measure 69
0012
1003
2100
3001
,  // measure 70
1001
0000
0000
1010
0000
0000
0101
0000
2100
0000
0001
0000
3001
0000
0000
0000
,  // measure 71
0010
0001
0010
0001
1000
0010
1000
0010
0100
0001
0100
0001
1000
0100
1000
0100
,  // measure 72
1000
0010
1000
0010
1000
0001
1000
0001
0100
0001
0100
0010
0100
0001
0100
0020
,  // measure 73
2000
0000
0000
0000
,  // measure 74
0000
0000
0000
3030
;
