#TITLE:KISS KISS KISS;
#SUBTITLE:-super euro version-;
#ARTIST:NAOKI with B4 ZA BEAT;
#TITLETRANSLIT:;
#SUBTITLETRANSLIT:;
#ARTISTTRANSLIT:;
#GENRE:;
#CREDIT:;
#BANNER:KISS KISS KISS -super euro version--bn.png;
#BACKGROUND:KISS KISS KISS -super euro version--bg.png;
#LYRICSPATH:;
#CDTITLE:;
#MUSIC:KISS KISS KISS -super euro version-.ogg;
#OFFSET:0.000000;
#SAMPLESTART:41.655998;
#SAMPLELENGTH:20.000000;
#SELECTABLE:YES;
#DISPLAYBPM:157.000000;
#BPMS:0.000000=157.000000
;
#STOPS:
;
#BGCHANGES:;
#KEYSOUNDS:;
#ATTACKS:;

//---------------dance-single - ----------------
#NOTES:
     dance-single:
     :
     Hard:
     13:
     0.652614,0.653032,0.234272,0.093709,0.181560,390.000000,370.000000,20.000000,8.000000,0.000000,0.000000,0.652614,0.653032,0.234272,0.093709,0.181560,390.000000,370.000000,20.000000,8.000000,0.000000,0.000000:
0000
0000
0000
0000
,
0000
0000
0000
0000
,
0000
0000
0000
0000
,
0000
0000
0000
0000
,
0010
1000
0100
0010
0001
0100
0010
1000
,
0100
0000
0010
0000
0001
0000
0100
0000
0010
0000
1000
0000
0001
0000
0010
0100
,
0000
0000
1000
0001
0000
0000
1000
0010
0000
0000
0100
0001
0000
0000
1000
0001
,
1000
0010
0100
0001
0010
0100
1000
0001
,
0010
0001
0100
0010
1000
0100
1000
0010
,
0100
0000
0001
0000
0010
0000
0100
0000
1000
0000
0001
0000
1000
0000
0010
0100
,
0000
0000
0001
1000
0000
0000
0001
0010
0000
0000
0100
1000
0000
0000
0010
0100
,
0010
1000
0100
0010
0001
0100
0010
1000
,
1001
0010
0100
0001
0000
1000
0100
0001
,
0012
0000
0203
0000
0310
1000
0100
0010
,
0000
0001
1000
0100
0000
0010
0100
1000
,
0000
0001
0000
1000
0010
0100
0001
1000
,
0100
0010
0001
1000
0000
0001
1000
0010
,
0200
0000
0302
0000
0013
0001
1000
0010
,
1000
0100
0010
0001
0100
0010
1000
0001
,
0101
0000
1100
0000
0001
0010
0100
1000
,
0110
0001
0100
0010
1000
0100
0010
0001
,
0101
0000
1000
0010
1000
0100
0010
0001
,
1001
0100
0010
1000
0100
0010
0001
1000
,
0010
0100
0010
1000
0100
0010
0001
1000
,
1010
0000
0001
0010
0100
1000
0010
0100
,
0110
0000
0010
1000
0001
0010
0100
1000
,
0001
0010
1000
0000
0001
0100
0010
1000
,
0000
1100
0110
0011
,
1001
0010
0100
0010
1000
0100
0010
0001
,
0100
0010
1000
0001
0010
0100
1000
0000
,
0011
0001
1000
0001
0010
0100
1000
0010
,
0100
0000
0010
0000
1000
0000
0100
0000
0010
0000
0001
1000
0000
0001
1000
0000
,
0010
1000
0001
0010
0100
0010
0001
0100
,
0010
1000
0001
1000
0100
0010
0001
0100
,
0001
0010
0100
1000
0010
0100
0001
1000
,
0100
1010
0110
0101
,
1001
0100
0001
0010
0100
1000
0100
0010
,
0001
0100
0010
1000
0100
0010
0001
0000
,
1100
0010
1000
0100
0010
0001
0100
0010
,
1000
0000
0001
0000
0010
0000
0100
0000
1000
0000
0010
0100
0000
0010
0100
0000
,
0001
1000
0001
0010
0100
1000
0010
0100
,
0010
1000
0100
0010
0001
0100
0010
1000
,
0001
0000
1000
0000
0001
0000
0010
0000
0100
0000
1000
0010
0000
0100
0001
0000
,
1000
0000
0001
0000
0010
0000
0100
0000
1000
0000
0010
0000
0100
0001
0100
0001
,
0100
0010
1000
0001
0010
0100
1000
0010
,
0100
0000
0001
0000
0010
0000
0001
0000
1000
0000
0010
0000
1000
0000
0001
0100
,
0000
0000
0010
1000
0000
0000
1000
0100
0000
0000
0010
0001
0000
0000
1000
0001
,
1000
0010
0100
0001
0010
0100
1000
0001
,
1000
0001
0100
0010
1000
0001
0010
0100
,
1000
0000
0001
0000
0010
0000
0100
0000
0010
0000
0001
0000
0100
0000
0010
1000
,
0000
0000
0001
0100
0000
0000
0001
0010
0000
0000
0100
1000
0000
0000
0010
0100
,
0010
0100
0000
0100
0001
0000
0001
1000
0000
0000
0010
0000
1000
0000
0001
0000
,
0220
0000
0000
0300
,
2000
0000
0000
0030
,
0002
0000
0000
0000
,
0000
0000
0000
3003
;

//---------------dance-single - ----------------
#NOTES:
     dance-single:
     :
     Medium:
     9:
     0.455156,0.489774,0.281126,0.538825,0.000000,272.000000,248.000000,24.000000,46.000000,0.000000,0.000000,0.455156,0.489774,0.281126,0.538825,0.000000,272.000000,248.000000,24.000000,46.000000,0.000000,0.000000:
0000
0000
0000
0000
,
0000
0000
0000
0000
,
0000
0000
0000
0000
,
0000
0000
0000
0000
,
1000
0100
0001
0000
0010
0000
0001
1000
,
0000
0100
1000
0000
0010
0100
0001
2000
,
0000
3200
0000
0320
0000
0032
0000
1003
,
0001
0010
0100
0000
1000
0010
0001
0000
,
0100
0001
0010
0000
0001
0000
1000
0100
,
0000
1000
0001
0000
0010
0001
1000
0200
,
0000
2300
0000
3002
0000
0023
0000
0130
,
1000
0001
0100
0000
1000
0010
0100
0000
,
1001
0001
0000
0010
0000
0100
0000
1000
,
0000
0010
0000
0100
0000
0001
0010
1000
,
0000
0100
0000
1000
0000
0010
0100
0001
,
0000
0010
0000
0001
0000
1000
0001
0100
,
0000
0010
0000
1000
0000
0100
0010
0001
,
0000
0010
0000
0001
0000
0100
0001
1000
,
0000
0001
0000
0010
0000
0001
1000
0100
,
2000
3020
0230
0302
,
0013
0000
0000
0011
0000
0001
1000
0100
,
0010
0000
0000
1100
0000
1000
0001
0100
,
0010
2000
0000
3002
0000
0203
0000
0320
,
0000
1030
0100
0001
0000
0010
0100
1000
,
0001
0000
0000
0101
0000
0100
0010
1000
,
0001
0000
0000
1010
0000
1000
0001
0100
,
0020
0000
2030
0000
3002
0000
0103
0110
,
0000
1001
1001
1001
,
0010
1000
0001
0200
0000
0310
0000
0101
,
0000
1100
0000
0201
0000
0301
0100
0000
,
0020
1000
0000
0100
0000
1030
0001
0200
,
0000
0310
1000
0001
0000
0010
0100
0000
,
1200
0000
0000
2300
0000
3001
0100
0010
,
0100
0000
0101
0000
1100
0000
0001
2000
,
0000
3020
0100
0001
,
1030
0110
0110
0110
,
1000
0001
0010
0002
0000
0103
0000
1010
,
0000
0011
0000
2010
0000
3010
1000
0000
,
0002
0000
0010
0000
1003
0001
1000
0020
,
0000
0130
0010
1000
0000
0001
1000
0000
,
0012
0000
0000
0203
0000
0310
1000
0001
,
0010
0000
0011
0000
1010
0000
1000
0002
,
0000
0203
1000
0001
,
0310
0100
0001
1000
0001
0100
0010
0000
,
1000
0001
0010
0000
0100
0000
1000
0100
,
0000
1000
0001
0000
1000
0010
0100
0002
,
0000
2003
0000
3020
0000
0230
0000
0301
,
0010
0001
0100
0000
0010
1000
0001
0000
,
0100
0001
0010
0000
0001
0000
1000
0010
,
0000
0100
0010
0000
1000
0001
0010
0200
,
0000
0320
0000
0032
0000
2003
0000
3010
,
1000
0001
0100
0000
0010
1000
0100
0000
,
0002
0000
0000
0000
,
0203
0000
0000
0000
,
0320
0000
0000
0000
,
0000
0000
0000
0030
;

//---------------dance-single - ----------------
#NOTES:
     dance-single:
     :
     Easy:
     7:
     0.317940,0.326516,0.117136,0.281126,0.000000,190.000000,180.000000,10.000000,24.000000,0.000000,0.000000,0.317940,0.326516,0.117136,0.281126,0.000000,190.000000,180.000000,10.000000,24.000000,0.000000,0.000000:
0000
0000
0000
0000
,
0000
0000
0000
0000
,
0000
0000
0000
0000
,
0000
0000
0000
0000
,
0010
1000
0100
0010
,
0001
0100
0010
1000
,
0010
0010
0100
0100
,
0001
0010
0001
1000
,
0100
0010
0001
1000
,
0001
0100
0010
1000
,
0001
0001
1000
1000
,
0010
1000
0100
0010
,
1001
0000
0110
0000
,
1000
0010
1000
0010
,
0100
0000
0001
0000
,
0010
0000
0001
1000
,
0010
0100
0000
0001
,
1000
0001
0010
0100
,
1000
0001
0000
0000
,
1000
0100
0010
0001
,
2002
3003
0010
0100
,
0220
0330
0001
1000
,
0001
0100
1000
0100
,
0001
0010
1000
0010
,
2002
3003
1000
0001
,
0220
0330
0100
0010
,
1000
0001
0100
0010
,
2000
3002
2003
3002
,
0013
0001
0100
0010
,
1000
0100
0001
0010
,
1000
0001
0010
0100
,
1000
0010
1000
0100
,
0010
0001
0100
0010
,
1000
0001
0010
0100
,
0010
0001
0100
1000
,
0020
0230
0320
0230
,
0301
0010
1000
0100
,
0010
0100
0010
0001
,
0100
0010
1000
0100
,
1000
0001
0010
0100
,
1000
0001
0010
0100
,
0010
0001
1000
0010
,
1000
0100
0010
0001
,
2002
0000
0000
3003
,
0010
0001
0100
1000
,
0010
1000
0001
0100
,
1000
1000
0001
0001
,
0010
0001
0100
1000
,
0010
0100
0010
1000
,
0100
0001
0010
1000
,
0100
0100
0010
0010
,
0100
1000
0010
0001
,
0220
0000
0000
0330
,
2002
0000
0000
3003
,
0220
0000
0000
0000
,
0000
0000
0000
0330
;

//---------------dance-single - ----------------
#NOTES:
     dance-single:
     :
     Beginner:
     2:
     0.158970,0.182732,0.070281,0.000000,0.000000,95.000000,89.000000,6.000000,0.000000,0.000000,0.000000,0.158970,0.182732,0.070281,0.000000,0.000000,95.000000,89.000000,6.000000,0.000000,0.000000,0.000000:
// measure 0
0000
0000
0000
0000
,  // measure 1
0000
0000
0000
0000
,  // measure 2
0000
0000
0000
0000
,  // measure 3
0000
0000
0000
0000
,  // measure 4
0001
0000
0001
0000
,  // measure 5
1000
0000
1000
0000
,  // measure 6
0010
0000
0010
0000
,  // measure 7
0100
0000
0100
0000
,  // measure 8
0001
0000
0001
0000
,  // measure 9
0010
0000
0010
0000
,  // measure 10
0100
0000
0100
0000
,  // measure 11
1000
0000
1000
0000
,  // measure 12
1001
0000
0000
0000
,  // measure 13
0001
0000
1000
0000
,  // measure 14
0100
0000
0000
0000
,  // measure 15
0000
0000
0010
0000
,  // measure 16
0110
0000
0000
0000
,  // measure 17
0001
0000
0010
0000
,  // measure 18
0100
0000
0000
0000
,  // measure 19
1000
0000
0001
0000
,  // measure 20
0010
0000
0010
0000
,  // measure 21
0100
0000
0100
0000
,  // measure 22
1000
0000
0001
0000
,  // measure 23
1000
0000
0001
0000
,  // measure 24
0100
0000
0100
0000
,  // measure 25
0010
0000
0010
0000
,  // measure 26
1000
0000
0001
0000
,  // measure 27
1001
0000
0000
0000
,  // measure 28
0010
0000
1000
0000
,  // measure 29
0100
0000
0100
0000
,  // measure 30
0010
0000
0001
0000
,  // measure 31
0100
0000
0100
0000
,  // measure 32
0001
0000
0010
0000
,  // measure 33
0100
0000
1000
0000
,  // measure 34
0010
0000
0100
0000
,  // measure 35
0110
0000
0000
0000
,  // measure 36
0001
0000
1000
0000
,  // measure 37
0100
0000
0100
0000
,  // measure 38
1000
0000
0001
0000
,  // measure 39
0010
0000
0010
0000
,  // measure 40
0100
0000
0010
0000
,  // measure 41
0001
0000
0100
0000
,  // measure 42
1000
0000
0001
0000
,  // measure 43
1001
0000
0000
0000
,  // measure 44
0010
0000
0010
0000
,  // measure 45
1000
0000
1000
0000
,  // measure 46
0001
0000
0001
0000
,  // measure 47
0100
0000
0100
0000
,  // measure 48
0001
0000
0001
0000
,  // measure 49
1000
0000
1000
0000
,  // measure 50
0010
0000
0010
0000
,  // measure 51
0100
0000
0100
0000
,  // measure 52
0110
0000
0000
0000
;
