#TITLE:KEEP ON MOVING;
#SUBTITLE:(Orbit1 remix);
#ARTIST:D'n'B STARS;
#TITLETRANSLIT:;
#SUBTITLETRANSLIT:;
#ARTISTTRANSLIT:;
#GENRE:;
#CREDIT:;
#BANNER:KEEP ON MOVING (Orbit1 remix)-bn.png;
#BACKGROUND:KEEP ON MOVING (Orbit1 remix)-bg.png;
#LYRICSPATH:KEEP ON MOVING (Orbit1 remix).lrc;
#CDTITLE:;
#MUSIC:KEEP ON MOVING (Orbit1 remix).ogg;
#OFFSET:-0.046000;
#SAMPLESTART:45.181999;
#SAMPLELENGTH:20.000000;
#SELECTABLE:YES;
#BPMS:0.000000=85.010002
,32.000000=170.000000
;
#STOPS:
;
#BGCHANGES:;
#KEYSOUNDS:;
#ATTACKS:;

//---------------dance-single - ----------------
#NOTES:
     dance-single:
     :
     Easy:
     5:
     0.244890,0.298126,0.055899,0.111797,0.000000,184.000000,178.000000,6.000000,12.000000,0.000000,0.000000,0.244890,0.298126,0.055899,0.111797,0.000000,184.000000,178.000000,6.000000,12.000000,0.000000,0.000000:
0000
0000
0000
0000
,
0000
0000
0000
0000
,
0001
1000
0000
0001
,
0010
0100
0000
0010
,
0100
1000
0100
0000
1000
0000
0001
0000
,
0100
0001
0100
0000
0000
0000
0010
0000
,
1000
0001
1000
0000
0100
0000
1000
0000
,
0001
1000
0001
0000
0010
0000
0000
0000
,
0100
0010
0001
0000
,
0000
1000
0000
0000
0010
0000
0010
0000
,
0100
0001
0010
0000
,
0000
0100
0000
0000
0010
0000
0010
0000
,
0001
0100
0010
0000
,
0000
1000
0000
0000
0010
0000
0010
0000
,
0200
0000
0310
0000
,
0010
1000
0001
0010
,
0100
0010
0001
0000
,
0000
1000
0000
0000
0001
0000
0001
0000
,
1000
0010
0100
0000
,
0000
0010
0000
0000
0100
0000
0100
0000
,
0001
0100
0010
0000
,
0000
1000
0000
0000
0010
0100
0010
0000
,
0100
0001
1000
0100
,
0010
0000
0000
0110
,
0200
0000
0300
0100
,
1000
0000
0001
0010
,
0001
0000
1000
0000
,
0010
0010
0100
0001
,
2000
0000
3000
1000
,
0001
0100
0010
1000
,
0200
0000
0000
0300
,
0010
0000
0000
0100
,
0002
0000
0003
0001
,
1000
0100
1000
0100
,
0010
0000
0100
0000
,
1000
1000
0001
0001
,
0100
0000
0010
0000
,
0200
0000
0000
0300
,
0100
0000
0020
0000
,
0030
0000
0010
0010
,
0100
0000
0001
0000
,
1001
0000
0100
0000
,
0010
0000
1000
0000
,
1001
0000
0010
0100
,
0010
0000
0001
0000
,
1001
0000
0100
0010
,
1000
0010
1000
0000
,
0001
0001
0001
0010
,
0001
1000
0001
0000
,
1000
0100
1000
0100
,
0010
0001
1000
0000
,
0100
0010
0100
0100
,
2000
3000
1000
0000
,
0200
0300
0100
0000
,
0020
0030
0002
0003
,
1000
1000
1000
0010
,
0100
0001
0100
0000
,
0010
1000
0010
1000
,
0001
0010
0100
0000
,
0010
0000
0100
0100
,
0020
0000
0030
0000
,
1000
0000
0001
0000
,
0100
0000
0010
0000
,
1001
0000
0110
0000
,
0001
0000
0000
0000
;

//---------------dance-single - ----------------
#NOTES:
     dance-single:
     :
     Medium:
     8:
     0.324745,0.454177,0.037266,0.177013,0.060557,244.000000,240.000000,4.000000,19.000000,0.000000,0.000000,0.324745,0.454177,0.037266,0.177013,0.060557,244.000000,240.000000,4.000000,19.000000,0.000000,0.000000:
0000
0000
0000
0000
,
0000
0000
0000
0000
,
0001
0000
0000
0000
1000
0000
0000
0010
0000
0010
0000
0000
0100
0000
0000
0000
,
0001
0010
0100
0000
,
0001
0000
0000
1000
0100
0000
0000
0010
0000
0010
0000
0000
1000
0000
0000
0000
,
0001
0000
1000
0100
1000
0000
0001
0100
0000
0100
0000
0000
0010
0000
0000
0000
,
0001
0000
0000
1000
0010
0000
0000
0100
0000
0100
0000
0000
0001
0000
0000
0000
,
0100
0000
0000
1000
0001
0000
0000
0000
1000
0000
0000
0010
0000
0000
0000
0000
,
0020
0000
1000
1030
,
0001
0000
0000
0000
0010
0100
1000
0000
,
0020
0000
0100
0130
,
0001
0000
0001
0000
0010
0001
0100
0000
,
0020
0000
0000
0000
1000
0000
1030
0010
,
0000
0100
0000
0001
0010
0001
1000
0000
,
0200
0000
0320
0000
,
0031
0000
0100
0000
0001
1000
0100
0000
,
0002
0000
0100
0103
,
0010
0000
0000
0000
1000
0100
0010
0000
,
0002
0000
1000
1003
,
0010
0000
0010
0000
0100
0001
0010
0000
,
0200
0000
0000
0000
1000
0000
1300
0100
,
0000
0010
0000
0001
1000
0010
0100
0000
,
0002
0000
2003
0000
,
3001
0010
0001
0000
1000
0100
1000
0000
,
0200
1000
0010
1300
,
0002
0100
0010
0103
,
0001
0001
1000
0010
,
0100
0000
0000
0100
0000
0000
0100
0000
,
0020
1000
0100
1030
,
0200
1000
0010
1300
,
0001
0000
0000
1000
0000
0000
0100
0000
,
0010
0000
0000
0100
0000
0000
1000
0000
,
0010
0100
0001
0010
,
0100
1000
0010
0100
,
0001
0010
0100
1000
,
0001
0000
0000
0001
0000
0000
0001
0000
,
1000
0100
1000
0010
,
0100
0000
0000
0100
0000
0000
0100
0001
,
0010
0000
0100
0000
0010
0000
1000
0001
,
0000
0000
0000
0000
0000
0100
0010
0000
,
1000
0000
0000
0000
0001
0000
0000
0010
,
0000
0010
0000
0100
1000
0000
0000
0000
,
0001
0000
0000
0000
1000
0000
0000
0010
,
0000
0010
0000
0000
0100
0001
0100
0000
,
0002
0000
1003
0000
,
0000
0000
0100
1000
,
1100
0000
0101
0000
,
0010
0000
0010
0000
0100
0001
0100
0000
,
0010
0001
1000
0010
,
0100
0000
0000
0000
0001
0100
1000
0000
,
0010
0000
1000
0000
0001
0000
0010
0100
,
0000
0100
0000
1000
0010
0100
0001
0000
,
0200
0000
0310
0000
,
1000
0000
0000
1000
0000
0000
1000
0000
,
0002
0000
0203
0000
,
0310
0000
0100
0000
0010
0100
0001
0000
,
1000
0100
0010
0001
,
0100
0000
0010
0000
0100
0001
0100
0000
,
1000
0000
0000
0001
0000
0000
1000
0000
,
0010
0000
1000
0000
0100
0010
0001
0000
,
0011
0000
0000
1100
0000
0000
0000
0000
,
0010
0000
0000
0100
0000
0000
1000
0000
,
0010
0000
0000
0100
0000
0000
0001
0000
,
1000
0000
0001
0000
0010
0100
1000
0000
,
0020
0000
0000
0000
,
0030
0000
0000
0000
;

//---------------dance-single - ----------------
#NOTES:
     dance-single:
     :
     Hard:
     11:
     0.459168,0.635848,0.055899,0.065215,0.139747,345.000000,339.000000,6.000000,7.000000,0.000000,0.000000,0.459168,0.635848,0.055899,0.065215,0.139747,345.000000,339.000000,6.000000,7.000000,0.000000,0.000000:
0000
0000
0000
0000
,
0000
0000
0000
0000
,
0001
0000
0000
1000
0100
0000
0000
0010
0000
0010
0000
0000
1000
0000
0000
0000
,
0001
0000
0000
0000
0000
0000
0000
0000
0000
0000
0000
0000
1000
0000
0000
0000
0100
0000
0000
0000
0000
0000
0000
0000
0000
0000
0000
0000
0000
0000
0000
0000
1000
0000
0000
0000
0000
0000
0010
0000
0000
0000
0000
0100
0000
0000
0000
0000
0001
0000
0000
0000
0000
0000
0000
0000
0000
0000
0000
0000
0000
0000
0000
0000
,
0001
0000
1000
0100
0001
0000
0100
1000
0000
1000
0000
0010
0100
0010
0100
0000
,
1000
0000
0001
0100
1000
0000
0100
0001
0000
1000
0000
0001
0000
0000
0000
0000
,
1000
0000
0010
1000
0100
0000
0100
1000
0000
1000
0001
0010
0100
1000
0100
0000
,
1000
0000
0001
0100
1000
0000
0000
0000
0100
0000
0000
0010
0000
0000
0100
0000
,
0001
0000
0100
0001
0000
0000
1000
0100
,
0000
0100
0000
0010
0001
0010
0100
0000
,
1000
0000
0000
0100
1000
0000
0001
0100
,
0000
0100
0001
0010
0001
0100
0010
0000
,
0100
0000
0000
0010
0100
0000
0001
0010
,
0000
0010
0000
0100
1000
0001
0100
0000
,
0010
1100
0010
0101
,
0000
0010
1000
0100
0010
0001
0100
0000
,
1000
0000
0000
0010
0100
0000
0001
1000
,
0000
1000
0000
0010
1000
0100
0010
0000
,
0001
0000
0000
1000
0001
0000
0100
0001
,
0000
0001
0100
0010
1000
0001
1000
0000
,
0010
0000
0000
0100
0001
0000
1000
0100
,
0000
0100
0000
0010
0100
1000
0001
0000
,
0010
1100
0010
0101
,
0001
1000
1000
0001
0010
0100
1000
0000
,
0010
0000
1000
0000
0100
0000
0000
1000
0000
0000
0001
0000
0010
0000
0000
0000
,
0100
0000
1000
0000
0010
0000
0000
0100
0000
0000
0001
0000
1000
0000
0000
0000
,
0100
0010
0001
0000
1000
0000
0010
0100
,
0000
0100
0000
0100
0000
0100
0001
0010
,
0100
0000
1000
0000
0001
0000
0000
1000
0000
0000
0010
0000
0100
0000
0000
0000
,
0010
0000
1000
0000
0100
0000
0000
1000
0000
0000
0001
0000
0010
0000
0000
0000
,
1000
0010
0001
0100
,
0010
0100
0001
0100
0000
0010
0010
0000
,
1000
0000
0100
0000
0010
0000
0000
0100
0000
1000
0100
0000
1000
0000
0000
0000
,
0001
0000
0100
0000
0010
0000
0000
0100
0000
0001
0100
0000
0001
0000
0000
0000
,
1000
0000
0100
0000
0001
0000
0100
0010
,
0000
0100
0000
0100
0001
0010
0100
0000
,
1000
0000
0100
0000
0010
0000
0001
1000
,
0001
0100
0010
0100
0000
0001
0100
0010
,
1000
0000
0001
0000
0010
0000
0100
1000
,
0010
0100
0001
0000
0000
0110
1001
0000
,
0010
0000
0000
0100
0001
0000
0000
1000
,
0000
0010
0000
0001
0010
0100
1000
0000
,
0010
0000
0000
0100
0001
0000
0000
0010
,
0000
0100
1000
0001
0100
0010
1000
0000
,
0001
0000
0000
0010
0100
0000
0000
0001
,
0000
0010
0000
1000
0010
0100
0001
0000
,
0002
0000
2003
0000
,
3001
0100
0001
0100
0001
0100
0010
0000
,
1000
0000
0010
0100
0000
0000
0001
0010
,
0000
0010
0000
0100
1000
0001
0010
0000
,
0001
0000
1000
0100
0000
0000
0001
0100
,
0000
0100
0010
0100
0001
0010
0001
0000
,
1000
0000
0000
0020
0000
0000
0000
0000
,
1030
0100
0010
0001
1000
0010
0001
0000
,
2000
0000
3002
0000
,
0003
1000
0010
0100
0001
0010
0100
0000
,
0010
0000
0100
0010
0000
0000
0100
1000
,
0000
0010
0000
0001
0000
0100
0000
1000
,
0001
0000
0100
0010
0000
0000
0100
0001
,
0000
0001
0000
0000
0100
0001
0010
0000
,
0100
0000
0000
0020
0000
0000
0030
0000
,
0100
1000
0100
1000
0010
1000
0001
0000
,
1000
0000
0000
0001
0000
0000
0010
0000
,
0100
0001
0010
0100
1000
0010
0100
0000
,
0001
0000
0000
0020
0000
0000
0000
0000
,
0030
0000
0000
0000
;

//---------------dance-double - ----------------
#NOTES:
     dance-double:
     :
     Easy:
     6:
     0.246221,0.357752,0.065215,0.111797,0.000000,185.000000,178.000000,7.000000,12.000000,0.000000,0.000000,0.246221,0.357752,0.065215,0.111797,0.000000,185.000000,178.000000,7.000000,12.000000,0.000000,0.000000:
00000000
00000000
00000000
00000000
,
00000000
00000000
00000000
00000000
,
00000001
00000100
00000000
00000001
,
00000010
00000100
00000000
00001001
,
00000100
00010000
00000100
00000000
00010000
00000000
00001000
00000000
,
00100000
00010000
00100000
00000000
00000000
00000000
01000000
00000000
,
10000000
00010000
10000000
00000000
00100000
00000000
01000000
00000000
,
00010000
00100000
00001000
00000000
00010000
00000000
00011000
00000000
,
00010000
00000100
00001000
00000000
,
00000000
00000010
00000000
00000000
00000100
00000000
00000100
00000000
,
00000001
00000100
00000010
00000000
,
00000000
00010000
00000000
00000000
00001000
00000000
00001000
00000000
,
00100000
00010000
01000000
00000000
,
00000000
00010000
00000000
00000000
10000000
00000000
10000000
00000000
,
00200000
00000000
01300000
00000000
,
00010000
00100000
00001000
00010000
,
00000100
00000010
00000100
00000000
,
00000000
00001000
00000000
00000000
00000001
00000000
00000001
00000000
,
00001000
00000010
00000100
00000000
,
00000000
00000001
00000000
00000000
00001000
00000000
00001000
00000000
,
00000100
00010000
00001000
00000000
,
00000000
00100000
00000000
00000000
00010000
10000000
00010000
00000000
,
00100000
01000000
00001000
00000000
,
00010000
00000000
00000000
00011000
,
00002000
00000000
00003000
00001000
,
00010000
00000000
00000100
00001000
,
00000100
00000000
00001000
00000000
,
00000010
00000010
00000100
00000001
,
00002000
00000000
00003000
00001000
,
00000100
00010000
00001000
00100000
,
00200000
00000000
00000000
00300000
,
00010000
00000000
00000000
10000000
,
20000000
00000000
30000000
00010000
,
00100000
01000000
10000000
00010000
,
00100000
00000000
00001000
00000000
,
00010000
00010000
00001000
00001000
,
00010000
00000000
00000100
00000000
,
00000020
00000000
00000000
00000030
,
00000010
00000000
00000100
00000000
,
00002000
00000000
00003000
00001000
,
00000001
00000000
00001000
00000000
,
00001001
00000000
00000100
00000000
,
00000010
00000000
00010000
00000000
,
00001000
00000000
00100000
00010000
,
00100000
00000000
01000000
00000000
,
01100000
00000000
01000000
10000000
,
00010000
01000000
00010000
00000000
,
00100000
00100000
00100000
00001000
,
00010000
00001000
00010000
00000000
,
00000100
00001000
00000010
00000100
,
00000001
00001000
00000001
00000000
,
00000100
00000010
00010000
00010000
,
00002000
00003000
00001000
00000000
,
00200000
00300000
00100000
00000000
,
00020000
00030000
02000000
03000000
,
00100000
00100000
00100000
01000000
,
00010000
10000000
01000000
00000000
,
00100000
00010000
00100000
00010000
,
01000000
00001000
00010000
00000000
,
00001000
00000000
00010000
00010000
,
00000200
00000000
00000300
00000000
,
00001000
00000000
00000010
00000000
,
00000100
00000000
00000001
00000000
,
00001001
00000000
00000110
00000000
,
00000010
00000000
00000000
00000000
;

//---------------dance-double - ----------------
#NOTES:
     dance-double:
     :
     Medium:
     8:
     0.324745,0.454177,0.037266,0.177013,0.060557,244.000000,240.000000,4.000000,19.000000,0.000000,0.000000,0.324745,0.454177,0.037266,0.177013,0.060557,244.000000,240.000000,4.000000,19.000000,0.000000,0.000000:
00000000
00000000
00000000
00000000
,
00000000
00000000
00000000
00000000
,
00001000
00000000
00000000
00000000
00000100
00000000
00000000
00000010
00000000
00000010
00000000
00000000
00000001
00000000
00000000
00000000
,
00001000
00000010
00010000
00000000
,
00001000
00000000
00000000
01000000
00100000
00000000
00000000
01000000
00000000
01000000
00000000
00000000
00010000
00000000
00000000
00000000
,
10000000
00000000
01000000
00100000
01000000
00000000
10000000
00010000
00000000
00010000
00000000
00000000
00100000
00000000
00000000
00000000
,
00001000
00000000
00000000
00010000
00000100
00000000
00000000
00000010
00000000
00000010
00000000
00000000
00000100
00000000
00000000
00000000
,
00001000
00000000
00000000
00000010
00000100
00000000
00000000
00000000
00000001
00000000
00000000
00001000
00000000
00000000
00000000
00000000
,
00000002
00000000
00000100
00000103
,
00001000
00000000
00000000
00000000
00010000
00100000
10000000
00000000
,
02000000
00000000
00100000
03100000
,
00001000
00000000
00001000
00000000
00010000
00000100
00000010
00000000
,
00000200
00000000
00000000
00000000
00001000
00000000
00001300
00000010
,
00000000
00000100
00000000
00000001
00001000
00000001
00000010
00000000
,
00000200
00000000
00020300
00000000
,
00031000
00000000
01000000
00000000
00100000
01000000
00010000
00000000
,
20000000
00000000
00100000
30100000
,
01000000
00000000
00000000
00000000
00010000
00100000
01000000
00000000
,
00200000
00000000
00001000
00301000
,
00010000
00000000
00010000
00000000
00001000
00000100
00000010
00000000
,
00000200
00000000
00000000
00000000
00000001
00000000
00000301
00000100
,
00000000
00000010
00000000
00001000
00000100
00010000
00001000
00000000
,
00020000
00000000
00032000
00000000
,
00103000
00010000
00100000
00000000
01000000
10000000
01000000
00000000
,
20000000
00010000
01000000
30010000
,
00200000
00001000
00010000
00301000
,
00010000
00010000
00001000
00000100
,
00000010
00000000
00000000
00000010
00000000
00000000
00000010
00000000
,
00002000
00000001
00000100
00003001
,
00000200
00000010
00001000
00000310
,
00010000
00000000
00000000
00001000
00000000
00000000
00100000
00000000
,
00010000
00000000
00000000
10000000
00000000
00000000
01000000
00000000
,
10000000
01000000
00010000
00001000
,
00000010
00000001
00001000
00000001
,
00000100
00001000
00010000
00100000
,
10000000
00000000
00000000
10000000
00000000
00000000
10000000
00000000
,
00100000
01000000
00010000
00100000
,
00001000
00000000
00000000
00001000
00000000
00000000
00001000
00010000
,
00000100
00000000
00001000
00000000
00000010
00000000
00000100
00000001
,
00000000
00000000
00000000
00000000
00000000
00001000
00000100
00000000
,
00000010
00000000
00000000
00000000
00000100
00000000
00000000
00010000
,
00000000
00010000
00000000
00001000
01000000
00000000
00000000
00000000
,
00100000
00000000
00000000
00000000
01000000
00000000
00000000
00010000
,
00000000
00010000
00000000
00000000
10000000
01000000
10000000
00000000
,
00200000
00000000
01300000
00000000
,
00000000
00000000
00010000
00100000
,
00011000
00000000
00011000
00000000
,
00010000
00000000
00010000
00000000
00001000
00010000
00001000
00000000
,
00000100
00000010
00001000
00000100
,
00000010
00000000
00000000
00000000
00000100
00001000
00000010
00000000
,
00000100
00000000
00000001
00000000
00000100
00000000
00000010
00010000
,
00000000
00010000
00000000
00001000
00010000
00001000
00100000
00000000
,
00020000
00000000
10030000
00000000
,
00100000
00000000
00000000
00100000
00000000
00000000
00100000
00000000
,
02000000
00000000
03020000
00000000
,
10030000
00000000
01000000
00000000
10000000
01000000
00100000
00000000
,
00010000
01000000
00001000
00010000
,
00000100
00000000
00000010
00000000
00000001
00001000
00000001
00000000
,
00001000
00000000
00000000
00000010
00000000
00000000
00000100
00000000
,
00000001
00000000
00000100
00000000
00000010
00010000
00001000
00000000
,
00011000
00000000
00000000
00011000
00000000
00000000
00000000
00000000
,
00010000
00000000
00000000
01000000
00000000
00000000
00100000
00000000
,
00010000
00000000
00000000
01000000
00000000
00000000
00100000
00000000
,
10000000
00000000
01000000
00000000
00100000
00001000
00010000
00000000
,
00002000
00000000
00000000
00000000
,
00003000
00000000
00000000
00000000
;

//---------------dance-double - ----------------
#NOTES:
     dance-double:
     :
     Hard:
     10:
     0.459168,0.635848,0.055899,0.065215,0.139747,345.000000,339.000000,6.000000,7.000000,0.000000,0.000000,0.459168,0.635848,0.055899,0.065215,0.139747,345.000000,339.000000,6.000000,7.000000,0.000000,0.000000:
00000000
00000000
00000000
00000000
,
00000000
00000000
00000000
00000000
,
00010000
00000000
00000000
00001000
00010000
00000000
00000000
00000100
00000000
00000100
00000000
00000000
00001000
00000000
00000000
00000000
,
00000010
00000000
00000000
00000000
00000000
00000000
00000000
00000000
00000000
00000000
00000000
00000000
00000100
00000000
00000000
00000000
00000001
00000000
00000000
00000000
00000000
00000000
00000000
00000000
00000000
00000000
00000000
00000000
00000000
00000000
00000000
00000000
00000010
00000000
00000000
00000000
00000000
00000000
00000100
00000000
00000000
00000000
00000000
00010000
00000000
00000000
00000000
00000000
00001000
00000000
00000000
00000000
00000000
00000000
00000000
00000000
00000000
00000000
00000000
00000000
00000000
00000000
00000000
00000000
,
00100000
00000000
00010000
01000000
00100000
00000000
01000000
00010000
00000000
00010000
00000000
10000000
01000000
10000000
01000000
00000000
,
00100000
00000000
00001000
00010000
00000100
00000000
00000010
00000100
00000000
00000010
00000000
00000100
00000000
00000000
00000000
00000000
,
00000001
00000000
00000010
00000100
00001000
00000000
00000010
00000100
00000000
00000100
00001000
00010000
00100000
10000000
00010000
00000000
,
10000000
00000000
00100000
01000000
00010000
00000000
00000000
00000000
00100000
00000000
00000000
00001000
00000000
00000000
00010000
00000000
,
00001000
00000000
00000000
00010000
00001000
00000000
00010000
00000100
,
00000000
00000100
00000000
00000010
00000100
00000010
00000001
00000000
,
00000100
00000000
00000000
00000001
00000100
00000000
00000010
00010000
,
00000000
00010000
00001000
00010000
01000000
00100000
00010000
00000000
,
00100000
00000000
00000000
10000000
01000000
00000000
00100000
01000000
,
00000000
01000000
00000000
10000000
00100000
01000000
00010000
00000000
,
00100000
00011000
00000100
00011000
,
00000000
00010000
00001000
00000100
00000010
00000100
00000001
00000000
,
00000010
00000000
00000000
00000100
00000010
00000000
00000001
00001000
,
00000000
00001000
00000000
00000010
00010000
00001000
01000000
00000000
,
00100000
00000000
00000000
01000000
00010000
00000000
00100000
01000000
,
00000000
01000000
10000000
00010000
00100000
01000000
00100000
00000000
,
00010000
00000000
00000000
00100000
00001000
00000000
00010000
00001000
,
00000000
00001000
00000000
00000100
00000010
00001000
00000100
00000000
,
00000010
00011000
01000000
00011000
,
00001000
00100000
00100000
00010000
01000000
00100000
10000000
00000000
,
00010000
00000000
10000000
00000000
00010000
00000000
00000000
00100000
00000000
00000000
01000000
00000000
00010000
00000000
00000000
00000000
,
00100000
00000000
00001000
00000000
00010000
00000000
00000000
00001000
00000000
00000000
00010000
00000000
00000100
00000000
00000000
00000000
,
00001000
00000010
00000100
00000000
00000001
00000000
00001000
00000010
,
00000000
00000010
00000000
00000010
00000000
00000010
00000100
00000001
,
00001000
00000000
00000001
00000000
00001000
00000000
00000000
00000010
00000000
00000000
00000100
00000000
00010000
00000000
00000000
00000000
,
00001000
00000000
01000000
00000000
00100000
00000000
00000000
10000000
00000000
00000000
01000000
00000000
00100000
00000000
00000000
00000000
,
01000000
10000000
00100000
01000000
,
00001000
00010000
00001000
00010000
00000000
00000100
00001000
00000000
,
00000010
00000000
00000100
00000000
00000001
00000000
00000000
00000010
00000000
00000001
00000010
00000000
00000001
00000000
00000000
00000000
,
00000100
00000000
00000010
00000000
00001000
00000000
00000000
00000100
00000000
00010000
00000100
00000000
00010000
00000000
00000000
00000000
,
00001000
00000000
01000000
00000000
00100000
00000000
10000000
00100000
,
00000000
01000000
00000000
01000000
00010000
10000000
01000000
00000000
,
00100000
00000000
00001000
00000000
00010000
00000000
00001000
00010000
,
00001000
00000100
00000010
00000100
00000000
00000001
00000010
00000100
,
00000010
00000000
00000100
00000000
00001000
00000000
00000100
00000010
,
00000001
00000100
00001000
00000000
00000000
00011000
00011000
00000000
,
00001000
00000000
00000000
00100000
00010000
00000000
00000000
01000000
,
00000000
00100000
00000000
01000000
00010000
00100000
01000000
00000000
,
10000000
00000000
00000000
00010000
00100000
00000000
00000000
00001000
,
00000000
00000100
00000001
00000010
00000100
00001000
00000100
00000000
,
00010000
00000000
00000000
00001000
00100000
00000000
00000000
01000000
,
00000000
00100000
00000000
00010000
01000000
00100000
01000000
00000000
,
00020000
00000000
20030000
00000000
,
30100000
01000000
00100000
01000000
00100000
01000000
00010000
00000000
,
00100000
00000000
00001000
00010000
00000000
00000000
00001000
00000100
,
00000000
00000100
00000000
00000010
00001000
00000100
00000010
00000000
,
00000100
00000000
00001000
00000010
00000000
00000000
00000100
00000001
,
00000000
00000001
00001000
00000001
00000100
00000010
00000100
00000000
,
00000010
00000000
00000000
00020000
00000000
00000000
00000000
00000000
,
00031000
00010000
00001000
00100000
00010000
01000000
00100000
00000000
,
20000000
00000000
30020000
00000000
,
00030000
01000000
00100000
01000000
00001000
00010000
00001000
00000000
,
00010000
00000000
00001000
00000100
00000000
00000000
00000010
00000100
,
00000000
00000001
00000000
00000100
00000000
00001000
00000000
00000100
,
00000001
00000000
00000010
00000100
00000000
00000000
00010000
00001000
,
00000000
00001000
00000000
00000000
01000000
00010000
00100000
00000000
,
01000000
00000000
00000000
20000000
00000000
00000000
30000000
00000000
,
00010000
01000000
00010000
01000000
00100000
10000000
01000000
00000000
,
00100000
00000000
00000000
00001000
00000000
00000000
00010000
00000000
,
00001000
00000100
00000001
00000010
00000100
00001000
00000001
00000000
,
00001000
00000000
00000000
00000020
00000000
00000000
00000000
00000000
,
00000030
00000000
00000000
00000000
;

//---------------dance-single - ----------------
#NOTES:
     dance-single:
     :
     Beginner:
     2:
     0.138416,0.208689,0.111797,0.065215,0.000000,104.000000,92.000000,12.000000,7.000000,0.000000,0.000000,0.138416,0.208689,0.111797,0.065215,0.000000,104.000000,92.000000,12.000000,7.000000,0.000000,0.000000:
0000
0000
0000
0000
,
0000
0000
0000
0000
,
1000
0000
0001
0000
,
0010
0010
0010
0000
,
1000
0000
0001
0001
,
0001
0000
0100
0000
,
0010
0000
1000
1000
,
1000
0000
0001
0000
,
1001
0000
0000
0000
,
0100
0000
0000
0000
,
1001
0000
0000
0000
,
0010
0000
0000
0000
,
1001
0000
0000
0000
,
0100
0000
0000
0000
,
0010
0010
0010
0000
,
1000
0000
0001
0000
,
1001
0000
0000
0000
,
0100
0000
0000
0000
,
1001
0000
0000
0000
,
0010
0000
0000
0000
,
1001
0000
0000
0000
,
0100
0000
0000
0000
,
0001
0001
0001
0000
,
1000
0000
0000
0100
,
0200
0000
0300
0000
,
0100
0000
0010
0000
,
0100
0000
0010
0000
,
0001
0000
0000
0000
,
0200
0000
0300
0000
,
0010
0000
0100
0000
,
0010
0000
1000
0000
,
0000
0000
0000
0000
,
0002
0000
0003
0000
,
1000
0000
0001
0000
,
1000
0000
0100
0000
,
0010
0000
0000
0000
,
0200
0000
0000
0300
,
0000
0000
0000
0000
,
0020
0000
0000
0030
,
0000
0000
0000
0000
,
0110
0000
0000
0000
,
1000
0000
0000
0000
,
0110
0000
0000
0000
,
0001
0000
0000
0000
,
0110
0000
0000
0000
,
1000
0000
0000
0000
,
0010
0000
0100
0000
,
0010
0010
0010
0000
,
0110
0000
0000
0000
,
1000
0000
0001
0000
,
1001
0000
0000
0000
,
0100
0000
0010
0000
,
0110
0000
0000
0000
,
0001
0000
0100
0000
,
0010
0000
0010
0000
,
0100
0100
0100
0100
,
0200
0000
0000
0000
0000
0000
0000
0300
,
0000
0000
0000
0000
,
0002
0000
0000
0003
,
0000
0000
0000
0000
,
1000
0000
0010
0000
,
0000
0000
0000
0000
,
0001
0000
0100
0000
,
0010
0010
0010
0000
,
0100
0000
0000
0000
;

//---------------dance-single - ----------------
#NOTES:
     dance-single:
     :
     Challenge:
     14:
     0.762618,1.079544,0.242228,0.000000,0.475139,573.000000,547.000000,26.000000,0.000000,0.000000,0.000000,0.762618,1.079544,0.242228,0.000000,0.475139,573.000000,547.000000,26.000000,0.000000,0.000000,0.000000:
// measure 0
0000
0000
0000
0000
,  // measure 1
0000
0000
0000
0000
,  // measure 2
1000
0010
0100
0001
1000
0100
0010
0001
0000
0100
0100
0100
0001
0001
1000
0001
,  // measure 3
0010
0000
0001
0000
0100
0000
0010
0000
1000
0000
0001
0000
0100
0000
0000
0000
0101
0000
0000
1010
0000
0000
1100
0000
0011
0000
0100
0010
1000
0000
1000
0000
,  // measure 4
0001
0100
0010
1000
0001
0010
0100
1000
0000
0010
0010
0010
0100
0100
0001
0100
,  // measure 5
0010
1000
0001
0100
0010
0100
0001
1000
0000
0001
0001
0001
0010
0010
0100
0010
,  // measure 6
0100
1000
0010
1000
0001
0010
0001
0100
0000
0010
0010
0010
1000
1000
0100
1000
,  // measure 7
0001
0000
1000
0000
0010
0000
1000
0000
0100
0000
0010
0000
0001
0000
0000
0000
0100
0000
0010
1000
0010
1000
0010
1000
0001
0100
0001
0100
0001
0000
1000
0000
,  // measure 8
0010
1000
0100
0010
0001
0100
0010
1000
,  // measure 9
0000
0001
0001
0001
1000
0100
0100
0000
,  // measure 10
1000
0001
0010
0100
1000
0010
0100
0001
,  // measure 11
0000
0010
0010
0010
0001
1000
1000
0000
,  // measure 12
0001
1000
0010
1000
0100
0010
0001
0100
,  // measure 13
0000
0100
0100
0100
0001
0010
0010
0000
,  // measure 14
0001
1000
0100
1000
0001
0010
0100
0010
,  // measure 15
0001
0000
0100
0000
0010
0000
1000
0001
1000
0000
0010
0000
0100
0000
0010
0100
,  // measure 16
0001
1000
0010
1000
0100
0010
0001
1000
,  // measure 17
0000
1000
1000
1000
0100
0010
0010
0000
,  // measure 18
0010
0001
0100
0010
1000
0010
0100
0001
,  // measure 19
0000
0010
0010
0010
0001
0100
0100
0000
,  // measure 20
0001
1000
0010
1000
0100
0010
0100
1000
,  // measure 21
0000
0100
0100
0100
1000
0001
0001
0000
,  // measure 22
0010
0001
1000
0010
0100
0001
1000
0100
,  // measure 23
1100
0000
1100
0000
1100
0000
1100
0000
1100
0000
1000
0001
0100
0000
0000
0000
,  // measure 24
0001
0000
0010
0000
0100
0000
1000
0010
0100
0010
1000
0000
0001
0000
0010
0000
,  // measure 25
0100
0000
0010
0000
0001
0000
1000
0001
0100
0001
1000
0000
0010
0000
0000
0000
,  // measure 26
0100
0000
0010
0000
1000
0000
0001
0010
0100
0010
0001
0000
1000
0000
0001
0000
,  // measure 27
0010
0000
0100
0000
0010
0000
0001
1000
0100
1000
0001
0000
0100
0000
0000
0000
,  // measure 28
0001
0000
1000
0000
0010
0000
1000
0100
0010
0100
1000
0000
0001
0000
0100
0000
,  // measure 29
0001
0000
0010
0000
0100
0000
1000
0100
0010
0100
1000
0000
0001
0000
0000
0000
,  // measure 30
0100
0000
0001
0000
1000
0000
0001
0010
0100
0010
0001
0000
1000
0000
0000
0000
,  // measure 31
0100
0000
1000
0000
0010
0000
1000
0001
0100
0001
1000
0000
0010
0000
0000
0000
,  // measure 32
0100
0000
0001
0000
0010
0000
0100
1000
0001
1000
0100
0000
1000
0000
0010
0000
,  // measure 33
1000
0000
0001
0000
0010
0000
0001
0100
0010
0100
0001
0000
1000
0000
0000
0000
,  // measure 34
0100
0000
1000
0000
0001
0000
0100
0010
1000
0010
0100
0000
0001
0000
0010
0000
,  // measure 35
0100
0000
0010
0000
0100
0000
1000
0001
0010
0001
1000
0000
0010
0000
0000
0000
,  // measure 36
1000
0000
0001
0000
0010
0000
0001
0100
0010
0100
0001
0000
1000
0000
0100
0000
,  // measure 37
0010
0000
0100
0000
0010
0000
0001
1000
0010
1000
0001
0000
0100
0000
0000
0000
,  // measure 38
0001
0000
1000
0000
0100
0000
0010
0100
1000
0100
0010
0000
0001
0000
1000
0000
,  // measure 39
0101
0000
0101
0000
0101
0000
0101
0000
0101
0000
0001
1000
0100
0000
0000
0000
,  // measure 40
1000
0001
0010
0100
0010
0001
1000
0100
,  // measure 41
0000
1000
1000
1000
0001
0010
0010
0000
,  // measure 42
0001
0100
0010
1000
0100
1000
0001
0010
,  // measure 43
0000
0010
0010
0010
0100
1000
1000
0000
,  // measure 44
0100
0010
0001
0100
0010
1000
0001
1000
,  // measure 45
0000
0001
0001
0001
1000
0100
0100
0000
,  // measure 46
1000
0010
0100
0001
0010
0100
1000
0001
,  // measure 47
0011
0000
0011
0000
0011
0000
0011
0000
0011
0000
0010
0001
1000
0000
0000
0000
,  // measure 48
0001
0010
0001
1000
0100
0010
0100
1000
,  // measure 49
0010
0100
0100
0100
0001
1000
1000
0000
,  // measure 50
0100
0010
0001
0100
0001
1000
0010
1000
,  // measure 51
0100
1000
1000
1000
0001
0010
0010
0000
,  // measure 52
0001
1000
0010
1000
0001
0100
0010
1000
,  // measure 53
0001
1000
1000
1000
0010
0100
0100
0000
,  // measure 54
0010
0100
0001
0010
0001
1000
0100
0000
,  // measure 55
1000
0001
0010
0001
0100
0010
1000
0000
,  // measure 56
0001
0000
0010
0000
0001
0000
1000
0100
0000
1000
0010
0000
0100
0000
0000
0000
,  // measure 57
0010
0000
1000
0000
0001
0000
0010
0100
0000
1000
0001
0000
0100
0000
0000
0000
,  // measure 58
0010
0000
0100
0000
0001
0000
1000
0001
0000
0010
0100
0000
1000
0000
0000
0000
,  // measure 59
0001
0000
1000
0000
0100
0000
1000
0010
0000
0100
0001
0000
0010
0000
0000
0000
,  // measure 60
0010
0000
0001
0000
0010
0000
0100
1000
0000
0001
1000
0000
0100
0000
0000
0000
,  // measure 61
1000
0000
0001
0000
1000
0000
0100
0010
0000
0010
0001
0000
0100
0000
0000
0000
,  // measure 62
0010
0000
1000
0000
0001
0000
1000
0100
0000
0010
0001
0000
0100
0000
0000
0000
,  // measure 63
1010
0000
1010
0000
1010
0000
1010
0000
1010
0000
0010
1000
0001
0000
0000
0000
,  // measure 64
1001
0000
0100
0110
0000
0000
0000
0000
;
