#TITLE:Jucunda Memoria;
#SUBTITLE:;
#ARTIST:Akhuta;
#TITLETRANSLIT:;
#SUBTITLETRANSLIT:;
#ARTISTTRANSLIT:;
#GENRE:;
#CREDIT:;
#BANNER:Jucunda Memoria-bn.png;
#BACKGROUND:Jucunda Memoria-bg.png;
#LYRICSPATH:;
#CDTITLE:;
#MUSIC:Jucunda Memoria.ogg;
#OFFSET:0.000000;
#SAMPLESTART:49.655170;
#SAMPLELENGTH:20.000000;
#SELECTABLE:YES;
#DISPLAYBPM:145.000000:290.000000;
#BPMS:0.000000=145.000000
,36.000000=290.000000
,351.000000=145.000000
,368.000000=290.000000
;
#STOPS:198.000000=1.034000,
366.000000=1.241000
;
#BGCHANGES:;
#KEYSOUNDS:;
#ATTACKS:;

//---------------dance-single - ----------------
#NOTES:
     dance-single:
     :
     Hard:
     18:
     0.998513,1.310548,0.901068,0.160003,0.080001,830.000000,723.000000,107.000000,19.000000,0.000000,0.000000,0.998513,1.310548,0.901068,0.160003,0.080001,830.000000,723.000000,107.000000,19.000000,0.000000,0.000000:
// measure 0
0000
0000
0000
0000
,  // measure 1
0000
0000
0000
0000
,  // measure 2
0000
0000
0000
0000
,  // measure 3
0000
0000
0000
0000
,  // measure 4
0101
0000
0000
0001
1000
0000
0000
0010
1000
0000
0000
0100
0010
0000
0000
0000
,  // measure 5
1100
0000
0000
1000
0010
0000
0000
0100
0010
0000
0000
1000
0001
0000
0000
0000
,  // measure 6
0011
0000
0000
0010
0100
0000
0000
1000
0010
0000
0000
1000
0001
0000
0000
0000
,  // measure 7
1010
0000
0000
0100
0010
0000
1001
0000
0000
1001
0000
0000
1001
0000
0000
0000
,  // measure 8
1000
0001
1000
0001
1000
0100
0010
0001
0101
0000
0000
0101
0000
0000
0101
0000
,  // measure 9
1000
0100
0010
0001
,  // measure 10
0100
0000
0010
0000
1000
0001
1000
0000
,  // measure 11
0001
0010
0100
1000
,  // measure 12
0010
0100
0010
0100
0001
0000
1000
0000
,  // measure 13
0010
1000
0001
0100
,  // measure 14
0001
0000
1000
0000
0010
0100
0010
0000
,  // measure 15
1000
0010
0100
0001
,  // measure 16
0010
0100
0010
0100
1000
0000
0001
0000
,  // measure 17
0101
0100
0010
1000
,  // measure 18
0001
0000
0010
0000
0100
1000
0100
0000
,  // measure 19
0010
0001
0100
0010
,  // measure 20
1000
0000
0001
0000
0010
0100
1000
0000
,  // measure 21
0010
1000
0100
0010
,  // measure 22
0001
0000
0100
0000
0001
1000
0010
0000
,  // measure 23
1000
0000
0001
0000
0010
0001
0100
0000
,  // measure 24
0010
0000
1001
0000
1000
1001
0000
0001
,  // measure 25
1001
0010
0001
0100
,  // measure 26
0001
0000
1000
0010
1000
0100
0010
0001
,  // measure 27
0100
0010
1000
0001
,  // measure 28
1000
0001
0100
0000
0110
0000
0110
0000
,  // measure 29
1010
0000
0000
0101
0000
0000
0011
0000
,  // measure 30
0101
0000
0000
0110
0000
0000
1001
0000
,  // measure 31
1100
0000
0000
1001
0000
0000
0011
0000
,  // measure 32
0001
0010
0100
1000
0001
1000
0010
0100
,  // measure 33
0110
0000
0010
1000
0010
1000
0010
1000
,  // measure 34
0001
0010
0001
0010
0100
1000
0100
1000
,  // measure 35
0001
1000
0001
1000
0010
0100
0010
0100
,  // measure 36
0010
0000
1001
0000
0001
0100
1000
0000
,  // measure 37
1100
0000
0000
0110
0000
0000
0011
0000
,  // measure 38
1010
0000
0000
1100
0000
0000
0101
0000
,  // measure 39
0000
0011
0000
0000
1100
0000
0000
0101
,  // measure 40
0000
0000
0110
0000
0000
1010
0000
0000
,  // measure 41
1001
0110
1001
0000
,  // measure 42
1010
0000
1000
0100
1000
0000
0001
0000
,  // measure 43
0000
0101
0000
0000
0101
0000
0000
0000
,  // measure 44
0010
0100
0000
0010
1000
0000
0000
1100
,  // measure 45
0000
0000
1100
0000
0001
1000
0000
0001
,  // measure 46
0010
0000
0011
0000
0000
0011
0000
0000
,  // measure 47
0011
0000
0100
0001
0000
1000
0100
0000
,  // measure 48
1100
1100
0011
0011
,  // measure 49
1100
1001
0101
1001
,  // measure 50
0001
0010
0001
0100
1000
0100
0001
1000
,  // measure 51
0010
1000
0100
0010
0001
0100
0001
0010
,  // measure 52
1000
0010
0100
1000
0100
0001
0010
1000
,  // measure 53
0010
0001
0100
0010
1000
0000
0010
0001
,  // measure 54
0010
1000
0010
0100
0010
0001
0010
1000
,  // measure 55
0100
0010
0100
0001
0100
1000
0001
0010
,  // measure 56
0100
1000
0100
0001
0100
1000
0010
0100
,  // measure 57
0001
1000
1100
0000
0000
0011
0000
0000
,  // measure 58
0110
0000
0000
1000
0010
1000
0100
0010
,  // measure 59
0001
0100
0001
1000
0100
0000
0110
0000
,  // measure 60
0001
0100
0001
0010
1000
0010
0001
0100
,  // measure 61
0010
0001
0010
1000
0100
0010
0100
0001
,  // measure 62
0100
1000
0100
0010
0100
1000
0010
0001
,  // measure 63
0010
1000
0100
0010
0001
0000
1000
0010
,  // measure 64
1000
0100
0001
0100
0010
0100
0010
1000
,  // measure 65
0010
0001
0100
0010
0100
1000
0100
0001
,  // measure 66
0100
0010
1000
0001
0010
0100
1000
0001
,  // measure 67
0010
1000
0010
0001
0100
0010
0001
0010
,  // measure 68
1000
0100
0010
0001
0100
0010
0100
1000
,  // measure 69
0100
0001
0100
1000
0100
0010
1000
0001
,  // measure 70
0010
0100
1000
0001
0100
0001
1001
0000
,  // measure 71
0001
0011
0000
1000
1010
0000
0220
0000
,  // measure 72
0000
0000
0330
1001
,  // measure 73
1000
1100
0000
0001
0101
0000
0100
0010
,  // measure 74
1000
1100
1100
1001
,  // measure 75
0001
0011
0000
1000
1100
0000
0010
0000
,  // measure 76
0100
0001
1000
0001
1000
0000
0110
0000
,  // measure 77
0000
1010
0000
0000
1100
0000
0000
0001
,  // measure 78
1000
1010
1010
0110
,  // measure 79
0010
0110
0000
0100
0110
0000
0001
0010
,  // measure 80
0001
0100
0100
0101
,  // measure 81
0100
0101
0000
0001
0101
0000
1000
0100
,  // measure 82
1000
0000
0001
0010
0100
1000
1001
0000
,  // measure 83
0001
1001
0000
1000
1001
0000
0010
1000
,  // measure 84
0100
0001
0100
0010
0001
1000
1100
0000
,  // measure 85
0000
0110
0000
0000
0011
0000
0000
0101
,  // measure 86
0000
0000
1001
0000
0000
1010
0000
0000
,  // measure 87
1100
0000
0000
0110
0000
0000
0022
0030
,  // measure 88
2000
0003
0020
3000
0200
0030
0020
0300
,  // measure 89
2000
0030
0200
3000
0002
0300
0200
0003
,  // measure 90
0020
0300
0200
0030
2000
0300
0002
3000
,  // measure 91
2000
0000
0000
0000
0003
0000
0000
0000
0020
0000
0000
0000
3000
0000
0000
0000
0002
0033
0011
0000
0000
0000
1010
0000
0000
0000
1001
0000
0000
0000
0000
0000
,  // measure 92
0010
1000
0010
0001
0010
0100
0010
0001
,  // measure 93
0010
0100
0001
0010
1000
0010
0001
0100
,  // measure 94
0010
0100
1000
0100
0010
1000
0100
0010
,  // measure 95
0001
0100
0010
0100
1000
0100
0001
0000
,  // measure 96
0010
0100
0010
0001
1000
0010
0001
0010
,  // measure 97
1000
0100
1000
0010
0001
0010
0100
0010
,  // measure 98
0001
0010
1000
0100
0001
0100
0010
0001
,  // measure 99
0010
0100
0010
1000
0010
0001
1000
0000
,  // measure 100
0100
0010
0100
1000
0010
0001
0010
0100
,  // measure 101
0010
0001
0010
0100
1000
0100
0010
1000
,  // measure 102
0100
0001
0100
1000
0010
0100
1000
0100
,  // measure 103
0001
0010
0100
1000
0010
0100
0001
0000
,  // measure 104
1000
0010
1000
0100
0001
0100
0010
0100
,  // measure 105
0010
0100
1000
0100
0001
0100
0010
0001
,  // measure 106
0100
1000
0100
0001
0010
1000
0010
0100
,  // measure 107
0010
1000
0010
0100
0010
0001
0010
0000
,  // measure 108
0001
1000
0010
0001
0010
1000
0100
0010
,  // measure 109
0100
0001
0100
1000
0010
1000
0001
0010
,  // measure 110
1000
0010
0100
0010
1000
0010
0001
0010
,  // measure 111
1000
0010
0001
1000
0010
1000
0100
0000
,  // measure 112
1000
0001
0010
0100
0010
1000
0010
0100
,  // measure 113
0010
1000
0010
0001
0100
0010
0100
1000
,  // measure 114
0100
0001
0100
0010
0100
0001
0100
1000
,  // measure 115
0100
0001
1000
0100
0010
0100
1000
0000
,  // measure 116
0010
0001
0010
0100
1000
0100
0010
0100
,  // measure 117
0001
0010
0100
1000
0100
0001
0100
1000
,  // measure 118
0010
0001
0010
0100
0010
0001
0010
1000
,  // measure 119
0100
0001
0100
1000
0100
0010
0001
0000
,  // measure 120
1000
0001
0010
0001
0100
0001
1000
0001
,  // measure 121
1000
0010
1000
0001
0100
0010
1010
0000
,  // measure 122
0001
0011
0000
0100
1100
0000
1000
1001
,  // measure 123
0000
0001
0101
0000
0001
0010
0100
1000
,  // measure 124
1100
0101
1100
0000
;

//---------------dance-single - ----------------
#NOTES:
     dance-single:
     :
     Medium:
     15:
     0.755501,1.153283,0.656853,0.168424,0.050527,628.000000,550.000000,78.000000,20.000000,0.000000,0.000000,0.755501,1.153283,0.656853,0.168424,0.050527,628.000000,550.000000,78.000000,20.000000,0.000000,0.000000:
0000
0000
0000
0000
,
0000
0000
0000
0000
,
0000
0000
0000
0000
,
0000
0000
0000
0000
,
2010
0000
0000
0000
0010
0000
0000
0000
0100
0000
0000
3001
1000
0000
0000
0000
,
0201
0000
0000
0000
1000
0000
0000
0000
0010
0000
0000
0301
0100
0000
0000
0000
,
0012
0000
0000
0000
1000
0000
0000
0000
0010
0000
0000
0103
0001
0000
0000
0000
,
0120
0000
0000
0000
1030
0000
1001
0000
0000
1001
0000
0000
1001
0000
0000
0000
,
1000
0001
1000
0001
1000
0001
1000
0001
0100
0000
0000
0100
0000
0000
0100
0000
,
0110
0001
0010
0100
,
1000
0010
1000
0001
,
0010
0100
1000
0010
,
1000
0000
0001
0000
0100
0010
0100
0000
,
0001
0000
0000
0010
0000
0000
0100
0000
,
1000
0000
0000
0010
0000
0000
0100
0000
,
0000
0001
0000
0000
0010
0000
0000
0100
,
0000
0000
1000
0000
0001
0100
0001
0000
,
0010
0001
1000
0010
,
1000
0100
0010
0001
,
0100
0010
1000
0100
,
1000
0000
0010
0000
1000
0001
1000
0000
,
0010
0000
0000
1000
0000
0000
0001
0000
,
0010
0000
0000
0100
0000
0000
1000
0000
,
0000
0001
0000
0000
1000
0000
0000
0010
,
0000
0000
1001
0000
0000
1001
0000
0000
,
1001
0000
1000
0000
0001
0010
0001
0000
,
0100
0000
0010
0000
1000
0100
1000
0000
,
0001
1000
0010
0100
,
0001
1000
0001
0000
0100
0000
0100
0000
,
0010
0000
0000
1000
0000
0000
0001
0000
,
0010
0000
0000
0100
0000
0000
1000
0000
,
0001
0000
0000
1000
0000
0000
0001
0000
,
1000
0100
1000
0000
0001
0100
0001
0000
,
0010
0100
1000
0010
,
1000
0000
0001
0000
0010
0100
0010
0100
,
0010
0001
0100
0010
,
1000
0001
1000
0001
0100
0010
1000
0000
,
0001
0000
0000
1000
0000
0000
0001
0000
,
0010
0000
0000
0100
0000
0000
1100
0000
,
0000
0011
0000
0000
0101
0000
0000
1010
,
0000
0000
0110
0000
0000
1001
0000
0000
,
0100
0100
0110
0000
,
1001
0000
0000
1100
,
0000
1100
0000
0000
1100
0000
0000
0000
,
0000
0000
0000
0000
0101
0000
0000
0101
,
0000
0101
0000
0000
,
0000
0000
1010
0000
0000
1010
0000
0000
,
1010
0000
0000
0000
,
1001
0010
0100
1000
,
0001
1000
0101
1001
,
0010
0000
0100
0000
1000
0000
0001
0010
,
0001
1000
0010
0100
0001
0000
0010
0000
,
0100
0000
1000
0000
0001
0000
1000
0010
,
1000
0100
0010
0001
0100
0000
0001
1000
,
0001
1000
0010
1000
0100
0000
0010
0000
,
0100
0000
1000
0001
1000
0000
0001
0010
,
0100
0000
1000
0010
0100
0000
0001
1000
,
0001
1000
0010
0000
0000
1100
0000
0000
,
0011
0000
0000
0101
0000
0000
1010
0000
,
1000
0001
0100
0010
1000
0000
1001
0000
,
0100
0000
0010
0000
1000
0000
0010
1000
,
0100
1000
0001
1000
0100
0000
0010
0000
,
0001
0000
0100
0000
0001
0000
0010
0001
,
1000
0100
1000
0010
0100
0000
0010
1000
,
0010
0100
0010
1000
0001
0000
0010
0000
,
0100
0000
1000
0001
1000
0000
0010
0000
,
1000
0000
0100
0000
0010
0000
0001
1000
,
0001
0000
0010
0100
1000
0000
0010
1000
,
0010
1000
0001
1000
0100
0000
0010
0001
,
0100
0001
1000
0001
0010
0000
0001
1000
,
0001
1000
0010
1000
0100
0000
1001
0000
,
0000
1001
0000
0000
1001
0000
0000
0000
,
0001
1000
0100
0110
,
0000
0110
0000
0000
0110
0000
0000
0000
,
0010
0001
1000
1100
,
0000
1100
0000
0000
1100
0000
0000
0000
,
0100
1000
0010
0101
,
0000
0101
0000
0000
0101
0000
0000
0000
,
0001
0100
0010
1010
,
0000
1010
0000
0000
1010
0000
0001
0000
,
0010
0100
1000
0011
,
0000
0011
0000
0000
0011
0000
1000
0000
,
0100
0010
0001
0011
,
0000
1001
0000
0000
1100
0000
1000
0000
,
0001
0100
0010
0101
,
0000
0110
0000
0000
1010
0000
0000
1001
,
0000
0001
0100
0010
,
0010
0100
0100
0120
,
2030
3200
0320
0032
,
0023
0230
2300
3020
,
2030
3002
2003
3002
,
0023
0000
0000
0000
0230
0000
0000
0000
2300
0010
0000
0010
0000
3010
0000
0000
,
1010
1000
0001
0010
,
0100
0000
1000
0001
0010
0001
1000
0000
,
0001
0100
0010
1000
,
0100
0010
0100
0010
0100
1000
0001
0000
,
0010
0001
1000
0001
,
0010
0000
0100
0000
1000
0010
0100
0000
,
0001
0000
0010
0000
0001
1000
0010
0100
,
0001
0000
0010
0100
1000
0001
1000
0000
,
0101
0010
0100
1000
,
0001
0000
1000
0001
0010
0001
0100
0000
,
0001
0010
0100
1000
,
0010
1000
0010
1000
0100
0010
0001
0000
,
0010
0001
1000
0001
,
1000
0000
0100
0000
1000
0010
0100
0000
,
0010
0000
1000
0000
0100
1000
0010
1000
,
0001
0000
0010
0001
0100
0010
1000
0000
,
1001
0010
1001
0100
,
0001
1000
0010
0000
1000
0001
0010
0000
,
0110
1000
0110
0001
,
0100
0010
1000
0000
0010
0100
0001
0000
,
1000
0100
1000
0000
0101
0000
0101
0000
,
0001
0000
1000
0010
1000
0001
0100
0000
,
0001
1000
0010
1000
0100
0010
0001
0000
,
0010
0001
0100
0010
1000
0100
0010
0000
,
1000
0010
1000
0010
1000
0010
1000
0010
,
1000
0010
1000
0010
0100
0010
1000
0000
,
0001
0010
0001
0010
0001
0010
0001
0010
,
0001
0010
0001
0010
0100
0010
0001
0000
,
1000
0001
1000
0010
0100
0001
0010
0100
,
1000
0001
0100
0010
1000
0000
1010
0000
,
0000
1001
0000
0000
0011
0000
0000
0110
,
0000
1100
1000
0001
,
0101
1001
1100
0000
;

//---------------dance-single - ----------------
#NOTES:
     dance-single:
     :
     Easy:
     11:
     0.531738,0.681485,0.421060,0.067370,0.021053,442.000000,392.000000,50.000000,8.000000,0.000000,0.000000,0.531738,0.681485,0.421060,0.067370,0.021053,442.000000,392.000000,50.000000,8.000000,0.000000,0.000000:
0000
0000
0000
0000
,
0000
0000
0000
0000
,
0000
0000
0000
0000
,
0000
0000
0000
0000
,
0120
0100
0100
0130
,
1002
1000
1000
1003
,
0210
0010
0010
0310
,
2001
0000
0000
0000
0000
0000
0001
0000
0000
0001
0000
0000
3001
0000
0000
0000
,
0010
0000
0001
0000
0010
0000
0100
0000
1000
0000
0000
1000
0000
0000
1000
0000
,
0001
0010
0100
0000
,
1000
0010
0100
0000
,
0001
1000
0001
1000
,
0010
0100
0001
0000
,
0010
0000
0011
0000
,
0100
0000
1100
0000
,
0001
0000
0101
0000
,
1000
0000
1010
0000
,
0010
1000
0001
0000
,
0010
0100
1000
0000
,
0001
1000
0010
1000
,
0100
0010
0001
0000
,
1000
0000
1100
0000
,
0001
0000
0011
0000
,
0100
0000
0101
0000
,
0010
0000
1010
0000
,
0010
1000
0010
0100
,
0001
0010
0100
0000
,
1000
0010
0100
0001
,
0100
0010
1000
0000
,
0001
1000
0010
1000
,
0001
0010
0100
1000
,
0010
1000
0100
1000
,
0001
0010
0100
1000
,
0001
0010
0001
0000
,
1000
0010
1000
0000
,
0001
1000
0010
1000
,
0100
0010
0001
0100
,
0001
0000
0101
0000
,
0100
0000
1100
0000
,
1000
0000
1010
0000
,
0010
0000
0011
0000
,
0100
0100
0100
0000
,
1001
0000
0000
0010
,
0000
0010
0000
0000
0010
0000
0000
0000
,
0000
0000
0000
0000
1000
0000
0000
1000
,
0000
1000
0000
0000
,
0000
0000
0001
0000
0000
0001
0000
0000
,
0001
0000
0000
0000
,
1000
0010
1000
0001
,
0010
0100
0110
1000
,
0010
1000
0001
0010
,
0100
1000
0001
1000
,
0010
1000
0100
0010
,
0100
1000
0001
0010
,
0001
0100
0001
1000
,
0010
1000
0001
0010
,
0100
1000
0001
0100
,
0010
1000
0000
0001
,
0000
0010
0000
0100
,
1000
0001
1000
0100
,
0010
0100
1000
0001
,
1000
0010
1000
0100
,
1000
0010
0100
0010
,
1000
0001
0010
0001
,
0100
0001
0010
0100
,
1000
0010
0100
0001
,
1000
0010
1000
0100
,
0010
0001
1000
0010
,
0100
0010
0000
1000
,
0001
1000
0000
0001
,
0010
0100
1000
1001
,
0000
1001
0000
0000
1001
0000
0000
0000
,
0000
0000
0000
1100
,
0000
1100
0000
0000
1100
0000
0000
0000
,
0000
0000
0000
0101
,
0000
0101
0000
0000
0101
0000
0000
0000
,
0000
0000
0000
0011
,
0000
0011
0000
0000
0011
0000
0000
0000
,
0000
0000
0000
1010
,
0000
1010
0000
0000
1010
0000
0000
0000
,
0000
0000
0000
0110
,
0000
0110
0000
0000
0110
0000
0000
0000
,
0000
0000
0000
0101
,
0000
0110
0000
0000
1010
0000
0000
0000
,
0000
0000
0000
1100
,
0000
1001
0000
0000
0011
0000
0000
0101
,
0000
1100
0000
1000
,
0100
0010
0001
2001
,
0010
0001
3100
0002
,
0100
0010
1003
0200
,
0010
1000
0301
0020
,
0100
0000
0000
0000
1000
0000
0000
0000
0031
1000
0000
0001
0000
1000
0000
0000
,
1001
0001
1000
0010
,
1000
0100
0010
0001
,
0010
0100
1000
0001
,
1000
0010
0100
0000
,
0001
1000
0001
0010
,
0100
1000
0010
1000
,
0100
0010
0100
1000
,
0010
0100
0001
0000
,
1000
0001
1000
0010
,
1000
0100
0010
0001
,
0010
0001
0010
0100
,
0010
0001
1000
0000
,
0001
1000
0001
1000
,
0010
1000
0100
0010
,
0100
1000
0010
0100
,
0001
1000
0001
0000
,
0110
0001
0100
0001
,
1000
0010
1000
0001
,
0010
0100
1000
0010
,
1000
0001
1000
0100
,
1100
1000
0010
0100
,
0001
0010
0100
1000
,
0001
1000
0010
1000
,
0100
0010
0001
0100
,
0101
0001
1000
0010
,
1000
0001
0010
0100
,
1000
0010
1000
0001
,
0010
0100
1000
0001
,
1001
0010
0100
1000
,
0010
1000
0001
0010
,
0100
1000
0010
1000
,
0001
0010
0100
1000
,
0010
0010
0010
0000
;

//---------------dance-single - ----------------
#NOTES:
     dance-single:
     :
     Beginner:
     7:
     0.276696,0.471797,0.117897,0.008421,0.000000,230.000000,216.000000,14.000000,1.000000,0.000000,0.000000,0.276696,0.471797,0.117897,0.008421,0.000000,230.000000,216.000000,14.000000,1.000000,0.000000,0.000000:
0000
0000
0000
0000
,
0000
0000
0000
0000
,
0000
0000
0000
0000
,
0000
0000
0000
0000
,
1001
0000
0000
0000
,
1001
0000
0000
0000
,
1001
0000
0000
0000
,
1001
0000
0010
0010
,
0010
0000
0100
0100
,
0100
0000
0001
0000
,
0100
0000
0000
0000
,
0001
0000
0010
0000
,
0100
0000
0000
0000
,
1000
0000
0010
0000
,
1000
0000
0000
0000
,
0001
0000
1000
0000
,
0010
0000
0000
0000
,
0100
0000
0010
0000
,
1000
0000
0000
0000
,
0001
0000
1000
0000
,
0001
0000
0000
0000
,
0010
0000
0100
0000
,
0010
0000
0000
0000
,
0001
0000
0100
0000
,
0001
0000
0000
0000
,
1000
0000
0010
0000
,
1000
0000
0001
0000
,
0010
0000
0100
0000
,
0010
0000
0001
0000
,
0100
0000
0001
0000
,
0010
0000
0100
0000
,
1000
0000
0010
0000
,
0100
0000
0010
0000
,
1000
0000
1000
0000
,
0001
0000
0001
0000
,
0100
0000
0100
0000
,
0010
0000
0010
0000
,
1000
0000
0100
0000
,
0010
0000
0001
0000
,
0100
0000
0010
0000
,
1000
0000
0001
0000
,
0100
0000
0010
0000
,
1001
0000
0000
0000
,
0000
0000
0000
0000
,
1001
0000
0000
0000
,
0000
0000
0000
0000
,
1001
0000
0000
0000
,
0000
0000
0000
0000
,
1000
0000
1000
0000
,
1000
0000
1000
1001
,
0000
0010
0000
0100
,
0000
1000
0000
0001
,
0000
1000
0000
0010
,
0000
0100
0000
0001
,
0000
0010
0000
0001
,
0000
0100
0000
0001
,
0000
1000
0000
0010
,
0000
2000
0000
0000
,
0000
0000
0000
0000
,
0000
3000
0000
1001
,
0000
0001
0000
0010
,
0000
0100
0000
1000
,
0000
0001
0000
1000
,
0000
0010
0000
0100
,
0000
0001
0000
0010
,
0000
0100
0000
1000
,
0000
0001
0000
0010
,
0000
0001
0000
1000
,
0000
0010
0000
1000
,
0000
0100
0000
0010
,
0000
0001
0000
1000
,
0000
1000
0000
1000
,
0000
0000
0000
0001
,
0000
0001
0000
0001
,
0000
0000
0000
0100
,
0000
0100
0000
0100
,
0000
0000
0000
0010
,
0000
0010
0000
0010
,
0000
0000
0000
1000
,
0000
1000
0000
1000
,
0000
0000
0000
0100
,
0000
0100
0000
0100
,
0000
0000
0000
0010
,
0000
0010
0000
0010
,
0000
0000
0000
0001
,
0000
0001
0000
0001
,
0000
1000
0000
0010
,
0000
0100
0000
1001
,
0000
1000
0000
0001
,
0000
0010
0000
0100
,
0000
1000
0000
0001
,
0001
0001
0001
0110
,
1001
0000
1000
0000
,
0001
0000
1000
0000
,
0001
0000
0010
0000
,
0100
0000
1000
0000
,
0010
0000
1000
0000
,
0001
0000
0100
0000
,
0001
0000
0010
0000
,
0100
0000
1000
0000
,
0010
0000
0100
0000
,
0001
0000
0010
0000
,
0001
0000
0100
0000
,
0001
0000
1000
0000
,
0010
0000
1000
0000
,
0100
0000
0010
0000
,
0001
0000
0100
0000
,
0001
0000
1000
0000
,
0001
0000
1000
0000
,
0001
0000
0010
0000
,
0100
0000
0010
0000
,
0100
0000
1000
0000
,
0010
0000
1000
0000
,
0001
0000
1000
0000
,
0010
0000
1000
0000
,
0100
0000
0010
0000
,
0001
0000
0100
0000
,
0001
0000
1000
0000
,
0010
0000
1000
0000
,
0100
0000
0001
0000
,
0010
0000
0100
0000
,
1000
0000
0001
0000
,
1000
0000
0010
0000
,
0100
0000
0001
0000
,
1001
0000
0110
0000
;
