#VERSION:0.83;
#TITLE:Jellyhead;
#SUBTITLE:;
#ARTIST:Crush;
#TITLETRANSLIT:;
#SUBTITLETRANSLIT:;
#ARTISTTRANSLIT:;
#GENRE:;
#ORIGIN:;
#CREDIT:;
#BANNER:Jellyhead-bn.png;
#BACKGROUND:Jellyhead-bg.png;
#PREVIEWVID:;
#JACKET:Jellyhead-jacket.png;
#CDIMAGE:;
#DISCIMAGE:;
#LYRICSPATH:;
#CDTITLE:;
#MUSIC:Jellyhead.ogg;
#OFFSET:0.000000;
#SAMPLESTART:42.049999;
#SAMPLELENGTH:20.000000;
#SELECTABLE:YES;
#DISPLAYBPM:137.000000;
#BPMS:0.000=136.980;
#STOPS:;
#DELAYS:;
#WARPS:;
#TIMESIGNATURES:0.000=4=4;
#TICKCOUNTS:0.000=4;
#COMBOS:0.000=1;
#SPEEDS:0.000=1.000=0.000=0;
#SCROLLS:0.000=1.000;
#FAKES:;
#LABELS:0.000=Song Start;
#BGCHANGES:;
#KEYSOUNDS:;
#ATTACKS:
;

//---------------dance-single - ----------------
#NOTEDATA:;
#CHARTNAME:;
#STEPSTYPE:dance-single;
#DESCRIPTION:;
#CHARTSTYLE:;
#DIFFICULTY:Hard;
#METER:12;
#RADARVALUES:0.474978,0.498149,0.154285,0.246856,0.015429,431.000000,411.000000,20.000000,32.000000,0.000000,0.000000,0.000000,0.000000,0.000000,0.474978,0.498149,0.154285,0.246856,0.015429,431.000000,411.000000,20.000000,32.000000,0.000000,0.000000,0.000000,0.000000,0.000000;
#CREDIT:;
#NOTES:
0000
0000
0000
0000
,
0000
0000
0000
0000
,
0000
0000
0000
0000
,
0000
0000
0000
0000
,
0000
0000
0000
0000
,
0000
0000
0000
0000
,
0000
0000
0000
0000
,
2002
0000
0000
0000
3003
0000
1000
0001
0200
0000
0000
0000
0310
0000
0000
0000
,
1000
0000
0001
0100
0010
1000
0010
0100
,
0001
0000
0000
0010
0000
0000
0002
0000
0000
0000
1003
0000
0010
0000
0000
0000
,
1000
0010
0100
0010
1000
0010
0100
0000
,
0001
1000
0010
0200
0000
0301
1000
0000
,
0010
1000
1000
0100
1000
0001
0100
0010
,
1000
0001
0010
0002
0000
1000
1003
0000
,
0010
0100
0100
0001
1000
0100
1000
0001
,
0010
0000
0001
0000
1000
0000
0200
0000
0000
0000
1300
0000
0010
0100
0010
0000
,
1010
0000
0101
0000
0001
1000
1100
0000
,
1000
0010
0001
0200
0000
0310
0100
0000
,
0010
0010
0010
1000
0001
0010
0100
1000
,
0010
0100
0001
2000
0000
0100
0000
3001
,
1000
0001
0001
0010
0001
0100
0010
1000
,
0100
0100
0000
2100
0000
0001
3001
0000
,
0010
0001
0001
1000
0100
1000
0010
0100
,
0110
0101
0011
1100
,
0010
0001
0100
0010
1000
0100
0001
0100
,
1000
0010
0001
0010
0100
0001
0100
1000
,
0010
0100
0010
0001
0010
0100
0001
1000
,
0100
0010
0001
0000
1001
0000
0110
0000
,
0100
0001
0010
1000
0010
0001
0100
0010
,
1000
0100
0001
0100
1000
0010
0100
0001
,
0010
0001
0100
0010
1000
0100
1000
0001
,
0100
1000
0100
0010
0100
0001
0100
0000
,
0001
0010
1000
0010
0001
1000
0010
0100
,
0010
0001
0010
1000
0100
0010
0001
0100
,
0010
1000
0100
0010
0001
0100
1000
0100
,
0001
1000
0100
0000
1100
0000
0011
0000
,
0100
0010
1000
0010
0100
0001
0010
1000
,
0010
0001
0100
1000
0100
0010
1000
0001
,
0010
0100
0010
0001
1000
0010
0100
0001
,
1000
0100
0002
0000
2003
0000
3001
0000
,
1001
0000
2000
0000
3020
0000
0130
0002
,
0000
1003
0000
0000
0100
1000
0001
0000
,
0020
0000
0032
0000
2003
0000
3010
0100
,
0000
0000
0200
0000
0310
1000
0001
0000
,
0022
0000
0033
0000
1000
0001
0000
2000
,
0000
3010
0000
0000
0100
0001
0000
1010
,
0000
0000
0000
0000
1000
0001
0100
0000
,
0220
0000
0330
0000
0010
1000
0001
0000
,
2200
0000
0000
0000
,
0000
0000
0000
3300
,
1002
0100
0000
1000
0000
0100
0000
1003
,
0020
0100
0000
1000
0000
0100
0000
1030
,
0002
0100
0000
1000
0000
0100
0000
1003
,
0010
0000
0100
0000
0000
0000
0001
1000
0200
0000
0000
0000
1300
0000
0000
0000
,
0010
0100
0001
0010
0100
1000
0010
0100
,
0010
1000
0100
0001
0100
1000
0010
0001
,
0010
0100
0010
0001
0010
1000
0100
0010
,
0001
0100
0010
1000
0100
0010
0001
0100
,
0001
1000
0010
0100
0010
1000
0100
0010
,
0001
0100
0010
1000
0010
0001
0010
0100
,
0001
0010
1000
0010
0100
0001
0100
1000
,
0010
0100
0001
1000
0100
0010
0001
1000
,
0010
0001
0010
1000
0001
0010
0100
1000
,
0010
0100
0010
1000
0100
0001
0100
0010
,
0100
1000
0100
0010
0100
1000
0010
0100
,
0010
0001
0010
1000
0100
0010
0001
0100
,
0010
0100
0010
0001
0010
1000
0001
1000
,
0100
0010
0001
0100
1000
0100
0010
1000
,
0100
0010
0001
0100
0010
1000
0001
0010
,
0100
0001
0100
0010
0100
1000
0100
0000
,
2002
0000
0000
0000
,
0000
0000
0000
3003
;

//---------------dance-single - ----------------
#NOTEDATA:;
#CHARTNAME:;
#STEPSTYPE:dance-single;
#DESCRIPTION:;
#CHARTSTYLE:;
#DIFFICULTY:Medium;
#METER:9;
#RADARVALUES:0.387917,0.470474,0.408856,0.393427,0.003857,352.000000,299.000000,53.000000,51.000000,0.000000,0.000000,0.000000,0.000000,0.000000,0.387917,0.470474,0.408856,0.393427,0.003857,352.000000,299.000000,53.000000,51.000000,0.000000,0.000000,0.000000,0.000000,0.000000;
#CREDIT:;
#DISPLAYBPM:137.000000;
#NOTES:
0000
0000
0000
0000
,
0000
0000
0000
0000
,
0000
0000
0000
0000
,
0000
0000
0000
0000
,
0000
0000
0000
0000
,
0000
0000
0000
0000
,
0000
0000
0000
0000
,
2002
0000
3003
1000
0200
0000
0310
0000
,
0001
0000
0011
0000
1010
0000
0010
1000
,
0001
0000
0000
0010
0000
0000
0001
0000
0000
0000
0000
0000
0000
0000
0000
0000
,
0200
0320
2030
3001
,
0101
0000
1000
0002
0000
0000
0003
0000
,
0010
0001
0100
0001
1000
0000
1000
0100
,
1000
0001
0000
0010
0002
0000
0003
0000
,
0100
0001
1000
0001
0010
0000
0010
0100
,
1000
0001
0100
0020
0000
0000
0030
0000
,
1010
0000
0101
0000
0001
1000
0100
0000
,
1000
0001
0010
0200
0000
0000
0300
0000
,
1000
0010
1000
0100
0010
0000
0001
1000
,
0001
0010
0100
2000
0000
0000
3000
0000
,
0010
0100
0010
1000
0001
0100
0001
1000
,
0010
0100
0000
0001
2000
0000
3000
0000
,
0010
1000
0001
1000
0100
0000
0001
0000
,
0110
1001
0110
1001
,
1020
0000
0130
0000
0001
0010
0100
1000
,
0010
0100
0002
0000
2003
0000
3010
0000
,
1010
0000
0011
0000
0001
0100
0010
1000
,
0001
1100
0110
0011
,
2001
0000
3010
0000
1000
0001
0100
0010
,
1000
0100
0001
0000
1000
0010
0000
0110
,
0000
0000
0000
0001
1000
0010
0100
0002
,
0000
2003
0000
0010
0000
0100
0000
3001
,
0201
0000
0310
0000
1000
0010
0100
0001
,
0010
0100
2000
0000
3020
0000
0130
0000
,
0101
0000
1100
0000
1000
0010
0100
0001
,
1000
1010
0110
0101
,
1002
0000
0103
0000
0001
0010
0100
1000
,
0001
0100
1000
0000
0010
0100
0000
0101
,
0000
0000
0000
0010
0100
0010
1000
0002
,
0000
0013
0002
0000
2003
0000
3100
0000
,
1002
0100
1000
0010
,
0100
0100
1000
0013
,
2001
0100
0010
0001
,
0010
0100
0001
3001
,
0120
0100
0001
0100
,
1000
0000
1030
0000
0001
1000
0000
1010
,
0000
0000
0000
0000
0010
0100
0000
0000
,
0101
0000
0000
0000
0001
1000
0000
0000
,
0220
0000
0000
0000
,
0000
0000
0000
0330
,
2001
0100
0100
3100
,
1002
0100
0100
0103
,
2001
0100
0100
3100
,
0220
0000
0330
1000
0200
0000
0310
0000
,
0021
0000
0031
0000
1000
0001
0010
0100
,
1000
0010
0002
0000
2003
0000
3100
0000
,
1100
0000
0101
0000
0001
1000
0010
0100
,
0001
0011
1100
0101
,
2001
0000
3010
0000
1000
0010
0100
0001
,
0010
0001
1000
0000
0010
1000
0000
1100
,
0000
0000
0000
1000
0010
0100
0001
2000
,
0000
3002
0000
0100
0000
1000
0000
0103
,
0201
0000
0310
0000
0100
0001
0010
0100
,
1000
0010
0200
0000
0302
0000
1003
0000
,
1001
0000
0110
0000
0010
0100
0001
1000
,
0100
1100
0011
1010
,
0102
0000
1003
0000
0001
1000
0010
0100
,
0001
1000
0010
0000
0100
0010
0000
1010
,
0000
0000
0000
1000
0010
0100
0001
2000
,
0000
3001
0200
0000
0320
0000
1030
0000
,
2002
0000
0000
0000
,
0000
0000
0000
3003
;

//---------------dance-single - ----------------
#NOTEDATA:;
#CHARTNAME:;
#STEPSTYPE:dance-single;
#DESCRIPTION:;
#CHARTSTYLE:;
#DIFFICULTY:Easy;
#METER:6;
#RADARVALUES:0.295346,0.387449,0.385713,0.169714,0.000000,268.000000,218.000000,50.000000,22.000000,0.000000,0.000000,0.000000,0.000000,0.000000,0.295346,0.387449,0.385713,0.169714,0.000000,268.000000,218.000000,50.000000,22.000000,0.000000,0.000000,0.000000,0.000000,0.000000;
#CREDIT:;
#DISPLAYBPM:137.000000;
#NOTES:
0000
0000
0000
0000
,
0000
0000
0000
0000
,
0000
0000
0000
0000
,
0000
0000
0000
0000
,
0000
0000
0000
0000
,
0000
0000
0000
0000
,
0000
0000
0000
0000
,
2002
3003
0220
0330
,
1000
0010
1000
0001
,
0100
0100
0100
0000
,
0001
0010
0001
1000
,
0100
0100
0100
0000
,
1000
0010
0100
0001
,
0010
0100
1000
0000
,
0010
1000
0001
0010
,
0100
1000
0001
0000
,
1000
1010
0001
0011
,
0100
0010
1000
0000
,
0001
0101
1000
1100
,
0010
1000
0100
0000
,
1000
0001
0010
0001
,
1000
0010
0100
0000
,
0010
1000
0100
0001
,
0120
0100
0100
0130
,
1001
0001
0010
0100
,
1000
0001
0100
0100
,
0110
1001
1000
0100
,
1000
0001
0011
1100
,
1001
0010
1000
0001
,
0010
0100
1000
0001
,
0011
1000
0010
0100
,
0110
1000
0100
1000
,
1001
0010
0100
0001
,
0010
0001
1000
1000
,
1100
0011
0100
0010
,
1000
0001
0101
1010
,
1001
1000
0010
0100
,
0001
1000
0010
0100
,
0110
0010
1000
0001
,
0101
1000
0100
0001
,
0010
0010
0001
0001
,
2000
0000
0100
3100
,
1000
1000
0010
0010
,
0200
0000
0001
0301
,
0100
0100
0001
0001
,
0020
0000
0031
0000
,
0101
0000
1000
0000
,
1100
0000
0001
0000
,
0022
0000
0000
0000
,
0000
0000
0000
0033
,
2002
0000
0000
3003
,
2200
0000
0000
3300
,
0202
0000
0000
0303
,
2002
3003
0220
0330
,
1001
0010
1000
0100
,
0010
0001
0100
0100
,
0101
1100
1000
0010
,
0100
0001
0011
1010
,
0110
0010
1000
0100
,
1000
0001
0010
0100
,
1100
1000
0010
0100
,
0101
0001
1000
0001
,
1001
0010
1000
0100
,
1000
0001
0010
0010
,
0011
1010
0100
0010
,
1000
0001
0101
1100
,
1001
0010
1000
0100
,
0010
0001
1000
0010
,
0110
0100
0001
1000
,
0010
1100
0110
0011
,
2002
0000
0000
0000
,
0000
0000
0000
3003
;

//---------------dance-single - ----------------
#NOTEDATA:;
#CHARTNAME:;
#STEPSTYPE:dance-single;
#DESCRIPTION:;
#CHARTSTYLE:;
#DIFFICULTY:Beginner;
#METER:3;
#RADARVALUES:0.126734,0.188999,0.046286,0.000000,0.000000,115.000000,109.000000,6.000000,0.000000,0.000000,0.000000,0.000000,0.000000,0.000000,0.126734,0.188999,0.046286,0.000000,0.000000,115.000000,109.000000,6.000000,0.000000,0.000000,0.000000,0.000000,0.000000,0.000000;
#CREDIT:;
#DISPLAYBPM:137.000000;
#NOTES:
// measure 0
0000
0000
0000
0000
,  // measure 1
0000
0000
0000
0000
,  // measure 2
0000
0000
0000
0000
,  // measure 3
0000
0000
0000
0000
,  // measure 4
0000
0000
0000
0000
,  // measure 5
0000
0000
0000
0000
,  // measure 6
0000
0000
0000
0000
,  // measure 7
1001
0000
0000
0000
,  // measure 8
0001
0000
1000
0000
,  // measure 9
0010
0010
0010
0000
,  // measure 10
1000
0000
0001
0000
,  // measure 11
0100
0100
0100
0000
,  // measure 12
0000
0000
0001
0000
,  // measure 13
1000
0000
0001
0000
,  // measure 14
0000
0000
0100
0000
,  // measure 15
0010
0000
1000
0000
,  // measure 16
0001
0001
0001
0000
,  // measure 17
1000
1000
1000
0000
,  // measure 18
0010
0010
0010
0000
,  // measure 19
0100
0100
0100
0000
,  // measure 20
0000
0000
0010
0000
,  // measure 21
1000
0000
0100
0000
,  // measure 22
0000
0001
0001
0001
,  // measure 23
0001
0000
0000
0000
,  // measure 24
0010
0000
0010
0000
,  // measure 25
1000
0000
0001
0000
,  // measure 26
1000
1000
1000
0000
,  // measure 27
0100
0000
1000
0000
,  // measure 28
0010
0000
0100
0000
,  // measure 29
0001
0000
0010
0000
,  // measure 30
0001
0000
1000
0000
,  // measure 31
0100
0000
0000
0000
,  // measure 32
1000
0000
0010
0000
,  // measure 33
1000
0000
0001
0000
,  // measure 34
0100
0100
0100
0000
,  // measure 35
0010
0000
1000
0000
,  // measure 36
0001
0000
1000
0000
,  // measure 37
0010
0000
0100
0000
,  // measure 38
0010
0000
1000
0000
,  // measure 39
0001
0000
0000
0000
,  // measure 40
1001
0000
0000
0000
,  // measure 41
0000
0000
0000
0000
,  // measure 42
0100
0000
0000
0000
,  // measure 43
0000
0000
0000
0000
,  // measure 44
0010
0000
0000
0000
,  // measure 45
0000
0000
0000
0000
,  // measure 46
1000
0000
0000
0000
,  // measure 47
0001
0000
0000
0000
,  // measure 48
1001
0000
0000
0000
,  // measure 49
0000
0000
0000
0000
,  // measure 50
1001
0000
0000
0000
,  // measure 51
0000
0000
0000
0000
,  // measure 52
0000
0000
0000
0000
,  // measure 53
1001
0000
0000
0000
,  // measure 54
1000
0000
0100
0000
,  // measure 55
0010
0000
0001
0000
,  // measure 56
0100
0100
0100
0000
,  // measure 57
0001
0000
0010
0000
,  // measure 58
0100
0000
1000
0000
,  // measure 59
0001
0000
0010
0000
,  // measure 60
0001
0000
1000
0000
,  // measure 61
0010
0000
0000
0000
,  // measure 62
0100
0000
0100
0000
,  // measure 63
0010
0000
1000
0000
,  // measure 64
0001
0001
0001
0000
,  // measure 65
0010
0000
0100
0000
,  // measure 66
1000
0000
1000
0000
,  // measure 67
1000
0000
0001
0000
,  // measure 68
0010
0000
0001
0000
,  // measure 69
0100
0000
0000
0000
,  // measure 70
1001
0000
0000
0000
;
