#VERSION:0.83;
#TITLE:Jam Jam Reggae;
#SUBTITLE:;
#ARTIST:jam master '73;
#TITLETRANSLIT:;
#SUBTITLETRANSLIT:;
#ARTISTTRANSLIT:;
#GENRE:;
#ORIGIN:;
#CREDIT:;
#BANNER:Jam Jam Reggae.png;
#BACKGROUND:Jam Jam Reggae-bg.png;
#PREVIEWVID:;
#JACKET:Jam Jam Reggae-jacket.png;
#CDIMAGE:;
#DISCIMAGE:;
#LYRICSPATH:;
#CDTITLE:;
#MUSIC:Jam Jam Reggae.ogg;
#OFFSET:0.000000;
#SAMPLESTART:10.643000;
#SAMPLELENGTH:15.000000;
#SELECTABLE:YES;
#DISPLAYBPM:90.000000;
#BPMS:0.000=90.000;
#STOPS:;
#DELAYS:;
#WARPS:;
#TIMESIGNATURES:0.000=4=4;
#TICKCOUNTS:0.000=4;
#COMBOS:0.000=1;
#SPEEDS:0.000=1.000=0.000=0;
#SCROLLS:0.000=1.000;
#FAKES:;
#LABELS:0.000=Song Start;
#BGCHANGES:;
#KEYSOUNDS:;
#ATTACKS:
;

//---------------dance-single - ----------------
#NOTEDATA:;
#CHARTNAME:;
#STEPSTYPE:dance-single;
#DESCRIPTION:;
#CHARTSTYLE:;
#DIFFICULTY:Beginner;
#METER:1;
#RADARVALUES:0.103298,0.139452,0.116210,0.000000,0.000000,56.000000,47.000000,9.000000,0.000000,0.000000,0.000000,0.000000,0.000000,0.000000,0.103298,0.139452,0.116210,0.000000,0.000000,56.000000,47.000000,9.000000,0.000000,0.000000,0.000000,0.000000,0.000000,0.000000;
#CREDIT:;
#DISPLAYBPM:90.000000;
#NOTES:
0000
0000
0000
0000
,
0000
0000
0000
0000
,
0000
0000
0000
0000
,
0000
0000
0000
0000
,
1000
0000
1000
0000
,
0010
0000
0010
0000
,
0001
0000
0001
0000
,
0010
0000
0010
0000
,
0100
0000
1001
0000
,
0100
0000
1001
0000
,
0010
0000
1001
0000
,
0010
0000
1001
0000
,
0001
0001
0001
0000
,
1000
1000
1000
0000
,
0001
0001
0001
0000
,
1000
1000
1000
0000
,
0010
0000
0110
0000
,
0010
0000
0110
0000
,
1001
0000
0000
0000
,
1001
0000
0000
0000
,
0001
0000
0000
0000
,
0001
0000
0001
0000
,
1000
0000
0000
0000
,
1000
0000
1000
0000
,
0010
0000
0100
0000
,
0010
0000
0100
0000
,
0010
0000
0100
0000
,
1001
0000
0000
0000
,
0000
0000
0000
0000
;

//---------------dance-single - ----------------
#NOTEDATA:;
#CHARTNAME:;
#STEPSTYPE:dance-single;
#DESCRIPTION:;
#CHARTSTYLE:;
#DIFFICULTY:Easy;
#METER:4;
#RADARVALUES:0.145724,0.182869,0.038737,0.000000,0.000000,79.000000,76.000000,3.000000,0.000000,0.000000,0.000000,0.000000,0.000000,0.000000,0.145724,0.182869,0.038737,0.000000,0.000000,79.000000,76.000000,3.000000,0.000000,0.000000,0.000000,0.000000,0.000000,0.000000;
#CREDIT:;
#DISPLAYBPM:90.000000;
#NOTES:
0000
0000
0000
0000
,
0000
0000
0000
0000
,
0000
0000
0000
0000
,
0000
0000
0000
0000
,
0010
1000
0100
0001
,
0100
0010
0001
1000
,
0001
0001
1000
1000
,
0010
0010
0100
0100
,
0001
0100
1000
0100
,
0001
0010
1000
0010
,
0001
0000
1000
0000
,
0010
0000
0001
1000
,
0010
1000
0010
0100
,
0001
1000
0001
1000
,
0010
0100
0001
0100
,
0010
0100
0010
0100
,
0001
0010
0100
1000
,
0001
1001
1000
1001
,
0000
0000
0000
0000
,
0000
0000
0000
0001
,
0100
0000
0010
0010
,
1000
1000
0001
0001
,
1000
0000
0001
0001
,
0100
0010
1000
0001
,
0010
0100
1000
1001
,
1000
1000
0001
0001
;

//---------------dance-single - ----------------
#NOTEDATA:;
#CHARTNAME:;
#STEPSTYPE:dance-single;
#DESCRIPTION:;
#CHARTSTYLE:;
#DIFFICULTY:Medium;
#METER:5;
#RADARVALUES:0.199217,0.259052,0.038737,0.000000,0.000000,108.000000,105.000000,3.000000,0.000000,0.000000,0.000000,0.000000,0.000000,0.000000,0.199217,0.259052,0.038737,0.000000,0.000000,108.000000,105.000000,3.000000,0.000000,0.000000,0.000000,0.000000,0.000000,0.000000;
#CREDIT:;
#DISPLAYBPM:90.000000;
#NOTES:
0000
0000
0000
0000
,
0000
0000
0000
0000
,
0000
0000
0000
0000
,
0000
0000
0000
0000
,
0010
0010
0000
0010
0000
0100
0000
0001
,
0000
0001
0000
1000
0000
0010
0000
0100
,
0000
0001
0000
0001
0000
1000
1000
1000
,
0000
0010
0000
0010
0000
0100
0000
1001
,
0000
0001
0001
0001
0000
1000
1000
1000
,
0000
0010
0010
0010
0000
0100
0100
0100
,
0000
1000
0000
1000
0000
0001
0000
0001
,
0000
0010
0000
0001
0000
1000
1000
1000
,
0000
0001
0000
0001
0000
0001
0001
0001
,
0000
1000
0000
1000
0000
1000
1000
1000
,
0000
0010
0000
0100
0000
0010
0010
0010
,
0000
1000
0000
0001
0000
1000
1000
1000
,
0000
1000
0000
0100
0000
0010
0000
0001
,
0000
0001
0000
0001
0000
1000
1000
1000
,
0000
0000
0000
0000
,
0000
0000
0000
0000
0000
0000
0001
1001
,
0100
0100
0010
0010
,
1000
0010
1000
0100
,
0001
1000
0001
1000
,
0001
0100
0001
0010
,
0100
0100
0100
0000
0010
0010
0010
0000
,
0001
0001
0001
0000
1000
1000
1000
1001
,
0100
0100
0100
0000
0001
0001
0001
0000
;

//---------------dance-single - ----------------
#NOTEDATA:;
#CHARTNAME:;
#STEPSTYPE:dance-single;
#DESCRIPTION:;
#CHARTSTYLE:;
#DIFFICULTY:Hard;
#METER:10;
#RADARVALUES:0.398434,0.451121,0.464840,0.000000,0.096842,216.000000,180.000000,36.000000,0.000000,0.000000,0.000000,0.000000,0.000000,0.000000,0.398434,0.451121,0.464840,0.000000,0.096842,216.000000,180.000000,36.000000,0.000000,0.000000,0.000000,0.000000,0.000000,0.000000;
#CREDIT:;
#DISPLAYBPM:90.000000;
#NOTES:
0000
0000
0000
0000
,
0000
0000
0000
0000
,
0000
0000
0000
0000
,
0000
0000
0000
0000
,
0000
0010
1000
0001
0000
0100
1100
0011
,
0000
0001
0010
0100
0000
1000
0100
0010
,
0000
0001
1000
0001
0000
0100
0101
1001
,
0010
0010
0001
0001
0100
0100
1000
1001
,
0000
0001
1001
1000
0000
0100
0110
1010
,
0001
1000
0010
0100
1001
0110
1001
1100
,
0000
0001
0101
1100
0000
1000
1010
0011
,
0000
0010
0010
1001
0100
0010
1000
1001
,
0000
0010
0110
1001
0010
0010
0100
1001
,
1000
1000
0001
0001
1000
0000
1000
0000
0001
0001
1000
1000
0001
0000
0001
0000
,
0010
0010
1001
1001
0001
1000
0110
0110
,
1000
1001
0010
0110
0001
1000
0100
0110
,
1000
1000
0100
0100
0010
0010
0001
0001
,
1000
1000
0010
0100
0000
1001
0110
1001
,
0010
0010
0010
0000
0010
0000
0010
0000
0100
0100
0100
0000
0100
0000
0100
0000
,
0001
0001
0001
0000
1000
1000
1000
0000
0010
0010
0010
0000
0010
0000
1001
0000
,
0100
0000
0100
0000
1000
0001
1000
0000
,
1000
0001
1000
0010
1000
0100
1000
1000
,
0001
0000
0001
0000
0100
0010
0100
0000
,
0001
1000
0001
0100
0001
0010
0001
1000
,
0001
0001
0001
0000
0010
0000
1000
0000
0100
0100
0100
0000
0001
0000
1000
0000
,
0001
1000
0001
0000
1000
0000
1001
0000
0100
0100
0100
0000
0010
0000
1001
0000
,
0100
0100
0100
0000
0100
0000
1001
0000
0010
0010
0010
0000
0010
0000
1001
0000
;

//---------------dance-double - ----------------
#NOTEDATA:;
#CHARTNAME:;
#STEPSTYPE:dance-double;
#DESCRIPTION:;
#CHARTSTYLE:;
#DIFFICULTY:Easy;
#METER:6;
#RADARVALUES:0.230575,0.277613,0.142034,0.000000,0.000000,125.000000,114.000000,11.000000,0.000000,0.000000,0.000000,0.000000,0.000000,0.000000,0.230575,0.277613,0.142034,0.000000,0.000000,125.000000,114.000000,11.000000,0.000000,0.000000,0.000000,0.000000,0.000000,0.000000;
#CREDIT:;
#DISPLAYBPM:90.000000;
#NOTES:
00000000
00000000
00000000
00000000
,
00000000
00000000
00000000
00000000
,
00000000
00000000
00000000
00000000
,
00000000
00000000
00000000
00000000
,
00001000
00001000
00000000
00001000
00000000
00000100
00000000
00000001
,
00000000
00000010
00000000
00000010
00000000
00001000
00000000
00011000
,
00010000
00010000
00000000
00010000
00000000
10000000
00000000
00100000
,
00000000
00010000
00000000
00001000
00000000
00010000
00000000
00011000
,
00000000
00010000
00010000
00010000
00000000
00001000
00001000
00001000
,
00000000
00010000
00010000
00010000
00000000
00001000
00001000
00011000
,
00000000
00001000
00000000
00001000
00000000
00010000
00000000
00010000
,
00000000
01000000
00000000
01000000
00000000
01000000
00000000
10010000
,
10000000
10000000
10000000
00000000
00100000
00100000
00100000
00000000
,
00010000
00001000
00000010
00000100
,
00000001
00001000
00000001
00001000
,
00010000
00010000
00001000
00010000
,
00001000
00001000
00001000
00000000
00010000
00010000
00010000
00000000
,
00100000
00100000
00000000
10000000
00000000
01000000
00010000
10010000
,
00000000
00000000
00000000
00000000
,
00000000
00000000
00000000
00000000
00000010
00000001
00000100
00001000
,
00010000
00001000
00011000
00011000
,
00010000
00001000
00010000
00001000
00010000
00001000
00010000
00001000
,
00001000
00010000
00011000
00011000
,
00001000
00010000
00001000
00010000
00001000
00010000
00001000
00010000
,
00001000
00001000
00001000
00000000
00010000
00010000
00010000
00000000
,
01000000
01000000
01000000
00000000
00100000
00100000
00100000
10010000
,
00010000
00000000
00010000
00000000
00000000
00001000
00010000
00011000
;

//---------------dance-double - ----------------
#NOTEDATA:;
#CHARTNAME:;
#STEPSTYPE:dance-double;
#DESCRIPTION:;
#CHARTSTYLE:;
#DIFFICULTY:Medium;
#METER:9;
#RADARVALUES:0.343096,0.433770,0.374454,0.000000,0.038737,186.000000,157.000000,29.000000,0.000000,0.000000,0.000000,0.000000,0.000000,0.000000,0.343096,0.433770,0.374454,0.000000,0.038737,186.000000,157.000000,29.000000,0.000000,0.000000,0.000000,0.000000,0.000000,0.000000;
#CREDIT:;
#DISPLAYBPM:90.000000;
#NOTES:
00000000
00000000
00000000
00000000
,
00000000
00000000
00000000
00000000
,
00000000
00000000
00000000
00000000
,
00000000
00000000
00000000
00000000
,
00001000
00000001
00001000
00000000
00100000
01000000
00010000
00000000
,
10000000
10000000
00010000
00000000
01000000
00001000
00000100
00001001
,
00001000
00000000
00001000
00000000
00000010
00010000
00001000
00100000
,
00001000
01000000
00100000
10000000
00010000
10000000
00010000
10010000
,
10000000
00010000
01000000
10010000
00010000
01000000
00001000
00010000
,
00010000
10000000
00010000
00000000
00000010
00000001
00000100
00001001
,
00001000
00000001
00001000
00000000
00010000
10000000
00010000
00000000
,
01000000
01000000
00100000
10010000
10000000
00010000
00100000
10010000
,
00000000
10000000
00000000
00010000
00000000
00000100
00000010
00001000
,
00000000
00100000
00000000
10000000
00000000
00010000
00100000
00001000
,
00000000
00001001
00001001
00001001
00000000
10010000
10010000
10010000
,
00000000
00001001
00001001
00001001
00000000
10010000
10010000
10010000
,
00000000
00001000
00000000
00000100
00000000
00010000
00000000
01000000
,
00010000
00010000
00010000
00000000
01000000
01000000
01000000
00000000
10000000
00000000
00000000
00000000
00010000
00000000
00000000
00000000
,
00100000
00100000
00100000
00000000
00010000
00010000
00010000
00000000
00001000
00001000
00001000
00000000
00000100
00000100
00000100
00000000
,
00010000
00001000
00010000
00001000
00011000
00010100
00011000
00101000
,
00010000
00010000
00011000
00011000
,
00010000
00001000
00010000
00000100
00010000
00000010
00010000
00001000
,
00010000
00001000
00011000
00011000
,
00001000
00010000
00001000
00100000
00001000
01000000
00001000
00010000
,
00100000
10000000
01000000
00000000
00001000
00000100
00000010
00010000
,
01000000
00100000
01000000
00010000
10000000
00100000
10000000
10010000
,
00010000
00010000
00010000
10010000
10000000
10000000
10000000
10010000
;

//---------------dance-double - ----------------
#NOTEDATA:;
#CHARTNAME:;
#STEPSTYPE:dance-double;
#DESCRIPTION:;
#CHARTSTYLE:;
#DIFFICULTY:Hard;
#METER:11;
#RADARVALUES:0.424259,0.485822,0.413191,0.051649,0.251788,230.000000,198.000000,32.000000,4.000000,0.000000,0.000000,0.000000,0.000000,0.000000,0.424259,0.485822,0.413191,0.051649,0.251788,230.000000,198.000000,32.000000,4.000000,0.000000,0.000000,0.000000,0.000000,0.000000;
#CREDIT:;
#DISPLAYBPM:90.000000;
#NOTES:
00000000
00000000
00000000
00000000
,
00000000
00000000
00000000
00000000
,
00000000
00000000
00000000
00000000
,
00000000
00000000
00000000
00000000
,
00101000
00000000
00110000
00000000
00100000
00010000
10000000
01000000
00000000
00100000
00010000
10000000
01000000
00000000
11000000
00000000
,
01000000
00010000
01000000
00010000
00001000
00000000
00000100
00000000
00000110
00000000
00000101
00000000
00000010
00000000
00001001
00000000
,
00000100
00000000
00000110
00000000
00001000
00000100
00001000
00000100
00000000
00001000
00010000
00001000
00010000
00000000
01000000
00000000
,
10000000
01000000
10000000
01000000
00010000
00000000
01100000
00000000
00010000
00000000
00001000
00000000
00010000
00000000
00000100
00000000
,
00001000
00000100
00001000
00001001
00000001
00000100
00000001
00000110
,
00001000
00000100
00001000
00000000
00001000
00010000
00000000
00010000
01000000
00010000
01000000
00000000
10000000
00000000
01100000
00000000
,
00100000
00001000
00010000
00000000
00001000
00010000
01000000
00000000
,
01000000
00000000
00010000
00000000
00001000
00010000
00001000
00000000
00010000
00001000
00000100
00000000
00000001
00000000
00000101
00000000
,
00000001
00000000
00000100
00000000
00001000
00010000
01000000
00000000
00010000
00000000
00001000
00000000
00000200
00000000
00000000
00000000
,
00000301
00000100
00000000
00000001
00000100
00000000
00000010
00000000
00010000
00000000
00001000
00000000
00000100
00000000
00000001
00000100
,
00000001
00000000
00000010
00000000
00000100
00000000
00000010
00001000
00000010
00000000
00001000
00000000
00010000
00000000
00000100
00000000
,
00001000
00000100
00000000
00010000
00001000
00000000
00000100
00000000
00001000
00000000
00010000
00000000
02000000
00000000
00000000
00000000
,
13000000
00000000
01000000
00000000
00010000
00000000
01000000
10000000
01000000
00000000
00010000
00000000
00001000
00000100
00001000
00000100
,
00000001
00000000
00000010
00000000
00000101
00000000
00000010
00000000
00001100
00000000
00000010
00000100
00000001
00000000
00000110
00000000
,
00000010
00010000
00001000
00100000
00020000
00000000
00030000
00000000
,
00100000
00001000
00010000
00000010
00002000
00000000
00003000
00000000
,
10000000
01000000
00010000
01000000
00010000
00000000
00001000
00000000
,
00001100
00000110
00000101
00000000
00000101
00000110
00001100
00000000
,
00000001
00000100
00001000
00000100
00001000
00000000
00010000
00000000
,
01010000
01100000
11000000
00000000
11000000
01100000
01010000
00000000
,
01000000
00000000
10000000
00000000
00100000
10000000
00010000
01000000
00000000
00100000
10000000
00010000
01000000
00000000
11000000
00000000
,
00100000
00010000
00100000
00010000
00001000
00000000
00000100
00000000
00000110
00000000
00001001
00000000
00000010
00000000
00001001
00000000
,
00000010
00000000
00000110
00000000
00001000
00000100
00001000
00000100
00000000
00001000
00010000
00001000
00010000
00000000
01000000
00000000
;

//---------------dance-single - ----------------
#NOTEDATA:;
#CHARTNAME:;
#STEPSTYPE:dance-single;
#DESCRIPTION:;
#CHARTSTYLE:;
#DIFFICULTY:Challenge;
#METER:13;
#RADARVALUES:0.647456,0.723085,0.593962,0.154947,0.813470,351.000000,305.000000,46.000000,12.000000,0.000000,0.000000,0.000000,0.000000,0.000000,0.647456,0.723085,0.593962,0.154947,0.813470,351.000000,305.000000,46.000000,12.000000,0.000000,0.000000,0.000000,0.000000,0.000000;
#CREDIT:;
#DISPLAYBPM:90.000000;
#NOTES:
// measure 0
0000
0000
0000
0000
,  // measure 1
0000
0000
0000
0000
,  // measure 2
0000
0000
0000
0000
,  // measure 3
0000
0000
0000
0000
,  // measure 4
0011
0000
1100
0000
1000
0010
0100
0001
0010
0100
1000
0000
1001
0000
0000
0000
,  // measure 5
0010
0010
0010
1000
0001
0100
0000
0100
0100
0001
0010
0100
1000
0001
0101
0000
,  // measure 6
1010
0000
1100
0000
0010
1000
0001
0010
0100
1000
0001
0000
0011
0000
0000
0000
,  // measure 7
0001
0001
0001
0010
0100
1000
0000
1000
1000
0001
0010
0100
1000
0010
0110
0000
,  // measure 8
1000
0010
0100
0010
2000
0001
3001
0000
0010
0001
1000
0001
0200
0010
0310
0000
,  // measure 9
1000
0010
1000
0001
0010
0010
0000
0001
0100
0100
0100
0010
1000
0001
0010
0000
,  // measure 10
0001
0010
0001
1000
0200
0010
0310
0000
0100
1000
0010
0100
0002
1000
1003
0000
,  // measure 11
0001
0010
0011
0000
1000
0100
1100
0000
0010
0010
0010
1000
0001
1000
0100
0000
,  // measure 12
1010
0000
1100
0000
0110
0000
0011
0000
0010
0001
1000
0000
1001
0000
0101
0000
,  // measure 13
0110
0100
0001
0100
1000
0100
0001
0100
0000
0100
1000
0100
0001
0100
1000
0100
,  // measure 14
0002
1000
1000
0000
0010
0000
0100
0100
0100
0000
0013
0000
1001
0000
0000
0000
,  // measure 15
2000
0010
0000
3100
1000
0010
0100
0001
0020
0100
0130
0000
0011
0000
0000
0000
,  // measure 16
0001
0010
0100
1000
2010
0000
0001
0001
3001
0000
0101
0000
1100
1000
0001
1000
,  // measure 17
0010
0100
0010
1000
0001
0010
0100
1000
0001
0100
0010
1000
0100
0010
0001
0000
,  // measure 18
0010
0000
0001
0000
1001
0000
0000
0000
1000
0100
1000
0000
0001
0000
0100
0000
0010
0000
1000
0000
1010
0000
0000
0000
0100
0001
0100
0000
0010
0000
1000
0000
,  // measure 19
0001
0000
0010
0000
0110
0000
0000
0000
1000
0001
1000
0000
1100
0000
0000
0000
0010
0100
0010
0100
0010
0000
1000
0000
0001
0100
0001
0100
0001
0000
0000
0000
,  // measure 20
0011
0000
1001
0000
0011
0000
1001
0000
0020
0001
0031
1000
0020
0100
0130
0000
,  // measure 21
1000
0010
0100
0001
0010
0100
1000
0010
1000
0001
0100
0000
0101
0000
0000
0000
,  // measure 22
1100
0000
1001
0000
1100
0000
1001
0000
0200
0001
0301
0010
0200
1000
1300
0000
,  // measure 23
0010
1000
0100
0010
0001
0100
0001
1000
0010
0100
0010
0000
0110
0000
1001
0000
,  // measure 24
0011
0000
1010
0000
0010
1000
0100
0010
0001
0100
1000
0000
1100
0000
0000
0000
,  // measure 25
0001
0001
0001
1000
0010
0100
0000
0010
0010
1000
0100
0010
0001
0100
0110
0000
,  // measure 26
1010
0000
0101
0000
0001
1000
0010
1000
0100
0010
0001
0000
0011
0000
0000
0000
,  // measure 27
1000
1000
1000
0010
0100
0001
0000
0010
0010
0001
0100
0010
1000
0001
0101
0000
,  // measure 28
1100
0000
0000
0000
;
