#TITLE:Jam Jam Reggae;
#SUBTITLE:~AMD SWING MIX~;
#ARTIST:RICE.C feat. jam master '73;
#TITLETRANSLIT:;
#SUBTITLETRANSLIT:;
#ARTISTTRANSLIT:;
#GENRE:;
#CREDIT:;
#BANNER:Jam Jam Reggae ~AMD SWING MIX~.png;
#BACKGROUND:Jam Jam Reggae ~AMD SWING MIX~-bg.png;
#LYRICSPATH:;
#CDTITLE:;
#MUSIC:Jam Jam Reggae ~AMD SWING MIX~.ogg;
#OFFSET:0.000000;
#SAMPLESTART:50.661999;
#SAMPLELENGTH:20.000000;
#SELECTABLE:YES;
#DISPLAYBPM:90.000000;
#BPMS:0.000000=90.008003
;
#STOPS:
;
#BGCHANGES:;
#KEYSOUNDS:;
#ATTACKS:;

//---------------dance-single - ----------------
#NOTES:
     dance-single:
     :
     Beginner:
     1:
     0.078930,0.108568,0.000000,0.000000,0.000000,50.000000,50.000000,0.000000,0.000000,0.000000,0.000000,0.078930,0.108568,0.000000,0.000000,0.000000,50.000000,50.000000,0.000000,0.000000,0.000000,0.000000:
0000
0000
0000
0000
,
0000
0000
0000
0000
,
0000
0000
0000
0000
,
0000
0000
0000
0000
,
0000
0000
0000
0000
,
1000
1000
1000
0000
,
1000
0000
1000
0000
,
0010
0000
0100
0000
,
0010
0000
0100
0000
,
0001
0000
0001
0000
,
0001
0000
0001
0000
,
0001
0000
0000
0000
,
1000
0000
0000
0000
,
0001
0000
0000
0000
,
1000
0000
0000
0000
,
0010
0000
0001
0000
,
0010
0000
0001
0000
,
1000
0000
0000
0000
,
1000
0000
0000
0000
,
1000
1000
1000
0000
,
1000
0000
1000
0000
,
0001
0001
0001
0000
,
0001
0000
0001
0000
,
1000
0000
0000
0000
,
0001
0000
0000
0000
,
1000
0000
0000
0000
,
0001
0000
0000
0000
,
0010
0000
0010
0000
,
0100
0000
0100
0000
,
0010
0000
0010
0000
,
0100
0000
0100
0000
,
0001
0000
0010
0000
,
0100
0000
1000
1000
;

//---------------dance-single - ----------------
#NOTES:
     dance-single:
     :
     Easy:
     5:
     0.209954,0.235231,0.110502,0.000000,0.000000,133.000000,123.000000,10.000000,0.000000,0.000000,0.000000,0.209954,0.235231,0.110502,0.000000,0.000000,133.000000,123.000000,10.000000,0.000000,0.000000,0.000000:
0000
0000
0000
0000
,
0000
0000
0000
0000
,
0000
0000
0000
0000
,
0000
0000
0000
0000
,
0000
0000
0000
0000
,
1000
1000
1000
0000
0001
0000
1000
0000
,
0010
0010
0010
0000
1000
0000
0001
0000
,
1000
1001
0001
1001
,
1000
0010
0100
0001
,
0001
1001
1000
1001
,
0010
1000
0001
0100
,
0010
0010
0010
0010
,
1000
0000
0001
0000
1000
1000
1000
0000
,
0001
0000
1000
0000
0001
0001
0001
0000
,
0010
0100
1000
0001
,
1000
1000
1000
0000
0001
0001
0001
0000
,
0010
0000
0010
0000
0100
0100
0100
0000
,
0000
0000
0000
0000
0000
0000
0001
0001
,
0000
0000
1000
0001
,
1000
1000
0001
0001
,
1000
0010
0100
0001
,
1000
0001
1000
0001
,
0001
0100
0010
1000
,
1000
1000
1000
0000
0001
0001
0001
0000
,
0010
0010
0010
0000
0100
0100
0100
0000
,
1000
1000
1000
0000
0010
0010
0010
0000
,
0100
0100
0100
0000
0001
0001
0001
0000
,
1000
0001
1000
0001
,
0100
0010
1001
1001
,
0010
0100
0001
1000
,
0010
0100
1001
0110
,
1000
1000
0001
0001
,
0100
0010
1001
1001
;

//---------------dance-single - ----------------
#NOTES:
     dance-single:
     :
     Medium:
     9:
     0.382022,0.452368,0.585661,0.000000,0.000000,242.000000,189.000000,53.000000,0.000000,0.000000,0.000000,0.382022,0.452368,0.585661,0.000000,0.000000,242.000000,189.000000,53.000000,0.000000,0.000000,0.000000:
0000
0000
0000
0000
,
0000
0000
0000
0000
,
0000
0000
0000
0000
,
0000
0000
0000
0000
,
0000
0000
0000
0000
1001
1001
1001
0000
,
1000
0010
0100
0000
0001
1000
0010
0000
,
1000
1000
1000
0000
0001
0001
0001
0000
,
1000
0000
1100
1100
0001
0000
0101
0101
,
0000
1000
0010
0100
0000
0001
1000
0001
,
0010
0000
1010
1010
0100
0000
0101
0101
,
0000
0010
1000
0001
0000
0100
0001
1000
,
0000
0010
0000
0010
0000
0010
0010
0010
,
1000
1000
0001
0001
1000
1000
0010
0010
,
0100
0100
0001
0001
1000
1000
0100
0100
,
0010
0010
0100
0100
1000
1000
0001
0001
,
1000
1100
0010
1010
0100
0101
0001
0011
,
1000
1000
0001
0001
0100
0110
1001
1001
,
0010
0010
0100
0100
0001
0001
1000
1000
,
0001
1000
0001
1000
0010
0010
1001
1001
,
1000
1000
0001
0001
,
1100
1010
1100
1010
1100
1010
1100
1010
,
0100
0100
0010
0100
,
0101
0011
0101
0011
0101
0011
0101
0011
,
1000
1000
0010
0010
0100
0100
0001
0001
,
0010
0010
0100
0100
1000
1000
0001
1001
,
1000
1000
0001
0001
0100
0100
0010
0010
,
1000
1001
0010
0110
0001
1001
1001
1001
,
1000
0000
1100
1100
0001
0000
0101
0101
,
0000
1000
0010
0100
0000
0001
1000
0001
,
0010
0000
1010
1010
0100
0000
0101
0101
,
0000
0010
1000
0001
0000
0100
0001
1000
,
1000
1000
0001
0001
,
0100
0000
0010
0000
1001
0110
1001
0000
;

//---------------dance-single - ----------------
#NOTES:
     dance-single:
     :
     Hard:
     12:
     0.503574,0.579031,0.740364,0.000000,0.232054,319.000000,252.000000,67.000000,0.000000,0.000000,0.000000,0.503574,0.579031,0.740364,0.000000,0.232054,319.000000,252.000000,67.000000,0.000000,0.000000,0.000000:
0000
0000
0000
0000
,
0000
0000
0000
0000
,
0000
0000
0000
0000
,
0000
0000
0000
0000
,
0000
0000
0000
0000
0000
0000
1010
1100
,
0100
0100
0010
0010
0110
1001
0011
0011
,
0000
0100
0100
0100
0001
0001
0011
0101
,
1000
1100
0001
0101
1000
1100
0001
0101
,
0010
1010
0100
1100
0010
1010
0100
1100
,
1000
1010
0001
0011
1000
1010
0001
0011
,
0100
1100
0010
0011
0100
1100
0010
0011
,
0000
1000
0000
0001
0000
1000
1000
1000
,
0001
0011
1000
1010
0100
1100
0001
0101
,
0000
1000
0001
0100
0100
0010
1000
1000
,
0000
0010
0000
0100
0000
1001
0110
1001
,
1000
1100
0001
0101
1000
1100
0001
0101
,
1000
1100
0001
0101
1000
1100
0001
0101
,
0010
0100
0010
0100
0010
0100
0010
0100
0010
0100
0010
0100
0010
0100
0010
0100
,
0001
1000
0001
1000
0001
1000
0001
1000
0010
0000
0010
0000
1001
0000
1001
0000
,
1000
1000
0001
0001
1000
1000
0001
0001
,
0100
0100
0100
0100
0100
0000
0100
0000
0010
0010
0010
0010
0010
0000
0010
0000
,
0100
0100
0010
0010
1000
1000
0001
0001
,
0010
0010
0010
0010
0010
0000
0010
0000
0100
0100
0100
0100
0100
0000
0100
0000
,
1001
0000
0110
0000
1001
0000
0000
0000
1000
0001
1000
0001
1000
0001
1000
0001
,
0100
0010
0100
0010
1000
0001
1000
0001
0100
0010
0100
0010
1000
0000
1001
0000
,
0110
0000
1001
0000
0110
0000
0000
0000
0010
0100
0010
0100
0010
0100
0010
0100
,
0001
1000
0001
1000
0010
0100
0010
0100
0001
1000
0001
1000
0010
0000
1001
0000
,
1000
1100
0001
0101
1000
1100
0001
0101
,
0010
1010
0100
1100
0010
1010
0100
1100
,
1000
1010
0001
0011
1000
1010
0001
0011
,
0100
1100
0010
0011
0100
1100
0010
0011
,
1000
1000
0001
0001
,
1000
0000
0001
0000
0100
0010
0000
1000
0001
0000
0110
0000
1001
0000
0000
0000
;

//---------------dance-double - ----------------
#NOTES:
     dance-double:
     :
     Easy:
     5:
     0.186275,0.235231,0.066301,0.000000,0.000000,118.000000,112.000000,6.000000,0.000000,0.000000,0.000000,0.186275,0.235231,0.066301,0.000000,0.000000,118.000000,112.000000,6.000000,0.000000,0.000000,0.000000:
00000000
00000000
00000000
00000000
,
00000000
00000000
00000000
00000000
,
00000000
00000000
00000000
00000000
,
00000000
00000000
00000000
00000000
,
00000000
00000000
00000000
00000000
,
10000000
00010000
01000000
00001000
,
00010000
00000100
00001000
00000001
,
00000001
00001000
00000100
00010000
,
00001000
01000000
00010000
10000000
,
01000000
01000000
00100000
00100000
,
00001000
00001000
00000100
00000100
,
00000001
00001000
00000100
00010000
,
00001000
01000000
00100000
10000000
,
01000000
01000000
00010000
00010000
,
00001000
00001000
00000100
00000100
,
00000001
00000001
00001000
00001000
,
00010000
00010000
10000000
10000000
,
10010000
01000000
00011000
00000100
,
00001001
00000100
00011000
01000000
,
10000000
01000000
00011000
00000100
,
00000001
00000100
00001000
00010000
,
10000000
01000000
00011000
00000100
,
00000001
00000100
00001000
00010000
,
10000000
01000000
00010000
00001000
,
00000001
00000100
00001000
00010000
,
10000000
01000000
00010000
00001000
,
00000001
00000100
00001000
00010000
,
10000000
00010000
00000100
00000001
,
00000001
00001000
01000000
10000000
,
00010000
00010000
00000100
00000100
,
00000001
00001000
01000000
10000000
,
10000000
00010000
01000000
00001000
,
00010000
00000100
00001000
00000001
;

//---------------dance-double - ----------------
#NOTES:
     dance-double:
     :
     Medium:
     7:
     0.222583,0.253326,0.044201,0.000000,0.000000,141.000000,137.000000,4.000000,0.000000,0.000000,0.000000,0.222583,0.253326,0.044201,0.000000,0.000000,141.000000,137.000000,4.000000,0.000000,0.000000,0.000000:
00000000
00000000
00000000
00000000
,
00000000
00000000
00000000
00000000
,
00000000
00000000
00000000
00000000
,
00000000
00000000
00000000
00000000
,
00000000
00000000
00000000
00000000
,
00000000
10000000
00000000
00010000
00000000
01000000
00000000
00001000
,
00010000
00000100
00000000
00001000
00000000
00000001
00000000
00001000
,
00000010
00000100
00000000
00001000
00000000
00000100
00000000
00010000
,
00001000
01000000
00000000
00010000
00000000
10000000
00000000
00010000
,
00100000
01000000
00000000
01000000
00000000
00100000
00000000
00100000
,
00001000
00001000
00000000
00001000
00000000
00000100
00000000
00000100
,
00000001
00000001
00000000
00001000
00000000
00000100
00000000
00010000
,
00000000
00001000
01000000
00100000
00000000
00010000
10000000
01000000
,
00000000
01000000
00000000
01000000
00000000
00010000
00000000
00010000
,
00000000
00001000
00000000
00001000
00000000
00000100
00000000
00000100
,
00000000
00000001
00000001
00000000
00000000
00001000
00001000
00000000
,
00000000
00010000
00010000
00000000
00000000
10000000
10000000
00000000
,
00000000
00010000
00000000
01000000
10010000
01000000
00000000
00010000
,
00000000
00001000
00000000
00000100
00001001
00000100
00000000
00010000
,
10000000
10000000
00000000
01000000
00000000
00011000
00000000
00000100
,
00000001
00000100
00000000
00000100
00000000
00001000
00010000
01000000
,
01000000
10000000
00000000
01000000
00000000
00011000
00000000
00000100
,
00000001
00000100
00000000
00000100
00000000
00001000
00010000
01000000
,
01000000
10000000
00000000
01000000
00000000
00010000
00001000
00001000
,
00000000
00000100
00000000
00000100
00000000
00001000
00010000
00010000
,
00000000
01000000
00000000
01000000
00000000
00010000
00001000
00001000
,
00000000
00000100
00000000
00000100
00000000
00001000
00010000
00010000
,
00000000
01000000
00000000
00010000
00000000
00000100
00000001
00000001
,
00000000
00000100
00000000
00001000
00000000
01000000
10000000
10000000
,
00000000
00010000
00000000
00010000
00000000
00000100
00000010
00000100
,
00000000
00000001
00000000
00001000
00000000
01000000
10000000
10000000
,
00000000
10000000
00000000
00010000
00000000
01000000
00000000
00001000
,
00000000
00010000
00000000
00000100
00000000
00001000
00000001
00000000
;

//---------------dance-double - ----------------
#NOTES:
     dance-double:
     :
     Hard:
     10:
     0.389915,0.379989,0.265205,0.000000,0.000000,247.000000,223.000000,24.000000,0.000000,0.000000,0.000000,0.389915,0.379989,0.265205,0.000000,0.000000,247.000000,223.000000,24.000000,0.000000,0.000000,0.000000:
00000000
00000000
00000000
00000000
,
00000000
00000000
00000000
00000000
,
00000000
00000000
00000000
00000000
,
00000000
00000000
00000000
00000000
,
00000000
00000000
00000000
00000000
,
00011000
00100000
10000000
01000000
00010000
00001000
00000100
00000001
,
00000010
00001000
00010000
00100000
00010000
00001000
00000010
00001000
,
00011000
00000100
00000001
00000010
00001000
00010000
00100000
01000000
,
00010000
10000000
01000000
00010000
00001000
00000100
00001000
00010000
,
01000000
10000000
01000000
00010000
01000000
00010000
00001000
00000100
,
00000001
00001000
00000100
00000001
00000100
00001000
00100000
10000000
,
11000000
00010000
00001000
00000100
00000001
00000010
00001000
01000000
,
10100000
01000000
00010000
00001000
00000101
00000010
00001000
01000000
,
11000000
00100000
00001000
00000100
00000001
00001000
01000000
10000000
,
01010000
00100000
10000000
00010000
00000010
00000001
00001000
00100000
,
10010000
01000000
00010000
00000010
00000100
00001000
00010000
00001000
,
00000100
00000001
00001000
01000000
10000000
00010000
00000100
00000001
,
00001001
00000100
00010000
00100000
11000000
00010000
00001000
00000100
,
00001000
00010000
01000000
10000000
01100000
00001000
00000001
00000100
,
00011000
01000000
10000000
00010000
00000100
00000001
00001000
01000000
,
01010000
10000000
01000000
00010000
00001000
00000010
00001000
00010000
,
10100000
01000000
00001000
00000010
00000100
00001000
00010000
01000000
,
10010000
00010000
00001000
00000100
00000001
00001000
00000100
00000010
,
00001001
00001000
00010000
01000000
10000000
00010000
01000000
00100000
,
10010000
00100000
01000000
00001000
00000001
00000100
00000010
00001000
,
00011000
01000000
10000000
00100000
00010000
00001000
00000010
00000001
,
00000101
00001000
00010000
01000000
10000000
00100000
00010000
00001000
,
00011000
00000010
00000100
00001000
00000001
00000100
00001000
00010000
,
01000000
10000000
00100000
01000000
00010000
00100000
01000000
00001000
,
00001001
00000100
00000010
00001000
00000100
00000001
00000100
00001000
,
00010000
00100000
10000000
00100000
00010000
01000000
10000000
01000000
,
00011000
00100000
00010000
00001000
00011000
00000010
00001000
00010000
,
00000010
00000100
00001000
00010000
00000001
00001000
01100000
00000000
;

//---------------dance-couple - ----------------
#NOTES:
     dance-couple:
     :
     Medium:
     8:
     0.247840,0.413002,0.287306,0.000000,0.000000,157.000000,131.000000,26.000000,0.000000,0.000000,0.000000,0.247840,0.434273,0.287306,0.000000,0.000000,157.000000,131.000000,26.000000,0.000000,0.000000,0.000000:
00000000
00000000
00000000
00000000
,
00000000
00000000
00000000
00000000
,
00000000
00000000
00000000
00000000
,
00000000
00000000
00000000
00000000
,
00000000
00000000
00000000
00000000
,
00001000
00000010
00000100
00000000
10000000
00100000
01000000
00000000
,
00001000
00001000
00001000
00000000
00010000
00010000
00010000
00000000
,
10000000
01000000
11000000
00000000
00000001
00000100
00000101
00000000
,
00100010
10001000
11001100
11001100
00010001
01000100
01010101
00000000
,
00010000
10000000
01000000
00000000
00001000
00000001
00000100
00000000
,
00100010
00010001
01010101
10011001
00100010
10001000
11001100
00000000
,
00100000
00100000
00100000
00000000
00000100
00000100
00000100
00000000
,
00100010
10001000
00010001
01000100
10001000
01000100
00010001
01000100
,
01000100
10001000
01000100
00010001
,
01000100
10001000
01000100
01000100
,
10010000
10000000
01000000
00000000
00001001
00000001
00000100
00000000
,
10001000
10001000
00010001
00010001
01000100
01100110
10011001
10011001
,
01000100
00000000
00010001
00000000
10001000
10001000
01000100
00000000
,
00010000
00010000
10000000
10000000
00000001
00000001
00001000
00001000
,
10010000
00000001
10010000
00000001
01000000
01000001
01000000
00000001
,
11000000
10100001
11000000
10100001
11000000
10100001
11000000
10100001
,
00001001
10000000
00001001
10000000
00000100
10000100
00000100
10000000
,
00001100
10001010
00001100
10001010
00001100
10001010
00001100
10001010
,
10000001
10000000
00100001
00100000
01000001
01000000
00010001
00010000
,
00100001
00100000
01000001
01000000
10000001
10000000
00010001
10010000
,
10001000
00001000
10000010
00000010
10000100
00000100
10000001
00000001
,
10000010
00000010
10000100
00000100
10001000
00001000
10000001
00001001
,
10100000
10100000
01000000
00000000
00000011
00000011
00000100
00000000
,
10000000
10000000
00010000
00010000
00001000
00001000
00000001
00000001
,
10000000
10000000
01000000
00000000
00001000
00001000
00000100
00000000
,
00010001
00010001
10001000
10001000
01000100
00100010
00110011
00000000
,
10000000
00001000
00010000
00000001
,
00100000
00000010
10010000
00001001
;

//---------------dance-solo - ----------------
#NOTES:
     dance-solo:
     :
     Easy:
     5:
     0.202061,0.235231,0.044201,0.000000,0.000000,128.000000,124.000000,4.000000,0.000000,0.000000,0.000000,0.202061,0.235231,0.044201,0.000000,0.000000,128.000000,124.000000,4.000000,0.000000,0.000000,0.000000:
000000
000000
000000
000000
,
000000
000000
000000
000000
,
000000
000000
000000
000000
,
000000
000000
000000
000000
,
000000
000000
000000
000000
,
010000
010000
010000
000000
000100
000000
100000
000000
,
000010
000010
000010
000000
000001
000000
000100
000000
,
100000
100000
000001
000001
,
010000
010000
000010
000010
,
000001
100000
100000
000001
,
000100
000100
001000
001000
,
000010
000010
000010
000010
,
100000
000000
100000
000000
000001
000001
000001
000000
,
100000
000000
000001
000000
100000
100000
100000
000000
,
000100
000100
001000
001000
,
000010
000010
000010
000000
010000
010000
010000
000000
,
000100
000100
000100
000000
001000
001000
001000
000000
,
000000
000000
000000
000000
000000
000000
000001
000001
,
000000
000000
010000
010000
,
000001
000001
100000
100000
,
000100
001000
000001
100000
,
000100
001000
000100
001000
,
000001
001000
000100
100000
,
000100
000100
000100
000000
001000
001000
001000
000000
,
000010
000010
000010
000000
100000
100000
100000
000000
,
000001
000001
000001
000000
010000
010000
010000
000000
,
001000
001000
001000
000000
000001
000001
000001
000000
,
001000
000100
001000
000100
,
100000
000001
000100
001000
,
000010
010000
000001
100000
,
000010
010000
100001
001100
,
010000
010000
000010
000010
,
001000
000100
100001
100001
;

//---------------dance-solo - ----------------
#NOTES:
     dance-solo:
     :
     Medium:
     9:
     0.377286,0.452368,0.541460,0.000000,0.000000,239.000000,190.000000,49.000000,0.000000,0.000000,0.000000,0.377286,0.452368,0.541460,0.000000,0.000000,239.000000,190.000000,49.000000,0.000000,0.000000,0.000000:
000000
000000
000000
000000
,
000000
000000
000000
000000
,
000000
000000
000000
000000
,
000000
000000
000000
000000
,
000000
000000
000000
000000
100010
100010
100010
000000
,
000001
001000
000100
100000
000010
000010
100000
000000
,
000001
000001
000001
000000
100000
100000
100000
000000
,
000010
000000
001010
001010
010000
000000
011000
011000
,
000000
000001
001000
000100
000000
100000
000001
100000
,
000010
000000
100010
100010
010001
000000
010001
010001
,
000000
000100
100000
000010
000000
001000
000001
010000
,
000000
000100
000000
000100
000000
000100
000100
000100
,
010000
000001
010000
000001
100000
000010
100000
000010
,
001000
000001
001000
000001
100000
000100
100000
000100
,
001000
000010
001000
000010
010000
001000
010000
001000
,
100000
110000
000100
010100
000010
010010
000001
000101
,
100000
001000
100000
001000
000100
000001
000100
000001
,
010000
001000
010000
001000
000010
001000
000010
001000
,
100000
100000
000001
000001
001000
001000
100001
100001
,
100000
100000
000001
000001
,
110000
100100
110000
100100
110000
100100
110000
100100
,
001000
001000
000100
001000
,
000101
000011
000101
000011
000101
000011
000101
000011
,
100000
001000
100000
001000
010000
001000
010000
001000
,
000100
000001
000100
000001
010000
000001
010000
000001
,
100000
000010
100000
000010
001000
000010
001000
000010
,
100000
110000
010000
010100
001000
001100
000010
100010
,
100000
000000
001001
001001
000001
000000
101000
101000
,
000000
000100
001000
000100
000000
100000
000001
100000
,
000100
000000
010100
010100
000001
000000
010001
010001
,
000000
000100
100000
000001
000000
001000
000001
100000
,
100000
100000
000001
000001
,
001000
000000
000100
000000
100010
010001
100010
000000
;

//---------------dance-solo - ----------------
#NOTES:
     dance-solo:
     :
     Hard:
     12:
     0.503574,0.579031,0.740364,0.000000,0.232054,319.000000,252.000000,67.000000,0.000000,0.000000,0.000000,0.503574,0.579031,0.740364,0.000000,0.232054,319.000000,252.000000,67.000000,0.000000,0.000000,0.000000:
000000
000000
000000
000000
,
000000
000000
000000
000000
,
000000
000000
000000
000000
,
000000
000000
000000
000000
,
000000
000000
000000
000000
000000
000000
010100
011000
,
001000
001000
000010
000010
001010
001001
100100
100100
,
000000
001000
001000
001000
000010
000010
100010
010010
,
010000
010001
000010
100010
010000
010001
000010
100010
,
001000
001001
000100
100100
001000
001001
000100
100100
,
010000
010100
000010
000110
010000
010100
000010
000110
,
001000
001010
001000
011000
001000
001010
001000
011000
,
000000
000001
000000
100000
000000
000001
000001
000001
,
001000
001100
100000
100001
000100
001100
000001
100001
,
000000
010000
000001
100000
100000
000010
001000
001000
,
000000
100000
000000
000001
000000
100010
010001
100010
,
100000
100100
100000
110000
100000
100100
100000
110000
,
000001
000011
000001
000101
000001
000011
000001
000101
,
001000
000100
001000
000100
001000
000100
001000
000100
001000
000100
001000
000100
001000
000100
001000
000100
,
100000
000010
100000
000010
100000
000010
100000
000010
001000
000000
001000
000000
010001
000000
010001
000000
,
010000
010000
000001
000001
010000
010000
000100
000100
,
001000
001000
001000
001000
001000
000000
001000
000000
000100
000100
000100
000100
000100
000000
000100
000000
,
100000
000010
010000
000001
001000
000100
100000
000001
,
001000
001000
001000
001000
001000
000000
001000
000000
000100
000100
000100
000100
000100
000000
000100
000000
,
001010
000000
011000
000000
001010
000000
000000
000000
100000
000001
100000
000001
100000
000001
100000
000001
,
000100
000010
000100
000010
000100
010000
000100
010000
000100
000010
000100
000010
000100
000000
001100
000000
,
100001
000000
001100
000000
100001
000000
000000
000000
000100
001000
000100
001000
000100
001000
000100
001000
,
000001
010000
000001
010000
001000
100000
001000
100000
000010
001000
000010
001000
000001
000000
100001
000000
,
000100
010100
000100
000110
001000
011000
001000
001010
,
100000
100010
000001
010001
001000
001100
000100
001100
,
100000
100100
000001
000101
100000
100100
000001
000101
,
001000
011000
000100
000110
001000
101000
000100
000101
,
100000
100000
000001
000001
,
010000
000000
000001
000000
001000
000100
000000
001000
000001
000000
100001
000000
100001
000000
000000
000000
;

//---------------dance-single - old scale 9----------------
#NOTES:
     dance-single:
     :
     Challenge:
     13:
     0.612497,0.633315,0.497260,0.110502,0.762465,388.000000,343.000000,45.000000,10.000000,0.000000,0.000000,0.612497,0.633315,0.497260,0.110502,0.762465,388.000000,343.000000,45.000000,10.000000,0.000000,0.000000:
0000
0000
0000
0000
,
0000
0000
0000
0000
,
0000
0000
0000
0000
,
0000
0000
0000
0000
,
0000
0000
0000
0000
,
1001
0000
0110
0000
1000
0100
0010
0001
0100
0010
1000
0000
1100
0000
0000
0000
,
0001
0001
0001
1000
0100
1000
0000
0010
0100
0000
0100
0000
0110
0000
1001
0000
,
1000
0100
1000
0100
0020
0001
0031
0000
0001
0100
0001
0100
0020
1000
1030
0000
,
1000
0010
0110
0000
0100
0001
0100
0001
1000
0100
0100
0000
1010
0000
0000
0000
,
0011
0000
0001
0100
1000
0000
0000
0000
0011
0000
0001
0100
1000
0000
0000
0000
,
0011
0000
0001
0100
1000
0000
0001
0100
0010
0000
1000
0100
0010
0001
0100
0000
,
0110
0000
1010
0000
1100
0000
0101
0000
0010
0010
0010
0000
0011
0000
1001
0000
,
0000
1000
0100
0010
0001
0010
0100
1000
0000
0001
0010
0100
1000
0100
0010
0001
,
0100
0010
1000
0000
1001
0000
0100
0001
1000
0000
1100
0000
0101
0000
0000
0000
,
0010
0010
0000
1000
0001
0100
0010
1000
0100
0100
0010
0000
0011
0000
0000
0000
,
0001
0100
1000
0100
0001
0010
0100
1000
0010
0000
1100
0000
1001
0100
0010
1000
,
0001
0010
0001
0010
0100
1000
0100
1000
0010
0100
0010
0100
0001
1000
0001
0000
,
1000
0100
0010
0001
1000
0010
0100
0001
0100
0010
1000
0001
0010
0100
1000
0001
,
0100
0001
0100
0010
1000
0100
0010
0001
0100
0100
0100
0000
0010
0010
0010
0000
,
1001
0000
0110
0000
1000
0010
0001
0000
0200
0010
0010
0310
2000
0001
3001
0000
,
1100
0000
0000
0000
1100
0000
0000
0000
1100
0000
0000
0000
0101
0000
0000
0000
0101
0000
0000
0000
0101
0000
0000
0000
0110
0000
0000
0000
0000
0000
1001
0000
0000
0000
0000
0000
1000
0000
0000
0010
0000
0000
0000
0000
0000
0010
0000
0000
,
0110
0000
1001
0000
0100
0001
1000
0000
0020
1000
1000
1030
0002
0100
0103
0000
,
0010
0000
0100
0000
0010
0000
1000
0100
0001
0100
1000
0000
1010
0000
0101
0000
,
1001
0000
0110
0000
1000
0001
0100
0010
1000
0100
0001
0000
0101
0000
0000
0000
,
0010
0010
0010
1000
0001
1000
0000
0100
1000
0010
0100
0010
0001
0010
0100
0000
,
1100
0000
0101
0000
1000
0010
0100
0001
0010
0001
1000
0000
1100
0000
0000
0000
,
0010
0010
0010
0100
0001
0100
0000
0010
1000
0100
0001
0100
0010
0100
1000
0000
,
0001
0010
0001
0010
0200
1000
1300
0000
1000
0010
1000
0010
0200
0001
0301
0000
,
0010
0001
0100
0001
1000
1000
0100
0010
0001
1000
1000
0010
0100
0001
1000
0000
,
0001
1000
0001
1000
0020
0100
0130
0000
1000
0001
1000
0001
0200
0010
0310
0000
,
1000
0100
0010
0001
0100
0010
1000
0000
0001
0100
0010
0000
1010
0000
1001
0000
,
0001
0100
0001
0100
0010
0100
0010
0100
0010
1000
0010
1000
0001
1000
0001
1000
,
0010
0100
0001
1000
0100
0100
0000
1000
0001
0010
0010
0000
1001
0000
0000
0000
;

//---------------dance-solo - ----------------
#NOTES:
     dance-solo:
     :
     Challenge:
     13:
     0.633019,0.633315,0.519360,0.154703,0.795615,401.000000,354.000000,47.000000,14.000000,0.000000,0.000000,0.633019,0.633315,0.519360,0.154703,0.795615,401.000000,354.000000,47.000000,14.000000,0.000000,0.000000:
000000
000000
000000
000000
,
000000
000000
000000
000000
,
000000
000000
000000
000000
,
000000
000000
000000
000000
,
000000
000000
000000
000000
,
110000
000000
000011
000000
100000
000100
010000
001000
100000
000001
000010
000000
001001
000000
000000
000000
,
100000
100000
100000
000100
001000
000010
000000
010000
000001
000010
000001
001000
000100
100000
000010
000000
,
100000
001000
100000
001000
020000
000001
030001
000000
000010
000100
000010
000100
000002
010000
010003
000000
,
000100
100000
000100
100000
000001
001000
000001
001000
000010
000010
000010
000000
011000
000000
000000
000000
,
000101
000000
000001
100000
002000
010000
013000
000000
101000
000000
010000
000010
002000
000100
003100
000000
,
100100
000000
010010
000000
101000
000000
000110
000000
000001
000001
000001
100000
001000
010000
000010
000000
,
010010
000000
001100
000000
100001
000000
001100
000000
010000
010000
010000
000000
011000
000000
000110
000000
,
100000
000001
000010
000001
001000
000100
010000
000100
000000
100000
001000
010000
001000
100000
000010
000100
,
000001
000001
000001
000000
010010
000000
001000
000100
100000
000000
110000
000000
001010
000000
000000
000000
,
000100
100001
000000
000001
100000
100000
100000
000100
001000
001000
001010
000000
010100
000000
000000
000000
,
000001
000010
000100
000010
000001
001000
000100
001000
000020
000000
020030
000000
031000
100000
000100
010000
,
000010
000100
000010
000100
000001
010000
001000
010000
000100
100000
001000
100000
000010
100000
000010
000000
,
100000
010000
001000
000100
000010
000001
000010
000100
001000
010000
100000
010000
001000
000100
000010
000001
,
100000
001000
000100
000001
100000
001000
000100
000001
010000
010000
010000
000000
000010
000010
000010
000000
,
101000
000000
001001
000000
011000
000000
001010
000000
200000
010000
010000
310000
200000
000010
300010
000000
,
100001
000000
000000
000000
001010
000000
000000
000000
010100
000000
000000
000000
100010
000000
000000
000000
011000
000000
000000
000000
000011
000000
000000
000000
100000
000000
000000
000001
000000
000000
001000
000000
000000
000000
000000
000000
000100
000000
000000
000100
000000
000000
000000
000000
000000
100000
000000
000000
,
100100
000000
000101
000000
010100
000000
000110
000000
002000
000010
000010
003010
002000
000001
003001
000000
,
100000
000000
100100
000000
001001
000000
100000
000010
001000
000010
100000
000000
011000
000000
000110
000000
,
100001
000000
001100
000000
100000
000100
100000
000010
000100
001000
100000
000000
011000
000000
000000
000000
,
000001
000001
000001
000100
000010
001000
000100
100000
001000
010000
001000
100000
000010
000100
000001
000000
,
010001
000000
001100
000000
000010
100000
010000
000100
100000
000001
001000
000000
010010
000000
000000
000000
,
000100
000100
000100
100000
001000
100000
000001
000100
000010
010000
000010
000100
000010
010000
001000
000000
,
100000
000100
100000
000001
020000
001000
031000
000000
000010
100000
000010
001000
000002
000100
000103
000000
,
000010
010000
001000
100000
000001
010000
000100
001000
000010
000010
000010
100000
000100
001000
001000
000000
,
000001
100000
000010
000100
000002
001000
001003
000000
010000
000100
100000
000010
002000
000100
003100
000000
,
100000
000100
100000
000001
000100
000010
001000
000000
000001
000001
000001
010000
001000
100000
000001
000000
,
010000
000010
010000
000010
001000
000100
001000
000100
100000
000001
100000
000001
001000
000100
001000
000100
,
100000
000100
001000
000001
010000
000010
000000
000100
001000
000010
010000
000000
001001
000000
000000
000000
;

//---------------dance-solo - ----------------
#NOTES:
     dance-solo:
     :
     Beginner:
     3:
     0.129445,0.180947,0.055251,0.033151,0.000000,82.000000,77.000000,5.000000,3.000000,0.000000,0.000000,0.129445,0.180947,0.055251,0.033151,0.000000,82.000000,77.000000,5.000000,3.000000,0.000000,0.000000:
// measure 0
000000
000000
000000
000000
,  // measure 1
000000
000000
000000
000000
,  // measure 2
000000
000000
000000
000000
,  // measure 3
000000
000000
000000
000000
,  // measure 4
000000
000000
000000
000000
,  // measure 5
010000
010000
010000
000000
,  // measure 6
000010
000010
000010
000000
,  // measure 7
001000
000000
001000
000000
,  // measure 8
000010
000010
000010
000000
,  // measure 9
010000
000000
000010
000000
,  // measure 10
001000
001000
001000
000000
,  // measure 11
000010
000010
010000
010000
,  // measure 12
000000
001000
000000
001000
,  // measure 13
020000
000000
000000
030000
,  // measure 14
000020
000030
002000
003000
,  // measure 15
000010
010000
001000
000000
,  // measure 16
010000
010000
010000
000000
,  // measure 17
000010
000000
000010
000000
,  // measure 18
010000
000000
001000
001000
,  // measure 19
010000
000010
010000
010000
,  // measure 20
011000
000000
001010
000000
,  // measure 21
000010
010000
000010
000010
,  // measure 22
001010
000000
011000
000000
,  // measure 23
010000
010000
010000
000000
,  // measure 24
001000
001000
010000
000000
,  // measure 25
000010
000010
000010
000000
,  // measure 26
001000
001000
000010
000000
,  // measure 27
010000
000010
010000
000000
,  // measure 28
001000
001000
010000
000000
,  // measure 29
000010
000010
010000
000000
,  // measure 30
001000
010000
000010
000000
,  // measure 31
001000
000000
001000
000000
,  // measure 32
000010
000000
010000
010010
;
