#TITLE:JUST BELIEVE;
#SUBTITLE:;
#ARTIST:Lea Drop feat. Marissa Ship;
#TITLETRANSLIT:;
#SUBTITLETRANSLIT:;
#ARTISTTRANSLIT:;
#GENRE:;
#CREDIT:;
#BANNER:JUST BELIEVE-bn.png;
#BACKGROUND:JUST BELIEVE-bg.png;
#LYRICSPATH:;
#CDTITLE:;
#MUSIC:JUST BELIEVE.ogg;
#OFFSET:0.000000;
#SAMPLESTART:37.467999;
#SAMPLELENGTH:20.000000;
#SELECTABLE:YES;
#DISPLAYBPM:160.000000;
#BPMS:0.000000=160.000000
;
#STOPS:
;
#BGCHANGES:0.000=JUST BELIEVE.avi=1.000=0=0=0=StretchNoLoop====,
99999=-nosongbg-=1.000=0=0=0 // don't automatically add -songbackground-
;
#KEYSOUNDS:;
#ATTACKS:;

//---------------dance-single - ----------------
#NOTES:
     dance-single:
     :
     Beginner:
     2:
     0.115960,0.152787,0.000000,0.000000,0.000000,86.000000,86.000000,0.000000,0.000000,0.000000,0.000000,0.115960,0.152787,0.000000,0.000000,0.000000,86.000000,86.000000,0.000000,0.000000,0.000000,0.000000:
0000
0000
0000
0000
,
0000
0000
0000
0000
,
0000
0000
0000
0000
,
0000
0000
0000
0000
,
0000
0000
0000
0000
,
0100
0000
0000
0000
,
0010
0000
0000
0000
,
0100
0000
0000
0000
,
0001
0000
1000
0000
,
1000
0000
0000
0000
,
0000
0000
0001
0000
,
0001
0000
0000
0000
,
1000
0000
1000
0000
,
1000
0000
0000
0000
,
0000
0000
0001
0000
,
0001
0000
0000
0000
,
0100
0000
0100
0000
,
0001
0000
0000
0000
,
0100
0000
0100
0000
,
1000
0000
0000
0000
,
0100
0000
0100
0000
,
0001
0000
0000
0000
,
0100
0000
0100
0000
,
1000
0000
0000
0000
,
0100
0000
0000
0000
,
1000
0000
0100
0000
,
0010
0000
0010
0010
,
0000
0000
0001
0000
,
0000
0000
1000
0000
,
1000
0000
0100
0000
,
0010
0000
0010
0010
,
0000
0000
1000
0000
,
0000
0000
0001
0000
,
1000
0000
0100
0000
,
0010
0000
0010
0010
,
0000
0000
0001
0000
,
0000
0000
1000
0000
,
1000
0000
0100
0000
,
0010
0000
0010
0010
,
0000
0000
1000
0000
,
0000
0000
0001
0000
,
0000
0000
0000
0000
,
0000
0000
0000
0000
,
0000
0000
0000
0000
,
0100
0000
0001
0000
,
0000
0000
0000
0000
,
0000
0000
0000
0000
,
1000
0000
0000
0000
,
0100
0000
0000
0000
,
1000
0000
0010
0000
,
0100
0000
0100
0100
,
0000
0000
0001
0000
,
0000
0000
1000
0000
,
0001
0000
0010
0000
,
0100
0000
0100
0100
,
0000
0000
1000
0000
,
0000
0000
0001
0000
,
1000
0000
0100
0000
,
0010
0000
0010
0010
,
0000
0000
1000
0000
,
0000
0000
0001
0000
,
0001
0000
0010
0000
,
0100
0000
0100
0100
,
0000
0000
1000
0000
,
0000
0000
0000
0001
;

//---------------dance-single - ----------------
#NOTES:
     dance-single:
     :
     Easy:
     4:
     0.171243,0.213902,0.028316,0.000000,0.000000,127.000000,124.000000,3.000000,0.000000,0.000000,0.000000,0.171243,0.213902,0.028316,0.000000,0.000000,127.000000,124.000000,3.000000,0.000000,0.000000,0.000000:
0000
0000
0000
0000
,
0000
0000
0000
0000
,
0000
0000
0000
0000
,
0000
0000
0000
0000
,
0000
0000
0000
0000
,
0010
0000
0000
0000
,
0100
0000
0010
0000
,
0010
0000
0000
0000
,
1000
1000
0001
0001
,
1001
0000
0000
0000
,
0000
0000
0000
0000
,
0100
0001
0000
0000
,
0010
0000
0001
0000
,
1001
0000
0000
0000
,
0000
0000
0000
0000
,
0100
0001
0000
0000
,
0010
0000
0001
0000
,
1000
0000
0010
0000
,
0001
0000
0010
0100
,
0001
0000
1000
0000
,
0010
1000
0000
0001
,
1000
0000
0010
0000
,
0001
0000
0010
0100
,
0001
0000
1000
0000
,
0010
0000
0000
0000
,
0001
0001
0010
0000
,
0010
1000
1000
0000
,
0010
0000
1000
0000
,
0100
0000
0001
0000
,
0001
0001
0010
0000
,
0010
1000
1000
0000
,
0010
0000
0001
0000
,
0100
0000
1000
0000
,
0001
1000
0010
0000
,
0010
1000
0001
0000
,
0010
0000
1000
0000
,
0100
0000
0001
0000
,
0001
1000
0010
0000
,
0010
1000
0001
0000
,
0010
0000
0001
0000
,
0100
0000
1000
0000
,
1000
0000
0000
0000
,
1000
0000
0000
0000
,
1000
0000
0000
0000
,
0001
0000
0000
0000
,
1000
0000
0000
0000
,
1000
0000
0000
0000
,
0001
0000
0000
0000
,
0110
0000
0000
0000
,
0001
1000
0010
0000
,
0010
1000
0001
0000
,
0010
0000
0010
0000
,
0100
0000
0100
0000
,
0001
1000
0010
0000
,
0010
1000
0001
0000
,
0010
0000
0100
0000
,
0100
0000
0010
0000
,
0000
0001
0100
0010
,
0000
0001
1000
0010
,
0010
0000
1000
0000
,
0100
0000
0001
0000
,
0001
1000
0010
0000
,
0010
1000
0001
0000
,
0010
0000
1000
0000
,
0100
0000
0000
0010
;

//---------------dance-single - ----------------
#NOTES:
     dance-single:
     :
     Medium:
     8:
     0.372150,0.459247,0.037754,0.009439,0.000000,276.000000,272.000000,4.000000,1.000000,0.000000,0.000000,0.372150,0.459247,0.037754,0.009439,0.000000,276.000000,272.000000,4.000000,1.000000,0.000000,0.000000:
0000
0000
0000
0000
,
0000
0000
0000
0000
,
0000
0000
0000
0000
,
0000
0000
0000
0000
,
0000
0000
0000
0000
,
0010
0100
0000
0100
0000
0100
0000
0000
,
0010
0100
0000
0100
0000
0100
0000
0000
,
0010
0100
0001
1000
,
1000
0100
0010
0001
,
1000
0100
1000
0001
,
0010
0000
0001
0000
1000
0100
0000
0100
,
1001
0000
0000
0000
0000
1000
0000
0000
,
1000
1000
1000
1000
,
1000
0100
1000
0001
,
0010
0000
0001
0000
1000
0100
0000
0100
,
1001
0000
0000
0000
0000
0001
0000
0000
,
0001
0001
0001
0001
,
1000
0100
0000
0100
0000
0001
1000
0001
,
0000
1000
0100
0010
0000
0000
0001
0000
,
0000
0100
0001
1000
0000
0010
0100
0010
,
0000
1000
0001
0100
0000
0000
0010
0000
,
1000
0100
0000
0100
0000
0001
1000
0001
,
0000
1000
0010
0100
0000
0000
0001
0000
,
0100
0000
0001
0000
1000
0100
0100
0020
,
0000
0100
0100
0130
,
0001
0000
1000
0000
0010
1000
0001
0000
,
0100
0010
1000
0000
0001
1000
0100
0000
,
0010
0001
0100
0000
1000
0100
1000
0000
,
0100
0000
0001
0000
1000
0100
0100
0000
,
0001
0000
1000
0000
0010
1000
0001
0000
,
0100
0010
1000
0000
0001
1000
0100
0000
,
0100
0000
1000
0000
0010
0000
1000
0010
,
1000
0000
0001
0100
0010
0000
1000
0000
,
0001
0000
1000
0000
0010
1000
0001
0000
,
0100
0010
1000
0000
0001
1000
0100
0000
,
0010
0001
0100
0000
1000
0100
1000
0000
,
0100
0000
0001
0000
1000
0100
0100
0000
,
0001
0000
1000
0000
0010
1000
0001
0000
,
0100
0010
1000
0000
0001
1000
0100
0000
,
0100
0000
1000
0000
0010
0000
0001
0010
,
0000
1000
0001
0000
0100
0000
0010
0000
,
1000
0000
0000
0010
,
1000
0000
0000
0010
,
1000
0000
0000
0010
,
1000
0001
0100
0010
,
1000
0000
0000
0010
,
1000
0000
0000
0001
,
1001
0000
0000
0000
,
0101
0000
0000
0000
,
0001
0000
1000
0000
0010
1000
0001
0000
,
0100
0010
1000
0000
0001
1000
0100
0000
,
0100
1000
0010
0000
0010
0001
0010
0000
,
1000
0001
0100
0000
0010
0000
0100
0000
,
0001
0000
1000
0000
0010
1000
0001
0000
,
0100
0010
1000
0000
0001
1000
0100
0000
,
0010
0001
0100
0000
1000
0000
1000
0100
,
1000
0000
0001
1000
,
0000
0000
0001
1000
0010
0100
0001
0100
,
0010
1000
0001
0000
0010
1000
0100
0000
,
0010
0001
0100
0000
1000
0100
1000
0000
,
0100
0000
0001
0000
1000
0100
0100
0000
,
0001
0000
1000
0000
0010
1000
0001
0000
,
0100
0010
1000
0000
0001
1000
0100
0000
,
0010
0000
0001
0000
0100
0000
0001
0100
,
0000
0001
1000
0000
0010
0000
0100
0001
;

//---------------dance-single - ----------------
#NOTES:
     dance-single:
     :
     Hard:
     11:
     0.539348,0.581712,0.434175,0.311474,0.047193,400.000000,354.000000,46.000000,33.000000,0.000000,0.000000,0.539348,0.581712,0.434175,0.311474,0.047193,400.000000,354.000000,46.000000,33.000000,0.000000,0.000000:
// measure 0
0000
0000
0000
0000
,  // measure 1
0000
0000
0000
0000
,  // measure 2
0000
0000
0000
0000
,  // measure 3
0000
0000
0000
0000
,  // measure 4
0000
0000
0000
0000
,  // measure 5
1000
1100
0000
0100
0000
0010
0001
1000
,  // measure 6
0001
0101
0000
0100
0000
0010
1000
0001
,  // measure 7
1000
0000
0100
0010
0000
0010
0100
1000
,  // measure 8
1100
0000
0100
0010
0011
0000
1100
0000
,  // measure 9
1000
0001
0100
0000
0001
1000
0010
1000
,  // measure 10
0001
0000
1000
0100
1000
0000
0010
0001
,  // measure 11
1000
0000
0001
0010
1000
0000
0010
0000
,  // measure 12
0011
0011
1100
0101
,  // measure 13
0001
1000
0010
0000
1000
0001
0100
0001
,  // measure 14
1000
0000
0001
0010
0001
0000
0100
1000
,  // measure 15
0001
0000
1000
0100
0001
0000
0100
0000
,  // measure 16
1100
1100
0101
1100
,  // measure 17
0000
0100
1000
0001
0000
1000
0001
0100
,  // measure 18
0000
0010
1000
0100
0000
0100
0001
0100
,  // measure 19
0000
1000
0100
1000
0000
0001
0010
0001
,  // measure 20
0010
0100
1000
0100
0000
1000
0100
0010
,  // measure 21
0000
0010
0100
0001
0000
0100
0010
1000
,  // measure 22
0000
0010
0001
0100
0000
0100
0010
1000
,  // measure 23
0000
1000
0100
1000
0010
0100
0001
0000
,  // measure 24
1000
0100
0010
0001
0000
1000
0001
0000
,  // measure 25
0100
1100
0000
0110
0000
0001
0010
0001
,  // measure 26
1000
0000
0001
0110
1000
0000
0110
0000
,  // measure 27
1000
0100
0010
0100
1000
0100
0010
0000
,  // measure 28
0001
0010
0100
0010
0001
0010
0100
0000
,  // measure 29
0010
0011
0000
0110
0000
1000
0100
1000
,  // measure 30
0001
0000
1000
0110
0001
0000
0110
0000
,  // measure 31
1000
1100
0001
0011
,  // measure 32
1000
0100
1000
0000
0001
0100
0001
0000
,  // measure 33
1000
0100
0200
0000
0320
1000
1030
0000
,  // measure 34
0002
0000
0203
0010
0300
0010
0010
0000
,  // measure 35
1000
0100
0010
0001
0010
0100
0010
0000
,  // measure 36
0001
0010
0100
1000
0100
0010
0100
0000
,  // measure 37
0001
0010
0020
0000
0230
0001
0301
0000
,  // measure 38
2000
0000
3020
0100
0030
0100
0100
0000
,  // measure 39
0001
0011
1000
1100
,  // measure 40
0001
0100
0001
0000
1000
0100
1100
0000
,  // measure 41
2000
0000
0000
0001
3000
0000
0100
0000
2000
0000
0000
0010
3000
0000
0001
0000
,  // measure 42
0200
0000
0000
1000
0300
0000
0100
0000
0002
0000
0000
0010
0003
0000
0100
0000
,  // measure 43
0002
0000
0000
1000
0003
0000
0010
0000
2000
0000
0000
0100
3000
0000
0010
0000
,  // measure 44
0001
0000
1000
0000
0010
0100
1000
0100
,  // measure 45
0020
0000
0000
1000
0030
0000
0001
0000
0200
0000
0000
1000
0300
0000
0010
0000
,  // measure 46
2000
0000
0000
0001
3000
0000
0010
0000
2000
0000
0000
0100
3000
0000
0010
0000
,  // measure 47
1001
0000
0000
0000
0010
0100
0010
0000
,  // measure 48
0000
0100
0000
0100
0000
1000
0001
1000
,  // measure 49
0011
0011
1100
1100
,  // measure 50
2000
0200
3000
1300
0100
1000
1100
0000
,  // measure 51
0002
0200
0003
0301
0100
0001
0101
0000
,  // measure 52
0002
0020
0003
0031
0010
0001
0011
0000
,  // measure 53
0011
0011
1100
1100
,  // measure 54
2000
0200
3000
0310
0002
0010
0013
0000
,  // measure 55
1000
0100
1000
0001
1000
0100
0010
0001
,  // measure 56
1001
0000
0110
0000
1000
0001
1000
0100
,  // measure 57
1000
0000
1000
0000
1000
0100
1000
0010
,  // measure 58
0100
0001
0010
0001
1000
0100
1000
0000
,  // measure 59
0001
0100
0010
0001
0010
0100
1000
0001
,  // measure 60
0100
0010
0100
1000
0001
0010
0100
1000
,  // measure 61
2000
0100
3020
0000
2030
0100
3100
0000
,  // measure 62
0002
1000
0203
0010
2300
0001
3001
0000
,  // measure 63
1100
0000
0011
0000
1100
0000
0011
0010
,  // measure 64
0100
1000
0001
1000
0001
0010
0110
1001
;

//---------------dance-single - ----------------
#NOTES:
     dance-single:
     :
     Challenge:
     13:
     0.629689,0.630026,0.443614,0.434175,0.198210,467.000000,420.000000,47.000000,46.000000,0.000000,0.000000,0.629689,0.630026,0.443614,0.434175,0.198210,467.000000,420.000000,47.000000,46.000000,0.000000,0.000000:
0000
0000
0000
0000
,
0000
0000
0000
0000
,
0000
0000
0000
0000
,
0000
0000
0000
0000
,
0000
0000
0000
0000
,
0010
0000
1000
0001
1000
0000
0000
0000
0000
0000
0001
0000
0010
0000
0100
0000
,
1000
0000
0010
0100
0010
0000
0000
0000
0000
0000
1000
0100
1000
0000
0000
0000
,
0001
0000
1000
0010
1000
0000
0000
0000
0001
0000
0010
0000
0100
0000
1000
0000
,
1100
0101
0011
1010
,
1001
0000
0100
0000
0010
0000
1000
0000
0000
0000
0001
0010
0001
0000
1000
0000
,
0010
0000
0100
0000
0010
0000
1000
0000
0000
0000
0001
0100
0001
0000
1000
0000
,
0001
0000
1000
0000
0100
0000
0010
0000
0000
0000
0100
1000
0100
0000
0010
0000
,
0001
0100
0010
1000
0100
0010
0001
0000
,
0110
0000
0100
0000
1000
0000
0010
0000
0000
0000
1000
0001
1000
0000
0010
0000
,
0100
0000
0010
0000
1000
0000
0001
0000
0000
0000
0010
0100
0010
0000
0001
0000
,
1000
0000
0010
0000
0100
0000
0001
0000
0000
0000
0100
0001
0100
0000
0010
0000
,
1000
0010
0100
0001
0010
0100
1000
0000
,
0010
0000
1000
0100
1000
0000
0001
0000
0100
0000
0100
0000
0010
0000
0010
0000
,
1000
1000
0001
0100
0110
0110
0110
0000
,
0010
1000
1000
0100
0010
0001
0100
0001
,
0010
0010
0001
1000
1001
1001
1001
0000
,
0010
0100
0100
0100
0001
0001
1000
1000
,
0010
0010
0100
0001
0011
0011
0011
0000
,
1000
0010
0100
0001
0010
0100
1000
0001
,
0100
0000
0000
0001
1000
0000
0000
0000
1100
0000
0000
0000
0101
0000
0000
0000
,
1001
0000
0000
1000
0100
0000
0000
0100
0010
0000
0001
0000
0100
0000
0000
0000
,
1000
0000
0001
0010
0001
0000
0011
0000
0000
0000
2100
0000
3010
0000
0000
0000
,
1001
0010
0100
0002
0000
1000
1003
0100
,
0110
0100
1000
0020
0000
0100
0130
0000
,
0110
0000
0000
0010
1000
0000
0000
1000
0001
0000
0100
0000
0010
0000
0000
0000
,
1000
0000
0010
0100
0010
0000
1010
0000
0000
0000
0102
0000
0013
0000
0000
0000
,
1001
1000
0100
0010
0001
0100
0010
1000
,
0100
0010
0001
0000
0011
0000
1010
0000
,
1001
0000
0000
0010
1000
0000
0000
1000
0001
0000
0010
0000
0100
0000
1000
0000
,
0010
1000
0100
0010
0100
1000
0001
0000
,
0101
0100
0010
2000
0000
0001
3001
0100
,
0110
0010
1000
0002
0000
0100
0103
0000
,
1001
0000
0000
0100
0010
0000
0000
0010
1000
0000
0001
0000
0100
0000
0000
0000
,
0001
0000
0100
0010
0100
0000
0001
0000
1000
0000
1020
0000
0130
0000
0000
0000
,
0110
0010
0100
0001
0010
0100
1000
0001
,
0100
0010
0100
0000
1001
0000
1000
0001
,
0020
0000
0000
0032
0000
0000
0203
0000
0320
0000
0000
2030
0000
0000
3002
0000
,
2003
0000
0000
3200
0000
0000
0320
0000
0032
0000
0000
0203
0000
0000
0320
0000
,
2030
0000
0000
3002
0000
0000
2003
0000
3002
0000
0000
0023
0000
0000
0230
0000
,
1300
0010
1000
0100
0010
0001
0100
0000
,
0002
0000
0000
0203
0000
0000
0320
0000
2030
0000
0000
3200
0000
0000
0320
0000
,
0230
0000
0000
2300
0000
0000
3020
0000
0230
0000
0000
0302
0000
0000
2003
0000
,
3002
0000
0103
0000
0001
1000
0100
0000
,
0010
0001
0100
0010
1000
0001
0100
0000
,
1001
0000
0000
0001
0010
0000
0000
0100
1000
0000
0010
0000
0100
0000
0000
0000
,
0001
0000
1000
0100
1000
0000
0001
0000
0010
0000
0100
0000
1000
0000
0000
0000
,
0010
1000
0100
0020
0000
0001
0031
1000
,
0010
0100
0001
2000
0000
0100
3100
0000
,
1100
0000
0000
0100
0010
0000
0000
0001
1000
0000
0010
0000
1000
0000
0000
0000
,
0010
0000
1000
0001
1000
0000
0100
0000
0010
0000
0001
0000
0100
0000
0000
0000
,
0001
0010
0100
1000
0010
0100
0001
1000
,
0100
0010
0100
0000
0110
0110
0110
0000
,
1000
0000
1001
0010
0100
0001
0010
0100
,
1000
0010
1000
0001
0010
0100
1000
0000
,
0011
0010
0001
2000
0000
0010
3010
0100
,
0110
0001
1000
0200
0000
0010
0310
0000
,
0011
0000
0000
0010
0100
0000
0000
1000
0001
0000
0100
0000
0010
0000
0000
0000
,
1000
0000
0001
0010
0001
0000
1000
0000
0000
0000
1200
0000
1300
0000
0000
0000
,
0001
0001
0010
0100
1000
0010
1000
0002
,
0100
0100
0103
0000
1001
0000
0010
0100
,
2002
0000
0000
0000
,
0000
0000
0000
3003
;
