#VERSION:0.83;
#TITLE:JOMANDA (Zekk Remix);
#SUBTITLE:;
#ARTIST:DJ YOSHITAKA;
#TITLETRANSLIT:;
#SUBTITLETRANSLIT:;
#ARTISTTRANSLIT:;
#GENRE:;
#ORIGIN:;
#CREDIT:;
#BANNER:JOMANDA (Zekk Remix)-bn.png;
#BACKGROUND:JOMANDA (Zekk Remix)-bg.png;
#PREVIEWVID:;
#JACKET:JOMANDA (Zekk Remix)-jacket.png;
#CDIMAGE:;
#DISCIMAGE:;
#LYRICSPATH:;
#CDTITLE:;
#MUSIC:JOMANDA (Zekk Remix).ogg;
#OFFSET:0.335000;
#SAMPLESTART:55.380001;
#SAMPLELENGTH:20.000000;
#SELECTABLE:YES;
#DISPLAYBPM:105.000000:500.000000;
#BPMS:0.000=210.000,
69.500=105.000,
86.000=210.000,
126.000=120.000,
130.000=130.000,
132.000=140.000,
134.000=150.000,
136.000=160.000,
138.000=170.000,
140.000=190.000,
142.000=210.000,
143.000=225.000,
145.000=235.000,
146.000=245.000,
147.000=260.000,
149.000=270.000,
150.000=300.000,
152.000=320.000,
154.000=340.000,
156.000=360.000,
158.000=500.000,
195.000=420.000,
196.000=210.000,
263.000=420.000,
264.000=210.000,
296.000=105.000,
306.000=210.000,
322.000=420.000,
323.000=210.000,
353.000=420.000,
354.000=210.000,
386.000=420.000,
387.000=210.000;
#STOPS:69.500=0.429,
195.000=0.143,
263.000=0.143,
322.000=0.143,
353.000=0.143,
386.000=0.143;
#DELAYS:;
#WARPS:;
#TIMESIGNATURES:0.000=4=4;
#TICKCOUNTS:0.000=4;
#COMBOS:0.000=1;
#SPEEDS:0.000=1.000=0.000=0;
#SCROLLS:0.000=1.000;
#FAKES:;
#LABELS:0.000=Song Start;
#BGCHANGES:;
#KEYSOUNDS:;
#ATTACKS:
;

//---------------dance-single - ----------------
#NOTEDATA:;
#CHARTNAME:;
#STEPSTYPE:dance-single;
#DESCRIPTION:;
#CHARTSTYLE:;
#DIFFICULTY:Challenge;
#METER:18;
#RADARVALUES:1.051118,1.410394,0.626523,0.122248,0.939785,963.000000,881.000000,82.000000,16.000000,0.000000,0.000000,0.000000,0.000000,0.000000,1.051118,1.410394,0.626523,0.122248,0.939785,963.000000,881.000000,82.000000,16.000000,0.000000,0.000000,0.000000,0.000000,0.000000;
#CREDIT:;
#DISPLAYBPM:105.000000:500.000000;
#NOTES:
0000
0000
0000
0000
,
0000
0000
0000
0000
,
0000
0000
0000
0000
,
0000
0000
0000
0000
,
0000
0000
0000
0000
,
0000
0000
0000
0000
,
0000
0000
0000
0000
,
0000
0000
0000
0000
,
0000
0000
0000
0000
,
0000
0000
0000
0000
,
0011
0000
0010
0100
1000
0000
0010
1000
0001
0000
1000
0010
0100
0000
0101
0000
,
0000
0000
1000
0100
1000
0001
0010
0000
0000
0000
0010
0100
1000
0001
0100
0000
,
0010
0000
1000
0001
0100
0000
0001
0010
0100
0000
1000
0001
0010
0000
0110
0000
,
0000
0000
0100
1000
0010
1000
0001
0000
0000
0000
0001
0010
0100
0010
0100
0000
,
0010
0000
1000
0100
0010
0000
0100
1000
0001
0000
0010
0001
1000
0000
1100
0000
,
0000
0000
1000
0010
0100
0010
1000
0000
0001
1000
0100
0010
0001
0000
0000
0000
,
0010
0010
0001
0001
1000
1000
0100
0100
,
1100
0000
0000
1010
0000
0000
1001
0000
0110
0010
1000
0001
0000
0010
0000
0110
,
0000
1100
0000
0101
0000
0001
1000
0001
0010
0100
1000
0010
0000
0100
0000
0110
,
0000
1010
0000
0101
0000
0001
1000
0010
1000
0100
0010
0001
0000
0100
0000
0101
,
0000
0110
0000
1001
0000
1000
0001
0010
0001
1000
0010
0100
0010
1000
0001
0010
,
0100
0000
1000
0000
0001
0000
0100
0000
0000
0000
0001
0010
0001
0000
1000
0010
1000
0000
0000
0000
0100
0000
0000
0000
0010
0000
0000
0000
0001
0000
0000
0000
,
1000
0000
0010
0000
0100
0000
0001
0000
0000
0000
1000
0100
0000
0000
1000
0001
,
0000
0000
1000
0010
0100
0000
0001
0000
0010
0000
0100
0000
1000
0000
0010
0000
,
1000
0000
0001
0000
0100
0000
0001
0000
0000
0000
0010
0001
0000
0000
0001
1000
,
0000
0000
1000
0100
0010
0000
0001
0000
0100
0000
0001
1000
0001
0000
0010
0100
,
1000
0000
0010
0000
0100
0000
0001
0000
0000
0000
0010
0100
0000
0000
0100
0010
,
0000
0000
0010
0001
0100
0000
0010
0000
1000
0000
0100
0010
0001
0000
1000
0001
,
0100
0000
0001
0010
0100
0000
1000
0000
1010
0000
0000
0110
0000
0000
0101
0000
,
0000
0011
0000
0000
1001
0000
1100
0000
1001
0000
0010
0000
0100
0000
0001
0000
,
0000
0000
0011
0000
0000
0000
1100
0000
0000
0000
1000
0100
0010
0001
0100
0010
,
1000
0000
0101
0000
1100
0000
0000
0000
1000
0000
0010
0100
0001
1000
0010
2000
,
0000
3002
0000
1003
0100
0010
0001
0000
0100
0000
0010
1000
0001
1000
0100
0020
,
0000
0230
0000
0310
0001
0100
0001
0000
0010
0000
0001
1000
0001
0010
0100
2000
,
0000
3020
0000
1030
0100
0010
0001
0000
1000
0000
0001
0010
0001
1000
0001
0200
,
0000
0302
0000
0013
0100
1000
0001
0000
0010
0000
0001
0100
0001
0000
1000
0000
,
0010
0000
1000
0001
1000
0000
0100
0000
0010
0000
0001
0000
0100
0000
0001
0000
,
1000
0100
0001
0100
1000
0010
0100
0010
,
0001
0010
0100
0001
1000
0100
0010
0001
,
1000
0010
0100
0001
0020
0000
0000
0000
,
0000
0000
0000
0000
,
0000
0000
0000
0000
,
0000
0000
0000
0000
,
0000
0000
0000
0000
,
0000
0000
0000
0000
,
0000
0000
0000
0000
,
0000
0000
0000
0000
,
0000
0000
0000
0000
,
0000
0030
0000
1001
,
0010
0000
0010
0000
0000
0000
1100
0000
0000
0000
0101
0000
1000
0001
0100
0000
,
0010
0000
1000
0100
0010
0000
0100
0010
0001
0000
1000
0001
1000
0000
0010
0000
,
1000
0000
0001
0010
0100
0010
0001
0000
1000
0010
0100
0001
0010
0100
1000
0000
,
0001
0000
0010
0100
1000
0000
0010
1000
0001
0000
0010
0100
1000
0000
0001
0000
,
0010
0100
1000
0000
0001
1000
0010
0000
1000
0100
0010
0001
1000
0010
0100
0001
,
1000
0000
0010
1000
0001
0000
0010
0100
1000
0000
0010
0100
0001
0000
0010
0000
,
0001
1000
0100
0000
1000
0010
0100
0000
0001
1000
0010
1000
0100
0010
0001
0000
,
0010
0000
0100
1000
0010
0000
1000
0001
0010
0000
0100
1000
0001
0000
0010
0000
,
0000
0000
0100
0010
1000
0000
0001
0000
0101
0000
0101
0000
0101
0000
0000
0000
,
0010
0000
0000
0000
1001
0000
0010
1000
0100
0000
1000
0001
0010
0100
1000
0000
,
0001
0000
1000
0100
0010
0100
0010
0000
0001
1000
0001
1000
0010
0100
0010
0000
,
0100
0000
0001
0010
0100
0000
0010
0001
1000
0000
0100
1000
0001
0000
1000
0000
,
0001
0000
1000
0010
1000
0000
0001
0000
0010
0100
1000
0010
1000
0001
0100
0001
,
0010
0000
0001
1000
0100
0000
1000
0100
0010
0000
0100
0010
0001
0000
1000
0000
,
0001
0000
1000
0010
0100
0001
0010
0100
1000
0001
1000
0001
0010
0100
1000
0000
,
0010
1000
0010
1000
0001
1000
0001
1000
0100
0010
0100
0010
0001
0100
0001
0100
,
0001
1000
0100
0000
1000
0010
1001
0000
,
0010
0010
1000
0001
0010
0100
1000
0100
,
1100
0000
1010
0000
0011
0000
0101
1000
,
0001
1000
0010
1000
0100
0010
0001
0200
,
0000
0001
0301
1000
0010
1000
0100
0010
,
0001
0000
1000
0100
1000
0000
0001
0100
0001
0000
1000
0010
0100
0000
0001
0000
,
0010
0000
0100
1000
0100
0000
1000
0001
1000
0000
0001
0010
0100
0000
1000
0000
,
1010
0000
0000
1100
0000
0000
0110
0000
0000
0000
0011
0000
0101
0000
1001
0000
,
0000
0000
0110
0000
0000
0000
2010
0000
0000
0000
3001
0000
1000
0010
0100
0000
,
0101
0000
0000
0000
0000
2000
0000
0000
3001
0000
0001
0000
0001
0000
0010
0100
,
1000
0001
1000
0010
1000
0100
0010
0001
0100
0000
0100
0000
0100
0000
0001
1000
,
0001
0010
0100
1000
0001
1000
0010
0100
0020
0000
0000
0000
0230
0000
0000
0000
,
0301
0010
0100
1000
0010
1000
0001
1000
,
0100
0000
0010
0000
0001
0100
0001
0000
0000
0000
0101
0000
1000
0000
0001
0000
,
1000
0100
0010
1001
0000
0011
0000
1100
,
0101
0000
1010
0010
1001
0000
0010
0000
,
0010
0000
1000
0001
0010
0000
0100
0000
1000
0000
0010
1000
0100
0010
0001
0000
,
0010
0001
0100
0001
0100
0010
1000
0000
0001
0000
1000
0100
0010
0000
0100
1000
,
0010
0000
1000
0001
0010
0000
0100
0000
1000
0001
0010
0000
0001
0100
0001
0000
,
1000
0010
0100
0010
1000
0001
0010
0100
1000
0000
0001
1000
0100
0000
0010
0100
,
1000
0000
0001
0100
0001
0000
0010
0000
0001
0000
1000
0100
1000
0010
1000
0000
,
0001
0100
0001
0010
0100
0010
0001
0000
0100
0000
0010
1000
0010
0000
1000
0100
,
0010
0000
0001
1000
0001
0000
0100
0000
0010
0000
1000
0000
0001
0000
0000
0000
,
0011
0010
1001
0000
0010
0010
0001
1000
,
0010
0100
0001
0010
1100
0000
0101
0000
,
1010
0000
0011
0100
0010
0000
0001
1000
,
0010
1000
0100
0010
0001
1000
1000
0010
,
1000
0000
0100
0000
0010
0000
0001
0000
0100
0000
0001
0010
0001
0000
1000
0010
,
1000
0000
0001
0010
0100
0000
2001
0000
0000
0000
3010
1000
0001
0000
0010
0000
,
0100
0000
1000
0010
0100
0000
0001
0000
0011
0000
0000
0110
0000
0000
1100
0000
,
0000
1010
0110
0101
0000
1001
0000
2100
,
0000
0000
3001
0000
0010
0100
1000
0000
1100
0000
0000
0000
0101
0000
0000
0001
,
1000
0010
1000
0001
0010
0100
1000
0010
,
1000
0000
0001
0000
0100
0000
0010
0000
0100
0000
0000
0000
1010
0000
0000
1000
,
0001
1000
0100
0010
0001
0100
0001
1000
,
0010
0000
0100
0000
0010
0000
1000
0000
0001
0000
0000
0000
0011
0000
0000
0010
,
0100
1000
0001
1000
0010
1000
0100
0010
,
0001
0000
0100
0000
0001
0000
1000
0000
0010
0000
0000
0000
1001
0000
0000
0100
,
0001
1000
0001
0010
0000
0001
1000
0010
,
1000
0000
0100
0000
0010
0000
0100
0000
1000
0000
0001
0100
0001
0000
0010
0100
,
1000
0001
0000
0011
0000
1100
0000
0001
,
1000
0000
0010
0000
1000
0000
0001
0000
0100
0000
0010
1000
0010
0000
1000
0001
,
0100
0010
0000
1010
0000
0101
0000
0010
,
1000
0000
0100
0000
1000
0000
0010
0000
1000
0100
1000
0100
0001
0100
0001
0100
,
1000
0010
1000
0010
0001
0010
0001
0010
1000
0100
0010
0001
0100
0010
1000
0001
,
0010
0100
1000
0001
0100
0001
1000
0010
1000
0000
1000
0000
0001
0000
0001
0000
,
0010
0001
0100
0001
1000
0010
0100
0001
0010
0000
0000
0110
0000
0000
1001
0000
;

//---------------dance-single - ----------------
#NOTEDATA:;
#CHARTNAME:;
#STEPSTYPE:dance-single;
#DESCRIPTION:;
#CHARTSTYLE:;
#DIFFICULTY:Hard;
#METER:15;
#RADARVALUES:0.857922,1.111219,0.458432,0.152811,0.404948,786.000000,726.000000,60.000000,20.000000,0.000000,0.000000,0.000000,0.000000,0.000000,0.857922,1.111219,0.458432,0.152811,0.404948,786.000000,726.000000,60.000000,20.000000,0.000000,0.000000,0.000000,0.000000,0.000000;
#CREDIT:;
#DISPLAYBPM:105.000000:500.000000;
#NOTES:
0000
0000
0000
0000
,
0000
0000
0000
0000
,
0000
0000
0000
0000
,
0000
0000
0000
0000
,
0000
0000
0000
0000
,
0000
0000
0000
0000
,
0000
0000
0000
0000
,
0000
0000
0000
0000
,
0000
0000
0000
0000
,
0000
0000
0000
0000
,
0011
0000
0001
0000
1000
0000
0010
0000
1000
0000
0100
0010
0001
0000
0100
0000
,
0000
0000
0110
0000
0000
0000
1010
0000
0000
0000
1000
0000
0001
0010
0100
0000
,
1000
0000
0010
0000
1000
0000
0001
0000
0100
0000
0001
0100
0010
0000
0101
0000
,
0000
0000
1001
0000
0000
0000
1100
0000
0000
0000
1000
0000
0010
0100
0001
0000
,
0010
0000
0100
0000
1000
0000
0010
0000
1000
0000
0001
0100
0001
0000
0011
0000
,
0000
0000
1001
0000
0000
0000
1010
0000
0000
0000
0010
0000
0100
0001
1000
0000
,
0001
0010
0100
1000
0001
0100
0010
1000
,
1100
0000
0000
0101
0000
0000
0110
0000
1000
0010
0100
0001
0000
0010
0000
0002
,
0000
2003
0000
3020
0000
1030
0100
0010
0001
1000
0010
0100
0000
0010
0000
2000
,
0000
3002
0000
0203
0000
0310
1000
0100
1000
0001
0010
0100
0000
1000
0000
0020
,
0000
0230
0000
0302
0000
0013
0100
1000
0001
1000
0100
0010
0000
0001
0000
0200
,
0000
0320
0000
2030
0000
3001
1000
0010
0100
0000
0010
0000
1000
0000
0001
0000
,
0000
0100
0000
0101
0000
1010
0000
1100
,
0000
1000
0010
0100
0001
1000
0010
1000
,
0000
0100
0000
0110
0000
0011
0000
1001
,
0000
0010
1000
0001
0010
0100
1000
0001
,
1000
0010
0100
0001
1000
0001
0010
0100
,
1000
0000
0010
0000
1000
0000
0001
0000
0010
0100
0010
0000
0001
1000
0001
0000
,
0100
0010
0100
0000
1000
0001
1000
0000
1100
0000
0000
0101
0000
0000
0011
0000
,
0000
1010
0000
0000
1001
0000
0110
0000
1001
0000
0000
0000
1000
0000
0100
0000
,
0010
0000
0001
0000
0100
0000
0010
0000
1000
0000
0001
0100
0010
0100
0001
0000
,
1000
0000
1000
0000
1001
0000
0000
0000
0010
0000
0100
0000
1000
0000
0001
0100
,
0000
0010
0000
0100
0001
0000
1000
0000
0001
0000
0010
0000
0100
0000
1000
0001
,
0000
0010
0000
0001
0100
0000
0010
0000
1000
0000
0100
0000
0010
0000
0001
1000
,
0000
0010
0000
1000
0100
0000
0010
0000
0100
0000
1000
0000
0010
0000
1000
0001
,
0000
0010
0000
0100
1000
0000
0010
0000
1000
0000
0100
0000
0010
0000
0001
0000
,
0100
0010
1000
0000
0001
1000
0010
1000
,
0100
0010
0001
0000
0100
0001
0100
0010
,
1000
0100
0010
0000
0001
1000
0001
1000
,
0010
0100
0010
0100
0020
0000
0000
0000
,
0000
0000
0000
0000
,
0000
0000
0000
0000
,
0000
0000
0000
0000
,
0000
0000
0000
0000
,
0000
0000
0000
0000
,
0000
0000
0000
0000
,
0000
0000
0000
0000
,
0000
0000
0000
0000
,
0000
0030
0000
1001
,
1000
0000
0001
0000
0000
0000
0110
0000
0000
0000
0010
0000
0100
0001
1000
0000
,
0001
0010
0100
1000
0010
0100
0001
1000
,
0001
0000
0010
0000
0100
0000
1000
0000
0010
1000
0010
0000
0100
0001
0100
0000
,
0001
0010
0001
1000
0010
0100
0010
1000
,
0100
0000
0010
0000
0001
0000
0100
0000
0001
1000
0001
0000
0100
0010
0100
0000
,
0001
1000
0010
1000
0001
0010
0100
1000
,
0010
0000
0100
0000
0010
0000
1000
0000
0001
0100
0001
0000
1000
0001
1000
0000
,
0010
1000
0001
0010
0100
1000
0010
0100
,
0001
1000
0010
1000
0100
0010
0001
1000
,
1001
0000
1100
0000
0001
1000
0100
0010
,
0001
0000
1000
0000
0010
0000
1000
0000
0100
0010
0001
0000
0100
0010
1000
0000
,
0001
1000
0010
1000
0100
0010
0001
0100
,
0001
0000
1000
0010
0100
0000
0001
0000
1000
0100
1000
0000
0010
0100
0001
0000
,
0010
0100
0010
0001
1000
0010
1000
0001
,
0010
0000
0100
0000
1000
0000
0001
0000
1000
0010
0100
0000
0001
0010
0100
0000
,
1000
0000
0001
0000
0010
0000
0001
0000
0100
0000
0010
1000
0001
0000
0012
0000
,
0000
1003
0001
0000
0100
0010
1001
0000
,
0010
0010
1000
0001
1000
0100
0000
0010
,
0011
0101
1100
1010
,
0010
1000
1000
0001
0010
0100
1000
0001
,
1000
0010
0100
0001
0010
0100
0000
1000
,
0001
0000
1000
0010
0000
0010
0100
0000
0001
0000
1000
0000
0100
0000
0010
0000
,
0001
0100
0001
1000
0100
0010
0100
1000
,
0001
0000
0100
0010
0000
0010
2000
0000
0000
0000
3001
0000
1000
0000
0100
0000
,
0000
0000
1100
0000
0000
0000
0012
0000
0000
0000
0103
0000
0001
1000
0010
0000
,
0110
0000
0000
0000
0000
1001
0000
0000
0010
0000
0010
0000
0010
0000
1000
0100
,
0001
0100
1000
0000
0001
1000
0010
0100
0001
0000
0001
0000
0001
0000
1000
0010
,
0001
0010
1000
0000
0100
0010
0001
1000
0100
0000
0000
0000
0100
0000
1000
0000
,
0001
0000
0001
0010
0001
1000
0010
1000
,
0100
0010
0001
0100
0000
0100
0001
1000
,
0001
0010
0100
1000
0000
1010
0001
0000
,
0100
0010
1000
0001
1001
0000
0010
1000
,
0001
0000
0010
0000
0100
0000
1000
0000
0010
0000
1000
0001
0010
0000
0100
0000
,
1000
0100
1000
0000
0001
0010
0100
0000
0010
0000
0001
0000
0100
0000
0001
0000
,
1000
0000
0010
0000
1000
0000
0001
0000
0010
0000
0100
1000
0001
0000
0100
0000
,
0010
1000
0001
0000
0100
0010
0100
0000
0001
0000
0000
0000
0001
0000
1000
0000
,
0010
0000
1000
0000
0100
0000
0010
0000
0001
0000
1000
0001
0010
0000
0001
0000
,
0100
0010
0100
0000
0010
1000
0100
0000
1000
0000
0001
0000
0010
0000
0100
0000
,
1000
0000
0010
0000
1000
0000
0001
0000
0010
0000
0100
1000
0001
0000
1000
0000
,
0010
0100
1001
0000
0110
0010
1000
0001
,
0010
0100
0000
1000
1100
0000
0101
0000
,
0011
0000
1010
0000
0001
0010
0100
2000
,
0000
3010
0100
0001
0010
0001
0100
0001
,
0100
0000
0010
0000
1000
0000
0100
0000
1000
0000
0010
0100
0000
0100
0001
0000
,
0010
0100
1000
0002
0000
0103
0001
1000
,
0001
0000
0010
0100
0000
0100
1000
0000
0010
0000
1000
0001
0000
0001
0200
0000
,
0000
0310
1000
0001
0000
0101
0000
2010
,
0000
0000
3001
0000
1000
0010
0100
0000
0110
0000
0000
0000
1001
0000
0000
0000
,
1000
0001
0000
0010
0001
1000
0001
0010
,
0100
1000
0010
0100
0001
0000
1100
0000
,
1000
0010
0000
0100
0010
1000
0001
1000
,
0100
0010
0001
0100
0010
0000
0101
0000
,
0100
0001
0000
1000
0010
0100
0010
1000
,
0001
1000
0001
0100
0010
0000
1001
0000
,
0010
1000
0001
0010
0100
1000
0010
1000
,
0001
1000
0100
0010
0001
0000
1010
0000
,
1000
0001
0000
0010
0001
1000
0010
1000
,
0100
0010
0100
1000
0100
0000
0011
0000
,
0010
0100
0000
1000
0010
1000
0001
0010
,
0100
1000
0001
0100
0000
0010
1000
0001
,
0010
0001
1000
0010
1000
0100
0001
0100
,
1000
0010
0001
0010
1000
0001
0010
0100
,
1000
0000
0010
0000
0100
0000
0001
0000
0011
0000
0000
0101
0000
0000
1001
0000
;

//---------------dance-single - ----------------
#NOTEDATA:;
#CHARTNAME:;
#STEPSTYPE:dance-single;
#DESCRIPTION:;
#CHARTSTYLE:;
#DIFFICULTY:Medium;
#METER:13;
#RADARVALUES:0.669092,0.940262,0.473713,0.351464,0.129889,613.000000,551.000000,62.000000,46.000000,0.000000,0.000000,0.000000,0.000000,0.000000,0.669092,0.940262,0.473713,0.351464,0.129889,613.000000,551.000000,62.000000,46.000000,0.000000,0.000000,0.000000,0.000000,0.000000;
#CREDIT:;
#DISPLAYBPM:105.000000:500.000000;
#NOTES:
0000
0000
0000
0000
,
0000
0000
0000
0000
,
0000
0000
0000
0000
,
0000
0000
0000
0000
,
0000
0000
0000
0000
,
0000
0000
0000
0000
,
0000
0000
0000
0000
,
0000
0000
0000
0000
,
0000
0000
0000
0000
,
0000
0000
0000
0000
,
0011
0000
0001
0000
1000
0010
0100
0001
,
0000
0110
0000
1010
0000
1000
0010
0100
,
0001
0000
1100
0000
0010
0100
1000
0001
,
0000
1001
0000
0101
0000
0001
1000
0100
,
1000
0000
0110
0000
0010
0100
0001
1000
,
0000
1010
0000
0101
0000
0001
1000
0100
,
0010
0000
1001
0000
0001
0100
0010
1000
,
0100
0000
0000
1100
0000
0000
0011
0000
1001
0000
0001
0100
0000
0010
0000
2000
,
0000
3002
0000
0203
0000
0301
1000
0000
1100
0000
1000
0010
0000
0100
0000
0020
,
0000
2030
0000
3002
0000
0013
0001
0000
0011
0000
0010
0100
0000
1000
0000
0020
,
0000
0230
0000
0302
0000
1003
0001
0000
0101
0000
0100
0010
0000
1000
0000
0020
,
0000
2030
0000
3200
0000
1300
0000
0010
0110
0000
0000
0000
0010
0000
1000
0000
,
0000
1010
0000
2000
0000
3200
0000
0320
,
0000
0031
0100
0001
1001
0000
0010
0100
,
0000
0110
0000
0200
0000
0302
0000
2003
,
0000
3010
0000
0100
0101
0000
0001
1000
,
0000
1100
0000
0020
0000
2030
0000
3002
,
0000
0013
0100
1000
1010
0000
1000
0100
,
0000
0011
0000
0002
0000
0203
0000
0320
,
0000
1030
0100
0010
0001
0000
1000
0010
,
0100
0001
1000
0000
0001
1000
0010
1000
,
0100
0010
0001
0000
1001
0100
0010
1000
,
0100
0010
0001
0000
0101
0001
1000
0010
,
1000
0100
0010
0000
0011
0010
0001
0100
,
0001
1000
0100
0000
1100
1000
0010
1000
,
0001
1000
0100
0000
1010
0000
0001
0000
,
1000
0010
0100
0000
0110
0000
0010
0000
,
0100
0001
1000
0000
0001
0000
0001
0000
,
0010
0010
0100
0100
,
1000
1000
0020
0000
,
0000
0000
0000
0000
,
0000
0000
0000
0000
,
0000
0000
0000
0000
,
0000
0000
0000
0000
,
0000
0000
0000
0000
,
0000
0000
0000
0000
,
0000
0000
0000
0000
,
0000
0000
0000
0000
,
0000
0030
0000
1001
,
1000
0001
0000
0021
0000
0031
1000
0100
,
0010
0000
0010
0000
0010
0000
0001
1000
,
0010
1000
0100
0000
0100
0010
0001
1000
,
0100
0000
0100
0000
0100
0000
1000
0010
,
1000
0001
0010
0100
0000
0010
0100
1000
,
0001
0000
0001
0000
0001
0000
0010
0001
,
1000
0010
0100
0000
0100
0001
1000
0010
,
1000
0000
1000
0000
1000
0000
0010
1000
,
0001
0010
0100
1000
0000
0101
0000
1000
,
0001
0000
1001
0000
0010
0000
1000
0001
,
0010
0001
0100
0010
1000
0100
0010
0001
,
0100
0000
0101
0000
1010
0000
0001
1000
,
0010
1000
0100
0010
0001
0100
0001
1000
,
0100
0000
1100
0000
0011
0000
0010
0100
,
0010
0001
0100
0001
1000
0010
1000
0100
,
0010
0000
0110
0000
1001
0000
0010
0200
,
0000
1300
0002
0000
1003
0010
0100
0000
,
1001
0000
0000
0010
1000
0001
0000
0010
,
0200
0000
2300
0000
3002
0000
0103
0010
,
1000
0000
0001
0020
0000
0031
1000
0100
,
1000
0010
0100
0001
0000
0110
0000
1000
,
0001
1000
0010
0100
0010
1000
0000
0002
,
0000
0023
0000
0230
0000
1300
0010
0100
,
0001
0000
0000
1000
0000
0000
0010
0000
0000
0000
0100
0000
0001
0000
1000
0000
,
0000
0001
0000
2000
0000
3010
0100
0001
,
1001
0000
0000
0000
0000
0020
0000
0000
1030
0000
1000
0000
0001
0000
0001
0000
,
0010
0100
1000
0000
0010
0100
0001
0000
0100
0000
0100
0000
0010
0000
0010
0000
,
1000
0001
0010
0000
0001
1000
0100
0000
1000
0000
0000
0000
1000
0000
0000
0000
,
0001
0000
0001
0000
0100
0001
1000
0000
,
0010
0100
0001
0000
0010
0000
0010
0000
,
0001
1000
0001
0200
0000
0301
0100
0000
,
0010
1000
1001
0000
0110
0000
0110
0000
,
0110
0000
0010
0100
0001
0010
0100
1000
,
0010
0100
0001
1000
1001
0000
1001
0000
,
1001
0000
1000
0010
1000
0001
0010
0100
,
1000
0010
0100
0001
0011
0000
0011
0000
,
0011
0000
0001
0010
0100
0010
0100
1000
,
0010
1000
0001
0100
1010
0000
1010
0000
,
1010
0000
0010
1000
0001
0100
1000
0000
,
0001
1000
1100
0000
1001
0000
0000
0010
,
1000
0001
0000
0100
0002
0000
2003
0000
,
3020
0000
1030
0001
0200
0000
0301
1000
,
0000
0010
1000
0001
0010
0100
1000
0010
,
1000
0001
0100
0001
1000
0100
0010
0100
,
0010
0001
0000
1002
0000
1003
0001
0020
,
0000
0000
0031
0000
0100
0000
0001
0000
1000
0000
0000
0010
0000
0000
0100
0000
,
0000
0001
1000
0020
0000
1030
0000
0102
,
0000
0013
0001
0100
0001
0000
1000
0000
,
0001
0000
0010
0000
0001
1000
0100
0000
,
1000
0010
0100
0000
0010
0000
1000
0000
,
0001
0000
0010
0000
0001
0100
0010
0000
,
0100
0001
1000
0000
0010
0000
1000
0000
,
0100
0000
1000
0000
0010
1000
0100
0000
,
0010
0001
0100
0000
0001
0000
0010
0000
,
0001
0000
0100
0000
0010
1000
0100
0000
,
1000
0001
0010
0000
0100
0000
0010
0000
,
0100
1000
0001
0000
0010
0001
0100
0000
,
0001
1000
0010
0100
0010
0000
1000
0000
,
0001
0010
0100
0000
1000
0010
0100
0000
,
0001
0010
0100
1000
0001
0000
1000
0000
,
0010
1000
0100
0000
0010
0001
0100
0000
,
0001
0010
0100
1000
0010
0000
0100
0000
,
0001
0000
1000
0000
0010
0000
1000
0000
0100
0000
0000
0110
0000
0000
1001
0000
;

//---------------dance-single - ----------------
#NOTEDATA:;
#CHARTNAME:;
#STEPSTYPE:dance-single;
#DESCRIPTION:;
#CHARTSTYLE:;
#DIFFICULTY:Easy;
#METER:8;
#RADARVALUES:0.413680,0.554989,0.106967,0.030562,0.000000,379.000000,365.000000,14.000000,4.000000,0.000000,0.000000,0.000000,0.000000,0.000000,0.413680,0.554989,0.106967,0.030562,0.000000,379.000000,365.000000,14.000000,4.000000,0.000000,0.000000,0.000000,0.000000,0.000000;
#CREDIT:;
#DISPLAYBPM:105.000000:500.000000;
#NOTES:
0000
0000
0000
0000
,
0000
0000
0000
0000
,
0000
0000
0000
0000
,
0000
0000
0000
0000
,
0000
0000
0000
0000
,
0000
0000
0000
0000
,
0000
0000
0000
0000
,
0000
0000
0000
0000
,
0000
0000
0000
0000
,
0000
0000
0000
0000
,
0001
1000
0001
0100
,
0010
1000
0001
0100
,
0010
0100
1000
0010
,
1000
0100
0010
0001
,
0100
0001
1000
0010
,
1000
0100
0010
0001
,
0100
0010
1000
0001
,
0110
1001
0010
0100
,
0001
1000
0100
1000
0001
0000
0010
0000
,
0100
1000
0010
1000
0001
0000
0010
0000
,
0001
0100
0010
1000
0100
0000
0010
0000
,
0001
1000
0010
0100
0001
0000
0010
0000
,
0001
0010
0100
1000
,
0100
1000
0010
0100
,
0010
0100
0001
1000
,
0001
1000
0001
0010
,
0100
1000
0010
0100
,
0001
1000
0100
0010
,
0001
1000
0010
0010
,
0010
0010
1001
0100
,
0010
0001
0100
0010
,
1000
0110
1000
0001
,
0100
0010
1000
0100
,
0010
0001
0010
0100
,
1000
0001
0100
0001
,
1000
0010
1000
0100
,
1000
0000
0001
0100
,
0001
0000
1000
0010
,
1000
0000
0001
0010
,
0001
0000
0020
0000
,
0000
0000
0000
0000
,
0000
0000
0000
0000
,
0000
0000
0000
0000
,
0000
0000
0000
0000
,
0000
0000
0000
0000
,
0000
0000
0000
0000
,
0000
0000
0000
0000
,
0000
0000
0000
0000
,
0000
0030
0000
1001
,
1000
0001
0100
0110
,
0001
0001
1000
1000
,
0010
1000
0100
0010
,
0100
0100
0010
0010
,
0001
0100
0001
1000
,
0010
0010
0100
0100
,
0001
0010
0001
0100
,
1000
1000
0001
0001
,
0100
0010
1000
0001
,
0100
0100
0001
0001
,
0010
0100
0010
0001
,
1000
1000
0100
0100
,
1000
0010
1000
0001
,
0010
0010
0001
0001
,
0010
0001
0100
0010
,
1000
1000
0010
0010
,
1000
0001
0100
1001
,
0020
0000
1000
0001
,
0100
0100
0100
0130
,
0001
1000
0010
1000
,
0100
0010
0001
0100
,
0001
0001
1000
1000
,
0010
1000
0001
0100
,
0001
0010
0100
1000
,
0010
0010
0010
0110
,
1001
0000
0000
0000
0001
0100
0001
0000
,
1000
0100
1000
0000
0001
0010
0001
0000
,
1000
0010
1000
0000
0010
0000
1000
0000
,
0100
0010
0001
0100
,
0001
1000
0010
0100
,
0001
1000
0001
1000
,
0010
0100
1001
0010
,
1000
0001
0100
0010
,
1000
0001
0010
0100
,
0010
0001
0100
0001
,
1000
0010
1000
0001
,
0010
0001
0100
0010
,
1000
0001
0010
0100
,
1000
0010
1000
0001
,
0100
0110
2002
3000
,
0100
1000
0010
0010
,
0010
0013
0001
1000
,
0001
0010
0100
1000
,
0010
0100
0001
1000
,
0001
0010
0001
0100
,
0010
1000
0100
0010
,
0100
1000
0001
0001
,
1000
1000
0010
0100
,
0010
0000
0001
0100
,
0001
0000
1000
0010
,
1000
0000
0001
1000
,
0001
0000
0010
0001
,
0010
0000
1000
0010
,
1000
0000
0001
0001
,
1000
1000
0010
0010
,
0100
0100
0001
0100
,
0010
0000
1000
0001
,
0100
0000
0001
1000
,
0010
0000
0100
0010
,
1000
0000
0010
1000
,
0100
0000
1000
0001
,
0010
0000
0001
0001
,
1000
1000
0110
1001
;

//---------------dance-single - ----------------
#NOTEDATA:;
#CHARTNAME:;
#STEPSTYPE:dance-single;
#DESCRIPTION:;
#CHARTSTYLE:;
#DIFFICULTY:Beginner;
#METER:6;
#RADARVALUES:0.249954,0.340768,0.045843,0.007641,0.000000,229.000000,223.000000,6.000000,1.000000,0.000000,0.000000,0.000000,0.000000,0.000000,0.249954,0.340768,0.045843,0.007641,0.000000,229.000000,223.000000,6.000000,1.000000,0.000000,0.000000,0.000000,0.000000,0.000000;
#CREDIT:;
#DISPLAYBPM:105.000000:500.000000;
#NOTES:
// measure 0
0000
0000
0000
0000
,  // measure 1
0000
0000
0000
0000
,  // measure 2
0000
0000
0000
0000
,  // measure 3
0000
0000
0000
0000
,  // measure 4
0000
0000
0000
0000
,  // measure 5
0000
0000
0000
0000
,  // measure 6
0000
0000
0000
0000
,  // measure 7
0000
0000
0000
0000
,  // measure 8
0000
0000
0000
0000
,  // measure 9
0000
0000
0000
0000
,  // measure 10
0001
0001
0001
0000
,  // measure 11
1000
0000
0010
0000
,  // measure 12
1000
1000
1000
0000
,  // measure 13
0001
0000
0100
0000
,  // measure 14
0010
0010
0010
0000
,  // measure 15
1000
0000
0001
0000
,  // measure 16
0100
0100
0100
0000
,  // measure 17
1001
0000
1000
0000
,  // measure 18
0010
0000
0100
0000
,  // measure 19
0001
0000
0010
0000
,  // measure 20
0100
0000
1000
0000
,  // measure 21
0001
0000
1000
0000
,  // measure 22
1000
0000
0001
0000
,  // measure 23
0001
0000
0100
0000
,  // measure 24
0100
0000
0010
0000
,  // measure 25
0010
0000
1000
0000
,  // measure 26
0100
0000
0010
0000
,  // measure 27
0001
0000
0100
0000
,  // measure 28
0010
0000
1000
1000
,  // measure 29
1000
1000
1000
0000
,  // measure 30
0001
0000
0010
0010
,  // measure 31
0010
0010
0010
0000
,  // measure 32
0001
0000
1000
0000
,  // measure 33
0100
0000
1000
0000
,  // measure 34
0010
0000
0100
0000
,  // measure 35
0001
0000
1000
0000
,  // measure 36
0000
0000
0010
0000
,  // measure 37
0000
0000
0100
0000
,  // measure 38
0000
0000
0001
0000
,  // measure 39
0000
0000
0020
0000
,  // measure 40
0000
0000
0000
0000
,  // measure 41
0000
0000
0000
0000
,  // measure 42
0000
0000
0000
0000
,  // measure 43
0000
0000
0000
0000
,  // measure 44
0000
0000
0000
0000
,  // measure 45
0000
0000
0000
0000
,  // measure 46
0000
0000
0000
0000
,  // measure 47
0000
0000
0000
0000
,  // measure 48
0000
0030
0000
0000
,  // measure 49
0100
0100
0100
0000
,  // measure 50
0001
0001
0001
0000
,  // measure 51
0010
0000
0001
0000
,  // measure 52
0100
0100
0100
0000
,  // measure 53
0001
0000
1000
0000
,  // measure 54
0010
0010
0010
0000
,  // measure 55
0100
0000
0001
0000
,  // measure 56
1000
1000
1000
0000
,  // measure 57
0001
0001
0001
0000
,  // measure 58
0010
0010
0010
0000
,  // measure 59
0001
0000
1000
0000
,  // measure 60
0100
0100
0100
0000
,  // measure 61
1000
0000
0010
0000
,  // measure 62
0001
0001
0001
0000
,  // measure 63
0010
0000
0001
0000
,  // measure 64
1000
1000
1000
0000
,  // measure 65
0010
0010
0010
0000
,  // measure 66
1001
0000
0000
0000
,  // measure 67
1000
1000
1000
0000
,  // measure 68
1001
0000
0000
0000
,  // measure 69
0001
0001
0001
0000
,  // measure 70
1000
1000
1000
0000
,  // measure 71
0001
0001
0001
0000
,  // measure 72
0100
0100
0100
0000
,  // measure 73
0010
0010
0010
0010
,  // measure 74
0010
0000
1000
0000
,  // measure 75
0001
0000
0010
0000
,  // measure 76
0100
0000
1000
0000
,  // measure 77
1000
0000
0010
0000
,  // measure 78
0010
0000
0100
0000
,  // measure 79
0100
0000
0001
0000
,  // measure 80
0001
0000
1000
1000
,  // measure 81
1000
0000
0100
0100
,  // measure 82
0100
0000
0010
0010
,  // measure 83
0010
0000
0001
0001
,  // measure 84
0001
0000
0100
0100
,  // measure 85
0100
0000
0010
0010
,  // measure 86
0010
0000
1000
1000
,  // measure 87
1000
0000
0001
0001
,  // measure 88
0001
0000
1001
0000
,  // measure 89
0000
0000
0010
0010
,  // measure 90
0010
0000
1001
0000
,  // measure 91
0000
0000
0100
0100
,  // measure 92
0100
0000
0001
0001
,  // measure 93
0001
0000
1000
1000
,  // measure 94
1000
0000
0010
0010
,  // measure 95
0010
0000
0100
0100
,  // measure 96
0100
0100
0100
0000
,  // measure 97
0001
0000
1000
0000
,  // measure 98
0001
0000
0010
0000
,  // measure 99
0001
0000
0100
0000
,  // measure 100
0010
0000
1000
0000
,  // measure 101
0001
0000
0010
0000
,  // measure 102
0100
0000
1000
0000
,  // measure 103
0010
0000
1000
0000
,  // measure 104
0001
0000
0100
0100
,  // measure 105
0100
0000
0001
0000
,  // measure 106
1000
0000
0001
0001
,  // measure 107
0001
0000
0010
0000
,  // measure 108
0100
0000
1000
1000
,  // measure 109
1000
0000
0010
0000
,  // measure 110
1000
0000
0010
0010
,  // measure 111
0010
0000
1001
0000
;
