#TITLE:JOK3R;
#SUBTITLE:;
#ARTIST:Yuta Imai;
#TITLETRANSLIT:;
#SUBTITLETRANSLIT:;
#ARTISTTRANSLIT:;
#GENRE:;
#CREDIT:;
#BANNER:JOK3R-bn.png;
#BACKGROUND:JOK3R-bg.png;
#LYRICSPATH:;
#CDTITLE:;
#MUSIC:JOK3R.ogg;
#OFFSET:0.000000;
#SAMPLESTART:12.780000;
#SAMPLELENGTH:20.000000;
#SELECTABLE:YES;
#DISPLAYBPM:150.000000;
#BPMS:0.000000=150.000000
;
#STOPS:160.000000=1.600000
;
#BGCHANGES:;
#KEYSOUNDS:;
#ATTACKS:;

//---------------dance-single - ----------------
#NOTES:
     dance-single:
     :
     Hard:
     15:
     0.689611,0.980984,0.496925,0.230715,0.377131,544.000000,488.000000,56.000000,26.000000,0.000000,0.000000,0.689611,0.980984,0.496925,0.230715,0.377131,544.000000,488.000000,56.000000,26.000000,0.000000,0.000000:
0000
0000
0000
0000
,
0000
0000
0000
0000
,
0000
0000
0000
0000
,
0000
0000
0000
0000
,
0000
0000
0000
0000
,
0000
0000
0000
0000
,
0000
0000
0000
0000
,
0000
0000
0000
0000
,
0100
0010
0100
0001
0100
1000
0100
0010
,
0100
0000
1000
0000
0100
0000
0001
0000
0100
0000
1000
0000
0100
0000
0010
0100
,
0001
0010
0001
1000
0001
0100
0001
1000
,
0001
0000
0010
0000
0001
0000
1000
0000
0001
0010
0001
0010
0001
0000
0000
0000
,
0011
0011
1100
1100
0101
0101
1010
1010
,
0110
0110
1001
1001
1010
1010
0101
0101
,
0001
0010
0100
1000
0010
0100
0001
0100
0010
1000
0100
0010
,
0001
0000
0100
0010
1000
0000
0001
0000
0100
0000
0100
0000
0010
0000
0010
0000
,
1001
0010
0001
0100
0010
1000
0100
0010
,
0100
0000
1000
0000
0010
0000
0100
0000
0001
0000
1000
0100
0010
0000
0001
0000
,
0010
0100
0010
0001
0100
0010
1000
0100
,
0001
0000
0100
0000
1000
0000
0010
0000
1000
0000
0001
0010
0200
0000
0000
0000
,
0310
0000
1000
0000
0010
0000
0001
0000
0100
0000
0001
0000
1000
0000
0100
0010
,
0100
0000
1000
0000
0001
0000
1000
0000
0010
0000
0100
0000
0001
1000
0000
1000
,
0100
0010
0100
0010
0001
1000
0001
1000
,
0010
0000
1000
0001
0100
0000
0010
0000
1000
0000
1000
0000
0001
0000
0001
0100
,
0001
0000
0010
0100
0000
0100
1000
0000
0010
0000
1000
0001
0100
0000
0010
0000
,
1000
0000
0010
1000
0000
0001
0010
0000
0100
0000
1000
0010
0100
0001
0000
0100
,
0001
0000
1000
0010
0000
1000
0100
0000
0010
0000
0001
0000
1000
0010
0100
0000
,
1001
0000
1001
0000
1001
0000
0010
1000
0002
0000
0100
0000
0100
0000
0103
0000
,
0001
0000
1000
0100
0000
0100
0010
0000
0001
0000
0001
0000
0010
0100
1000
0000
,
0010
0000
1000
0001
0000
1000
0100
0000
0010
0000
0001
0100
0001
0000
1000
0010
,
1000
0000
0100
0000
1000
0000
0010
0000
0100
0000
0001
1000
0001
0000
0010
0000
,
0011
0000
0000
1100
0000
0000
0101
0000
1010
0000
0010
0100
0001
0000
1000
0000
,
0110
0000
0100
0000
0010
0000
1000
0000
0001
0000
0001
0000
1000
0010
1000
0100
,
1000
0100
0010
0001
0110
0000
1001
0000
,
2000
0000
0000
3020
0000
0000
0130
0000
0101
0000
0001
0000
1000
0001
0100
0010
,
1000
0000
0001
0000
0010
0000
0100
0000
1100
0000
0000
0000
0101
0000
0010
0100
,
0001
0000
0010
0000
0001
0000
1000
0000
0100
0000
0010
0000
0100
0000
1000
0001
,
0010
0001
0100
0001
1000
0010
1000
0100
,
0010
0000
0010
0000
0010
0000
0100
0000
1000
0001
0100
0001
1000
0000
0100
0000
,
0110
1000
0001
0000
0100
0010
0100
0010
,
1001
0000
0001
1000
0001
0100
0010
0000
2000
0000
0000
0000
3001
0000
0100
0000
,
0020
0000
0000
0000
1030
0000
0100
0010
0002
0000
0000
0000
1000
0000
0000
0000
,
0103
0002
2003
3020
,
2030
0000
0000
0000
3001
0000
1000
0100
0020
0000
0000
0000
0100
0000
0000
0000
,
0031
2000
3020
0230
,
0301
0001
0010
0010
0100
0100
1000
1000
,
1100
1100
0110
0110
0011
0011
1001
1001
,
0010
1000
0100
0010
0001
0100
0010
1000
0001
0100
0001
1000
,
0001
0000
1000
0100
1000
0000
0001
0000
0010
0000
0010
0000
0100
0000
0100
0000
,
1000
0000
0001
0100
0000
0001
0100
0000
0010
0000
0000
1000
0010
0000
0000
1000
,
0001
0000
0010
0100
1000
0000
0001
0000
0100
0000
0010
0000
0100
0000
0001
0000
,
0021
0000
0000
0230
0000
0000
1300
0000
0001
0000
0000
0000
0101
0000
0000
0010
,
0100
0000
1001
0001
1000
0100
1000
0001
,
0000
0000
1100
0000
0001
0000
0100
0000
1000
0000
0000
0000
0101
0000
0000
0010
,
0100
0000
0001
0000
0010
0000
1000
0000
0010
0000
0001
0000
0100
0000
0010
1000
,
0100
0000
1010
0000
1000
0000
0100
0000
0001
0000
0000
0000
0001
0000
0000
1000
,
0100
0000
0000
0000
0110
0000
0001
1000
0001
0000
0100
0000
0010
0000
0100
0001
,
0010
0000
0010
0000
0010
0000
0001
0000
1001
0000
0000
0000
1100
0000
0000
0001
,
0100
0000
0010
0000
1000
0000
0001
0000
0100
0000
0001
1000
0020
0000
0000
0000
,
2030
0000
0000
3002
0000
0000
2003
0000
3200
0000
0000
0000
0310
0000
0000
0010
,
0001
0000
0000
0000
0001
0000
0100
0000
0010
0000
1000
0000
0100
0000
0010
0001
,
0000
0000
0101
0000
1000
0000
0100
0000
0010
0000
0000
0000
1001
0000
0000
0001
,
0100
0100
0100
0100
0100
0110
1001
0110
,
0100
0000
0002
0000
2003
0000
3002
0000
0203
0000
0000
0000
0310
0000
0000
0010
,
1000
0000
0000
0000
1000
0000
0001
0000
0010
0000
0100
0000
0010
0000
0001
0100
,
0001
0000
1000
0100
0010
0000
0010
0000
0001
0000
0001
0000
1000
0000
0000
0100
,
0010
0010
0010
0010
0010
0000
1001
0100
,
0110
0000
0000
0000
;

//---------------dance-single - ----------------
#NOTES:
     dance-single:
     :
     Medium:
     12:
     0.517208,0.535082,0.266210,0.230715,0.124231,408.000000,378.000000,30.000000,26.000000,0.000000,0.000000,0.517208,0.535082,0.266210,0.230715,0.124231,408.000000,378.000000,30.000000,26.000000,0.000000,0.000000:
0000
0000
0000
0000
,
0000
0000
0000
0000
,
0000
0000
0000
0000
,
0000
0000
0000
0000
,
0000
0000
0000
0000
,
0000
0000
0000
0000
,
0000
0000
0000
0000
,
0000
0000
0000
0000
,
0100
0001
0010
0100
1000
0001
1000
0100
,
0000
1000
0010
1000
0001
0010
0100
1000
,
0000
0010
1000
0001
0000
0010
0001
1000
,
0010
0100
0010
0000
1000
0001
0010
0100
,
1000
1000
0100
0100
0010
0010
0001
0001
,
0100
0100
0010
0010
1000
1000
0001
0001
,
1000
0100
1000
0100
0000
0000
0010
0001
0010
0001
0000
0000
,
1002
0000
0203
0000
0310
1000
0001
1000
,
1001
0010
1000
0001
,
0010
0000
0100
0000
1000
0001
1000
0100
,
0010
0001
1000
0010
0000
1000
0100
0010
,
0000
0001
1000
0010
0000
1000
1200
0000
,
1300
0010
1000
0001
0000
0010
0100
1000
,
0000
0000
0001
0000
1000
0000
0010
0000
0000
0000
1000
0000
0010
0100
0000
0100
,
0001
1000
0010
0000
1000
0001
0100
0000
,
0001
0000
0010
0100
0010
0000
0000
0000
0001
0000
1000
0000
0100
0000
0000
0000
,
2100
0000
0000
0010
0000
0000
3100
0000
0000
0000
0001
0000
1000
0000
0001
0000
,
0020
0000
0000
0100
0000
0000
0031
0000
0000
0000
1000
0000
0010
0100
0000
0100
,
0002
0000
0000
1000
0000
0000
0103
0000
0000
0000
1000
0000
0010
0000
0100
0000
,
0001
0001
0101
0000
0010
0100
0001
1000
,
0020
0000
0000
0001
0000
0000
1030
0000
0000
0000
0010
0000
1000
0100
0000
0000
,
2000
0000
0000
0001
0000
0000
3100
0000
0000
0000
0010
0100
0010
0000
1000
0000
,
0001
1000
0001
0010
0100
0010
0100
1000
,
0020
0000
0000
2030
0000
0000
3001
0000
0101
0000
0000
0000
1100
0000
0000
0000
,
1002
0000
0000
0100
0000
0000
0103
0000
0001
0000
1000
0000
0001
0000
0100
0000
,
0001
1000
0100
0010
0001
0000
0110
0000
,
2000
0000
0000
3002
0000
0000
0103
0000
0001
0000
1000
0000
0010
0000
0100
0000
,
0001
0010
0001
1000
0100
0000
1001
0000
,
0001
1000
0010
1000
0001
0010
0100
1000
,
0000
0010
0100
0001
0010
0001
1000
0100
,
0000
1000
0010
0100
0000
0001
0010
0100
,
1000
0001
0100
0000
0001
0010
0100
1000
,
1001
0001
0001
1000
0200
0000
0310
0010
,
0220
0000
0000
0000
0330
0000
0001
1000
0002
0000
0000
0000
0100
0000
0000
0000
,
1000
0203
0320
1030
,
2002
0000
0000
0000
3003
0000
0010
0100
0020
0000
0000
0000
1000
0000
0000
0000
,
0001
2030
3002
0203
,
0310
0010
0100
0100
0001
0001
1000
1000
,
0100
0100
0010
0010
0001
0001
1000
1000
,
0001
0100
0001
0100
0000
0000
0010
1000
0010
1000
0000
0000
,
0001
1000
0100
0000
1000
0010
1000
0001
,
0010
0000
0000
0001
0000
0000
1000
0000
0010
0000
0000
0000
0101
0000
0000
0000
,
1100
0000
0001
1000
0100
1000
0001
0100
,
0010
0000
0000
1000
0000
0000
0100
0000
0010
0000
0000
0000
0011
0000
0000
0000
,
1010
0000
0010
1000
0100
0010
0001
1000
,
0000
0010
0100
0001
1000
0000
1010
0000
,
0101
0000
0100
0001
0010
0100
1000
0001
,
0000
1000
0010
0100
0001
0000
0011
0000
,
1100
0000
1000
0001
0010
0100
0010
0001
,
0000
0100
0001
1000
0010
0000
1001
0000
,
0010
0100
0001
0100
0010
0000
0210
0000
,
0301
0000
0000
1000
0000
0000
0001
0000
0100
0000
0000
0000
0110
0000
0000
0000
,
0101
0000
0001
0010
0100
0010
0100
1000
,
0000
0001
1000
0010
0100
0000
1001
0000
,
1000
0001
0010
0100
1000
0010
0100
0001
,
0000
0010
0001
1000
0100
0000
1100
0000
,
1010
0000
0001
1000
0010
0100
0001
0010
,
0000
0100
1000
0001
0010
0000
0110
0000
,
1000
0001
0010
0001
1000
0000
0100
0100
,
0110
0000
0000
0000
;

//---------------dance-single - ----------------
#NOTES:
     dance-single:
     :
     Easy:
     7:
     0.324523,0.416175,0.248463,0.106484,0.000000,256.000000,228.000000,28.000000,12.000000,0.000000,0.000000,0.324523,0.416175,0.248463,0.106484,0.000000,256.000000,228.000000,28.000000,12.000000,0.000000,0.000000:
0000
0000
0000
0000
,
0000
0000
0000
0000
,
0000
0000
0000
0000
,
0000
0000
0000
0000
,
0000
0000
0000
0000
,
0000
0000
0000
0000
,
0000
0000
0000
0000
,
0000
0000
0000
0000
,
0100
0010
0100
0010
,
1000
0001
1000
0001
,
0100
0010
1000
0001
,
1000
0010
0100
1001
,
0001
0001
0010
0010
,
0100
0100
1000
1000
,
1100
0101
1100
0101
,
2002
3000
0100
0103
,
1001
0010
1000
0100
,
0010
0001
0100
0010
,
1001
1000
0001
0010
,
0001
1000
0010
0200
,
0310
0100
0010
0001
,
0100
0001
1000
0100
,
1000
0010
1000
0001
,
0010
0001
0100
0100
,
0110
0001
1000
0100
,
0010
0100
1000
0001
,
1000
0010
1000
0001
,
0100
0010
0100
0000
0101
0000
1100
0000
,
0001
0100
1000
1100
,
1000
0100
0001
0101
,
0010
0100
0001
1000
,
0002
0013
0110
1001
,
0110
1000
0001
0010
,
0100
0000
1000
0100
1000
0000
0001
0000
,
0010
0001
1000
0010
,
0100
0000
0001
0100
0001
0000
1000
0000
,
0010
1000
0100
0100
,
0010
0001
0100
0100
,
0001
0001
1000
1000
,
0010
1000
0001
0100
,
1001
0010
0010
0010
,
2002
0003
0200
0000
,
3000
1000
0001
1300
,
2002
3000
0200
0000
,
0003
0001
1000
0301
,
1000
1000
0001
0001
,
0100
0100
0010
0010
,
0101
1100
0101
1100
,
2002
0003
0010
3100
,
0001
0001
0001
0100
,
1000
0010
0100
0001
,
1000
1000
1000
0100
,
1000
0010
0100
0001
,
0000
0010
0010
0010
,
0001
1000
0010
0100
,
0000
0001
0001
0001
,
0010
0100
1000
0001
,
0000
1000
1000
1000
,
0001
0100
0110
1001
,
0010
0010
0010
1000
,
0010
0100
0001
1000
,
0001
0100
0100
0100
,
0001
0010
0100
1000
,
0010
1000
1000
1000
,
0100
0010
0001
0100
,
0001
0010
0010
0010
,
0001
1000
1001
0000
,
0110
0000
0000
0000
;

//---------------dance-single - ----------------
#NOTES:
     dance-single:
     :
     Beginner:
     3:
     0.166064,0.237814,0.088737,0.000000,0.000000,131.000000,121.000000,10.000000,0.000000,0.000000,0.000000,0.166064,0.237814,0.088737,0.000000,0.000000,131.000000,121.000000,10.000000,0.000000,0.000000,0.000000:
// measure 0
0000
0000
0000
0000
,  // measure 1
0000
0000
0000
0000
,  // measure 2
0000
0000
0000
0000
,  // measure 3
0000
0000
0000
0000
,  // measure 4
0000
0000
0000
0000
,  // measure 5
0000
0000
0000
0000
,  // measure 6
0000
0000
0000
0000
,  // measure 7
0000
0000
0000
0000
,  // measure 8
0100
0000
0100
0000
,  // measure 9
0010
0000
0010
0000
,  // measure 10
1000
0000
1000
0000
,  // measure 11
0001
0000
0001
0000
,  // measure 12
0010
0010
0010
0000
,  // measure 13
0100
0100
0100
0000
,  // measure 14
1000
0000
0001
0000
,  // measure 15
0100
0000
0000
0000
,  // measure 16
1001
0000
1000
0000
,  // measure 17
1000
0000
0001
0000
,  // measure 18
1001
0000
0100
0000
,  // measure 19
0010
0000
0100
0000
,  // measure 20
0110
0000
1000
0000
,  // measure 21
0001
0000
0010
0000
,  // measure 22
0100
0000
1000
0000
,  // measure 23
0010
0000
0000
0000
,  // measure 24
1000
1000
0000
0000
,  // measure 25
0001
0001
0000
0000
,  // measure 26
0010
0010
0000
0000
,  // measure 27
0100
0100
0000
0000
,  // measure 28
0010
0000
0000
0000
,  // measure 29
0001
0000
0000
0000
,  // measure 30
0100
0000
0000
0000
,  // measure 31
1000
0000
0110
0000
,  // measure 32
1001
0000
0000
0000
,  // measure 33
0001
0001
0001
0000
,  // measure 34
0110
0000
0000
0000
,  // measure 35
1000
1000
1000
0000
,  // measure 36
0010
0000
0010
0000
,  // measure 37
0100
0000
0100
0000
,  // measure 38
0001
0000
1000
0000
,  // measure 39
0010
0000
0100
0000
,  // measure 40
1001
0000
0100
0000
,  // measure 41
1000
0000
1000
0000
,  // measure 42
0000
0000
0000
0000
,  // measure 43
0001
0000
0001
0000
,  // measure 44
0000
0000
0000
0000
,  // measure 45
1000
1000
1000
0000
,  // measure 46
0001
0001
0001
0000
,  // measure 47
0100
0000
0010
0000
,  // measure 48
1000
0000
0000
0000
,  // measure 49
1001
0000
0000
0000
,  // measure 50
1000
0000
0100
0000
,  // measure 51
0010
0010
0010
0000
,  // measure 52
0001
0000
1000
0000
,  // measure 53
0001
0001
0001
0000
,  // measure 54
0010
0000
0100
0000
,  // measure 55
1000
1000
1000
0000
,  // measure 56
0001
0000
0010
0000
,  // measure 57
0001
0001
0001
0000
,  // measure 58
1000
1000
1000
0000
,  // measure 59
0110
0000
0100
0000
,  // measure 60
0100
0000
0100
0000
,  // measure 61
1000
1000
1000
0000
,  // measure 62
0001
0000
0100
0000
,  // measure 63
0010
0010
0010
0000
,  // measure 64
1000
0000
0001
0000
,  // measure 65
0100
0100
0100
0000
,  // measure 66
0010
0010
0010
0000
,  // measure 67
0110
0000
0000
0000
;
