#TITLE:JO;
#SUBTITLE:;
#ARTIST:KAMUGATARIBE;
#TITLETRANSLIT:;
#SUBTITLETRANSLIT:;
#ARTISTTRANSLIT:;
#GENRE:;
#CREDIT:;
#BANNER:JO-bn.png;
#BACKGROUND:JO-bg.png;
#LYRICSPATH:;
#CDTITLE:;
#MUSIC:JO.ogg;
#OFFSET:-0.250000;
#SAMPLESTART:29.882000;
#SAMPLELENGTH:20.000000;
#SELECTABLE:YES;
#DISPLAYBPM:175.000000:195.000000;
#BPMS:0.000000=190.000000
,75.000000=180.000000
,90.000000=190.000000
,133.000000=185.000000
,139.000000=180.000000
,193.000000=190.000000
,245.000000=180.000000
,249.000000=195.000000
,373.000000=175.000000
,378.000000=195.000000
,382.000000=185.000000
,386.000000=175.000000
;
#STOPS:
;
#BGCHANGES:;
#KEYSOUNDS:;
#ATTACKS:;

//---------------dance-single - ----------------
#NOTES:
     dance-single:
     :
     Hard:
     12:
     0.527113,0.743280,0.358522,0.440683,0.186730,494.000000,446.000000,48.000000,59.000000,0.000000,0.000000,0.527113,0.743280,0.358522,0.440683,0.186730,494.000000,446.000000,48.000000,59.000000,0.000000,0.000000:
0000
0000
0000
0000
,
0000
0000
0000
0000
,
0000
0000
0000
0000
,
0000
0000
0000
0000
,
0000
0000
0000
0000
,
0000
0000
0000
0000
,
0000
0000
2001
3002
,
1003
0100
0010
0001
0100
0000
0100
0000
,
0120
0000
0230
0000
0301
0010
0100
1000
,
0010
0010
1000
0001
,
1100
0000
0101
0000
1000
0010
0100
0001
,
1000
2000
3002
0203
,
0020
0330
1010
0011
,
1001
0000
0000
1000
0000
0100
0001
0000
0000
1000
0000
0010
,
0100
0000
0000
0001
0000
0000
0110
0000
0000
0010
0000
0100
,
0001
0000
0000
0001
0000
1000
0010
0000
0000
1100
0000
0000
,
0001
0000
0001
1000
0000
1000
0010
0000
0000
1000
0000
0001
,
0010
0000
0000
0001
0000
0100
0010
0000
0000
1000
0000
0000
,
0011
0000
0000
0001
0000
1000
0100
0000
0000
0010
0000
0000
,
1010
0101
0110
0000
,
0000
0101
0000
1100
0000
0000
0000
0000
,
0011
2020
3030
2002
,
0000
3003
0000
0000
,
0020
0000
1030
0100
0001
0000
1100
0000
,
0101
0000
1000
0010
0001
0000
1010
0000
,
0011
0000
1001
0001
1000
0000
0110
0010
,
0100
0000
1000
1000
0100
0100
0010
0010
,
0001
0001
0010
0001
0001
0100
0001
0001
,
0010
0001
0001
0100
0001
0001
0010
1000
,
1000
0100
1000
1000
0010
1000
1000
0100
,
1000
1000
0001
0010
0010
1000
0010
0010
,
0001
0010
0010
1000
0010
0010
0001
0100
,
0100
1000
0100
0100
0001
0100
0100
1000
,
0100
0100
0010
1000
1000
0001
1000
1000
,
0010
1000
1000
0001
1000
1000
0010
0100
,
0100
0001
0100
0100
0010
0100
0100
0001
,
0100
0000
0000
0100
0000
0000
0110
0000
0000
0000
0000
0000
0001
0000
1000
0000
0001
0000
2000
0000
0000
0000
0000
0000
,
3000
0000
0000
1001
0000
0000
0010
0100
0010
0200
0000
0000
,
0300
0000
0000
0011
0000
0000
0100
0001
0100
0002
0000
0000
,
0003
0000
0000
0101
0000
0000
1000
0010
1000
0020
0000
0000
,
0030
0000
0000
1100
0000
0000
1000
0001
1000
0002
0000
0000
,
0003
0000
0000
1010
0000
0000
0100
0010
0100
0020
0000
0000
,
0030
0000
0000
1000
0000
0000
0001
0100
0001
0200
0000
0000
,
0300
0000
0000
0110
0000
0000
0001
1000
0001
2000
0000
0000
,
3100
2002
0000
3003
,
1000
0100
1000
0002
0000
0000
0000
0000
0000
0003
0000
0000
,
0101
2200
3300
0022
,
0033
1000
2020
0000
0000
0030
0000
0010
,
0010
3010
1000
0001
0100
0000
0001
0010
,
0100
1000
0010
1000
0100
0000
1000
0001
,
1000
0010
0100
0001
1000
0000
0001
0100
,
0010
1000
0001
0010
1000
0010
0001
0100
,
1000
0100
0002
0000
1000
1000
1003
0000
,
0010
1000
0200
0000
0010
0010
0310
0000
,
0001
0100
2000
0000
0100
0100
3100
0000
,
1000
0100
0020
0001
0031
0100
0020
0001
,
0031
0000
2000
0000
3001
0100
0010
1000
,
0100
0000
2000
0010
3010
0000
0200
0001
,
0301
1020
0031
1200
,
0301
0000
0000
1001
0000
0000
0001
0100
0001
0100
0001
0100
,
0010
0201
1300
0021
,
1030
0000
0000
0110
0000
0000
0001
0010
0001
0010
0001
0010
,
0100
0010
0000
0000
,
0000
0000
0000
0000
,
0000
0000
0000
0000
,
0000
0000
0000
0000
,
0000
0000
0000
0000
,
0000
0000
0000
0000
,
0000
0000
0000
0000
,
0000
0000
0000
0000
,
0000
0000
0000
0000
,
0000
0001
0000
0001
,
0000
1000
0000
1000
,
0000
0010
0000
0010
,
0000
0100
0000
0100
,
0000
0001
1000
0001
,
0000
0100
0010
0100
,
0000
0002
0023
0230
,
2300
3010
1000
0001
,
0100
0001
0010
0100
,
1000
0100
0001
0010
,
1000
1000
0010
0100
,
0001
0100
0001
0010
,
1000
0010
0100
0001
,
1000
1000
0001
0100
,
0010
0001
0010
0100
,
1000
0002
1000
0103
,
1000
0001
0020
0000
0001
0000
0130
0000
,
0001
0010
2000
0000
0100
0000
3010
0000
,
0100
1000
0020
0000
0001
0000
1030
0000
,
0001
0010
0001
1000
0001
1000
0200
0010
,
0310
0000
1000
0001
1000
0001
0200
0010
,
0310
0000
0001
0001
1000
1000
0010
0010
,
0100
0100
2002
0000
0000
0000
0000
0000
,
0000
0000
0000
3003
0000
0000
1100
0000
0000
1000
0100
0010
,
0002
0000
0000
0000
0000
0000
0103
0000
0000
0010
0000
0000
0101
0000
0000
0000
0000
0000
0001
0000
0010
0000
0100
0000
,
2000
0000
0000
0000
0000
0000
3001
0000
0000
1000
0000
0000
1010
0000
0000
0000
0000
0000
0010
0000
1000
0000
0001
0000
,
0200
0000
0000
0000
0000
0000
0301
0000
0000
0010
0000
0000
0011
0000
0000
0000
0000
0000
1000
0000
0100
0000
1000
0000
,
0001
0100
0001
0010
0100
1000
0000
0000
0000
0000
0000
0000
,
0000
0000
0000
0000
,
0000
0000
0010
0000
0000
0000
0000
1000
0000
0000
0000
0000
0001
0000
0000
0100
,
0000
0000
0001
0000
0000
0100
0000
0000
0010
0000
0000
0000
0000
0000
0000
0000
,
0220
0000
0000
0000
,
0000
0000
0000
0000
,
0000
0000
0000
0330
;

//---------------dance-single - ----------------
#NOTES:
     dance-single:
     :
     Medium:
     10:
     0.418276,0.625920,0.283830,0.664760,0.041081,392.000000,354.000000,38.000000,89.000000,0.000000,0.000000,0.418276,0.625920,0.283830,0.664760,0.041081,392.000000,354.000000,38.000000,89.000000,0.000000,0.000000:
0000
0000
0000
0000
,
0000
0000
0000
0000
,
0000
0000
0000
0000
,
0000
0000
0000
0000
,
0000
0000
0000
0000
,
0000
0000
0000
0000
,
0000
0000
0020
2030
,
3200
0001
0001
2300
,
3020
0230
0001
1000
,
0301
0020
0230
2300
,
3002
0100
0010
2003
,
3002
0203
0020
0330
,
2002
3000
0010
0103
,
0110
0000
0000
1000
0000
0000
0002
0000
0000
1003
0000
0010
,
0200
0301
0011
1000
,
0020
0000
0000
0130
0000
0001
2000
0000
0000
3010
0000
0000
,
1010
0101
1100
0001
,
0020
0000
0000
0031
0000
1000
0200
0000
0000
0310
0000
0000
,
0011
0010
0001
0200
,
0320
2030
3002
0000
,
0000
0010
0000
2003
0000
0000
0000
0000
,
0001
3100
0000
2002
,
0000
3003
0000
0000
,
0020
0000
1030
0001
1000
0001
0100
0000
,
0000
0000
0001
1000
0001
1000
0100
0000
,
0000
0000
1000
0001
0010
0000
0001
1000
,
0010
1100
0101
1100
,
0101
0000
0000
1000
1000
0000
0001
0001
,
0000
0100
0100
0000
0010
0010
0000
1000
,
1000
0000
0100
0100
0000
0010
0010
0000
,
0001
0001
0000
1000
0001
0000
1000
0001
,
0000
1000
0001
0000
1000
0001
0000
0100
,
0010
0000
0100
0010
0000
0100
0010
0000
,
0100
0010
0000
1000
0100
0000
0001
0100
,
0000
1000
0100
0000
0001
0100
0000
1000
,
0010
0000
0001
0010
0000
1000
0010
0000
,
0001
0010
2000
0000
0100
0100
3100
0000
,
0000
0000
0002
0000
0100
0100
0103
0000
,
0000
0000
0200
0000
0001
0001
0301
0000
,
0000
0000
0020
0000
0001
0001
0031
0000
,
0000
0000
0020
0000
1000
1000
1030
0000
,
1100
0000
0002
0000
0100
0100
0103
0000
,
0011
0000
2000
0000
0001
0001
3001
0000
,
1010
0000
0200
0000
0010
0010
0310
0000
,
0101
2002
0000
3003
,
0010
0000
1000
0002
0000
0000
0000
0000
0000
0000
0000
0000
,
0103
0202
0303
2200
,
3300
0001
2002
0000
0000
0000
3003
0100
,
0010
0100
0001
0001
0001
0000
0000
0010
,
0001
1000
0100
0100
0100
0000
0000
1000
,
0010
0100
0002
0000
1003
0000
2000
0000
,
3010
0100
0002
0000
0013
0000
2000
0000
,
3100
2020
0000
3030
,
0100
0001
2000
0000
0000
0000
3000
0000
,
0010
1000
0200
0000
0000
0000
0300
0000
,
0010
0001
0200
0000
0310
0000
2000
0000
,
3001
0010
0002
0000
0103
0000
0102
0000
,
1003
1020
0130
1002
,
0013
0210
0301
0210
,
0301
0000
0000
0110
0000
0000
0010
1000
0010
2000
0000
0000
,
3001
2001
3100
2001
,
3100
0000
0000
1001
0000
0000
0010
0100
0010
0200
0000
0000
,
0302
1003
0000
0000
,
0000
0000
0000
0000
,
0000
0000
0000
0000
,
0000
0000
0000
0000
,
0000
0000
0000
0000
,
0000
0000
0000
0000
,
0000
0000
0000
0000
,
0000
0000
0000
0000
,
0000
1000
0000
0001
,
0000
0100
0000
0100
,
0000
0010
0000
0010
,
0000
1000
0000
0001
,
0000
0020
0032
0203
,
0000
0000
0000
0300
,
0000
0020
2030
3200
,
0000
0000
1000
0001
,
1300
1001
0010
0001
,
0100
0010
1000
0001
,
1000
0100
0010
0100
,
1000
0010
1000
0100
,
0010
0001
1000
0001
,
0100
0001
0010
0100
,
1000
0010
0100
0010
,
0100
0001
1000
0001
,
1000
2002
0000
3003
,
0010
0100
0020
0000
0000
0000
0000
0000
,
1030
0001
0200
0000
0000
0000
0000
0000
,
0301
1000
0002
0000
0000
0000
0000
0000
,
0103
0000
0010
1000
0010
1000
0002
0000
,
0103
0000
0001
0010
0001
0010
0200
0000
,
1300
0000
0010
0100
0010
0100
0001
1000
,
0001
1000
2002
0000
0000
0000
0000
0000
,
0000
0000
3003
0000
1020
0000
1000
1000
,
1030
0000
0100
0001
0201
0000
0010
0010
,
0310
0000
1000
0001
0012
0000
0100
0100
,
0103
0000
0001
1000
2100
0000
0001
0001
,
3001
0010
0100
1000
0000
0000
0000
0000
,
0000
0000
0000
0000
,
0000
0000
0010
0000
0000
0000
0000
1000
0000
0000
0000
0000
0001
0000
0000
0100
,
0000
0000
0001
0000
0000
0100
0000
0000
0010
0000
0000
0000
0000
0000
0000
0000
,
0220
0000
0000
0000
,
0000
0000
0000
0000
,
0000
0000
0000
0330
;

//---------------dance-single - ----------------
#NOTES:
     dance-single:
     :
     Easy:
     6:
     0.268892,0.469440,0.194199,0.403337,0.003735,252.000000,226.000000,26.000000,54.000000,0.000000,0.000000,0.268892,0.469440,0.194199,0.403337,0.003735,252.000000,226.000000,26.000000,54.000000,0.000000,0.000000:
0000
0000
0000
0000
,
0000
0000
0000
0000
,
0000
0000
0000
0000
,
0000
0000
0000
0000
,
0000
0000
0000
0000
,
0000
0000
0000
0000
,
0000
0000
1000
0001
,
0200
0000
0300
0010
,
1000
0002
0000
0003
,
0000
0010
0001
1000
,
0020
0000
0030
0100
,
0010
1000
0002
0000
,
2000
0003
0100
3010
,
1001
0100
0010
1000
,
0002
0003
0110
0010
,
1000
0001
0100
0002
,
0023
0230
1300
0010
,
1000
0001
0200
0300
,
0010
1000
0010
0200
,
0302
2003
3020
0000
,
0000
0130
0000
0220
0000
0000
0330
0000
,
0001
1000
0000
2002
,
0000
3003
0000
0000
,
0020
1030
0100
1000
,
0000
0001
0100
0001
,
0000
0010
0000
0010
,
0000
1000
0001
1000
,
0001
0000
0000
0010
0000
0000
0010
0000
,
0000
0010
0000
0000
0010
0000
0000
0100
,
0000
0000
0100
0000
0000
0100
0000
0000
,
0100
0000
0000
0001
0000
0000
0001
0000
,
0000
0001
0000
0000
0001
0000
0000
1000
,
0000
0000
1000
0000
0000
1000
0000
0000
,
1000
0000
0000
0001
0000
0000
0010
0000
,
0000
0100
0000
0000
1000
0000
0000
0010
,
0000
0000
0100
0000
0000
0001
0000
0000
,
1000
0001
0100
2000
,
3000
0010
1000
0002
,
0003
0010
0001
0200
,
0300
0001
1000
0020
,
0030
1000
0100
0020
,
0030
0100
0010
2000
,
3000
0010
1000
0002
,
0003
0010
0001
0200
,
0300
1001
0000
0000
,
0100
0110
0000
0000
,
0010
2000
3000
0002
,
0003
0200
0300
0000
,
0010
1000
1000
0001
,
0001
0100
0100
0010
,
0010
1000
0100
0010
,
0001
0220
0330
2002
,
3003
0020
0000
0030
,
1000
0200
0000
0300
,
0010
0002
0000
0003
,
0100
2000
0000
3000
,
0001
2000
3000
0200
,
0300
0020
0030
0002
,
0003
1001
0000
1001
,
0000
1001
0100
0010
,
0100
0110
0000
0110
,
0000
0110
1000
0001
,
1000
0001
0000
0000
,
0000
0000
0000
0000
,
0000
0000
0000
0000
,
0000
0000
0000
0000
,
0000
0000
0000
0000
,
0000
0000
0000
0000
,
0000
0000
0000
0000
,
0000
0000
0000
0000
,
0000
0010
0000
0000
,
0000
0001
0000
0000
,
0000
1000
0000
0000
,
0000
0100
0000
0000
,
0000
1000
0001
2000
,
0000
0000
0000
3000
,
0000
0010
0100
0020
,
0000
0000
0100
0100
,
0130
0001
0000
0101
,
0000
1000
0000
1100
,
0000
0001
0000
0100
,
0010
0100
0000
0001
,
0000
1000
1000
0000
,
0100
0001
0001
0000
,
0010
1000
1000
0000
,
0010
0001
0001
0000
,
0100
0220
0000
0330
,
0000
2002
0000
3003
,
0000
0220
0000
0330
,
0000
2002
0000
3003
,
0000
1000
1000
1000
,
0000
0001
0001
0001
,
0000
0100
0010
0100
,
0010
1001
0000
0000
,
0000
0000
1100
0010
,
0100
1000
0101
0010
,
0100
0001
0011
1000
,
0001
0100
1010
0010
,
1000
0001
0000
0000
,
0000
0000
0000
0000
,
0000
0000
0010
0000
0000
0000
0000
1000
0000
0000
0000
0000
0001
0000
0000
0000
,
0000
0001
0000
0000
0001
0000
0000
0000
,
0220
0000
0000
0000
,
0000
0000
0000
0000
,
0000
0000
0000
0330
;

//---------------dance-single - ----------------
#NOTES:
     dance-single:
     :
     Beginner:
     2:
     0.097100,0.228558,0.074692,0.000000,0.000000,91.000000,81.000000,10.000000,0.000000,0.000000,0.000000,0.097100,0.228558,0.074692,0.000000,0.000000,91.000000,81.000000,10.000000,0.000000,0.000000,0.000000:
// measure 0
0000
0000
0000
0000
,  // measure 1
0000
0000
0000
0000
,  // measure 2
0000
0000
0000
0000
,  // measure 3
0000
0000
0000
0000
,  // measure 4
0000
0000
0000
0000
,  // measure 5
0000
0000
0000
0000
,  // measure 6
0000
0000
1000
0000
,  // measure 7
0000
0000
0000
0000
,  // measure 8
0001
0000
0000
0000
,  // measure 9
0000
0000
0100
0000
,  // measure 10
0100
0000
0000
0000
,  // measure 11
0010
0000
0010
0000
,  // measure 12
0000
0000
0000
0000
,  // measure 13
0001
0000
0000
0000
,  // measure 14
0000
0000
1000
0000
,  // measure 15
0000
0000
0000
0000
,  // measure 16
0010
0000
0010
0000
,  // measure 17
0000
0000
0000
0000
,  // measure 18
0100
0000
0000
0000
,  // measure 19
0000
0000
0001
0000
,  // measure 20
0000
0000
0000
1000
0000
0000
0000
0000
,  // measure 21
0000
0100
0000
0100
,  // measure 22
0000
0000
0000
0000
,  // measure 23
0000
1001
0000
0000
,  // measure 24
0000
0110
0000
0000
,  // measure 25
0000
1000
0000
0001
,  // measure 26
0000
0100
0000
0010
,  // measure 27
0000
0000
1000
0000
,  // measure 28
0000
0000
0000
0000
,  // measure 29
0001
0000
0000
0000
,  // measure 30
0000
0000
0100
0000
,  // measure 31
0000
0000
0000
0000
,  // measure 32
0010
0000
0000
0000
,  // measure 33
0000
0000
1001
0000
,  // measure 34
0000
0000
0000
0000
,  // measure 35
0110
0000
0000
0000
,  // measure 36
0000
1000
0000
0000
,  // measure 37
0000
0001
0000
0000
,  // measure 38
0000
1000
0000
0000
,  // measure 39
0000
0001
0000
0000
,  // measure 40
0000
0100
0000
0000
,  // measure 41
0000
0010
0000
0000
,  // measure 42
0000
0100
0000
0000
,  // measure 43
0000
0010
0000
0000
,  // measure 44
0000
0100
0000
0000
,  // measure 45
0000
0001
0000
0000
,  // measure 46
0000
1000
0000
1000
,  // measure 47
0000
1000
0000
0000
,  // measure 48
0000
0010
0000
0000
,  // measure 49
0000
1000
0000
0000
,  // measure 50
0000
0001
0000
0000
,  // measure 51
0000
0100
0000
0000
,  // measure 52
0000
0110
0000
0000
,  // measure 53
0000
0000
0000
0000
,  // measure 54
0000
1001
0000
0000
,  // measure 55
0000
0000
0000
0000
,  // measure 56
0000
0001
0000
1000
,  // measure 57
0000
0001
0000
1000
,  // measure 58
0000
0010
0000
0010
,  // measure 59
0000
0010
0000
0000
,  // measure 60
0000
0100
0000
0100
,  // measure 61
0000
0100
0000
0000
,  // measure 62
0000
0001
0000
0000
,  // measure 63
0000
0000
0000
0000
,  // measure 64
0000
0000
0000
0000
,  // measure 65
0000
0000
0000
0000
,  // measure 66
0000
0000
0000
0000
,  // measure 67
0000
0000
0000
0000
,  // measure 68
0000
0000
0000
0000
,  // measure 69
0000
0000
0000
0000
,  // measure 70
0000
0000
0000
0000
,  // measure 71
0000
0000
0000
0000
,  // measure 72
0000
0000
0000
0000
,  // measure 73
0000
0000
0000
0000
,  // measure 74
0000
0100
0000
0000
,  // measure 75
0000
0000
0000
0000
,  // measure 76
0000
0010
0000
0000
,  // measure 77
0000
0000
0000
0000
,  // measure 78
0000
1000
0000
0000
,  // measure 79
0000
0001
0000
0000
,  // measure 80
0000
0010
0000
0000
,  // measure 81
0000
0001
0000
0000
,  // measure 82
0000
0100
0000
0000
,  // measure 83
0000
0010
0000
0000
,  // measure 84
0000
1000
0000
0000
,  // measure 85
0000
0100
0000
0000
,  // measure 86
0000
1001
0000
0000
,  // measure 87
0000
0000
0000
0000
,  // measure 88
0000
0110
0000
0000
,  // measure 89
0000
0000
0000
0000
,  // measure 90
0000
1000
0000
1000
,  // measure 91
0000
0001
0000
0001
,  // measure 92
0000
0100
0100
0000
,  // measure 93
0000
1001
0000
0000
,  // measure 94
0000
0000
1000
0000
,  // measure 95
0000
0000
0100
0000
,  // measure 96
0000
0000
0010
0000
,  // measure 97
0000
0000
0001
0000
,  // measure 98
0000
0000
0000
0000
,  // measure 99
0000
0000
0000
0000
,  // measure 100
0000
0000
0000
0000
,  // measure 101
0000
0000
0000
0000
,  // measure 102
0110
0000
0000
0000
;
