#TITLE:Initiation;
#SUBTITLE:-DDR NovaMAX EDIT-;
#ARTIST:BEMANI Sound Team "Nazo no seiryoku";
#TITLETRANSLIT:;
#SUBTITLETRANSLIT:;
#ARTISTTRANSLIT:;
#GENRE:;
#CREDIT:;
#BANNER:Initiation -DDR NovaMAX EDIT--bn.png;
#BACKGROUND:Initiation -DDR NovaMAX EDIT--bg.png;
#LYRICSPATH:;
#CDTITLE:;
#MUSIC:Initiation -DDR NovaMAX EDIT-.ogg;
#OFFSET:0.000000;
#SAMPLESTART:65.380005;
#SAMPLELENGTH:20.000000;
#SELECTABLE:YES;
#DISPLAYBPM:57.000000:170.000000;
#BPMS:0.000000=72.000000
,3.000000=69.000000
,4.000000=67.000000
,6.000000=62.000000
,8.000000=68.000000
,11.000000=60.000000
,11.500000=57.000000
,12.000000=76.000000
,13.500000=86.000000
,15.000000=88.000000
,18.000000=84.000000
,19.500000=82.000000
,20.000000=72.000000
,23.000000=75.000000
,24.500000=78.000000
,28.000000=70.000000
,30.000000=68.000000
,31.000000=70.000000
,32.000000=69.000000
,34.000000=64.000000
,40.000000=81.000000
,42.000000=87.000000
,47.500000=79.000000
,48.000000=71.000000
,52.000000=80.000000
,53.500000=79.000000
,54.500000=78.000000
,55.000000=77.000000
,56.000000=136.800003
,67.500000=160.000000
,100.500000=170.000000
,101.000000=169.000000
,101.500000=168.000000
,102.000000=160.000000
,194.500000=158.000000
,196.000000=160.000000
;
#STOPS:100.000000=2.250000,
193.500000=0.750000
;
#BGCHANGES:;
#KEYSOUNDS:;
#ATTACKS:;

//---------------dance-single - ----------------
#NOTES:
     dance-single:
     :
     Hard:
     13:
     0.536825,0.591099,0.392719,0.192509,0.277213,488.000000,437.000000,51.000000,25.000000,0.000000,0.000000,0.536825,0.591099,0.392719,0.192509,0.277213,488.000000,437.000000,51.000000,25.000000,0.000000,0.000000:
// measure 0
0000
0000
0000
0000
,  // measure 1
0000
0000
0000
0000
,  // measure 2
0000
0000
0000
0000
,  // measure 3
1001
0001
0100
0010
1010
1000
0100
0010
,  // measure 4
0011
0001
1000
0100
1100
1000
0010
0001
,  // measure 5
0202
0000
0000
0000
0300
0100
0103
1000
,  // measure 6
0001
0002
0000
0203
0000
0310
1000
0001
,  // measure 7
2002
3000
2003
3002
,  // measure 8
0203
0000
0020
0330
,  // measure 9
0220
0000
0000
0000
0300
0000
0000
0000
0230
0000
0000
0000
0301
1000
0010
0100
,  // measure 10
0101
0001
1000
0010
0110
0100
0010
1000
,  // measure 11
1010
1000
0100
0001
0011
0010
0001
0100
,  // measure 12
0202
0000
0000
0303
,  // measure 13
1000
0001
0000
1001
0000
0010
0100
1000
,  // measure 14
0002
0000
0000
0000
,  // measure 15
0000
0000
0000
0003
,  // measure 16
0000
0000
0000
0000
,  // measure 17
0100
0000
0000
0100
1000
0000
0000
0000
0001
0000
0000
0001
0010
0000
0100
0000
,  // measure 18
1000
0000
0000
1000
0010
0000
0000
0000
0100
0000
0000
0100
0001
0000
0010
0000
,  // measure 19
0001
0000
0000
0001
1000
0000
0000
0000
0010
0000
0000
0010
1000
0000
0100
0000
,  // measure 20
1000
0000
0000
1000
0001
0000
0000
0000
0010
0000
0000
0010
0001
0000
1001
0000
,  // measure 21
0110
0000
0000
0010
1000
0000
0000
0000
1100
0000
0000
1000
0001
0000
0000
0000
,  // measure 22
0101
0000
0000
0100
0010
0000
0000
0000
1010
0000
0000
1000
0001
0000
0000
0000
,  // measure 23
0011
0000
0000
0000
0000
0000
0000
0000
0000
0010
0000
0000
0100
0000
0000
0000
0000
0000
0000
0000
0000
0000
0000
0000
1000
0000
0000
0000
0000
0000
0000
0000
1000
0000
0000
0000
0000
0000
0000
0000
1000
0000
0000
0000
0100
0000
0000
0000
,  // measure 24
0001
0000
0001
0000
0001
0100
1000
0001
1000
0001
1000
0001
,  // measure 25
1000
0010
0010
0010
1000
0001
0010
0100
,  // measure 26
1000
0010
0100
0001
0000
0011
0000
1100
,  // measure 27
0000
0101
0000
1010
0000
0010
1000
0100
,  // measure 28
0010
0100
1000
0001
0000
0110
0000
1001
,  // measure 29
0000
0001
0001
0001
0010
0100
0010
0001
,  // measure 30
0100
0001
1000
0100
0000
1100
0000
0110
,  // measure 31
0000
0011
0000
0101
0000
0100
0010
0100
,  // measure 32
0001
0010
0100
1000
0000
1001
0000
1010
,  // measure 33
0000
1000
1000
1000
0001
1000
0100
0010
,  // measure 34
0100
1000
0001
0010
0100
1000
0100
0010
,  // measure 35
0001
0000
1000
0000
0100
0010
0100
0000
0010
0000
0001
0000
0100
0000
0010
0000
,  // measure 36
1000
0001
1000
0010
0100
0001
0010
0100
,  // measure 37
1000
0000
0010
0000
1000
0001
1000
0000
0010
0000
1000
0000
0100
0000
0010
0000
,  // measure 38
0100
0000
1000
0000
0001
0010
0001
0000
0100
0000
0001
0000
1000
0000
0001
0000
,  // measure 39
0010
0000
0100
0000
1000
0001
1000
0000
0001
0100
0000
0000
1000
0100
0000
0000
,  // measure 40
0001
0010
0000
0000
1000
0010
0000
0000
0001
0010
0001
0000
1000
0100
1000
0000
,  // measure 41
0001
0100
0001
0000
1000
0010
1000
0000
1001
0000
0000
0000
0110
0000
0000
0010
,  // measure 42
2000
0000
0000
3002
0000
0000
0203
0000
0000
0000
0310
0000
0010
0000
1000
0000
,  // measure 43
0020
0000
0000
0130
0000
0001
0010
0000
0011
0000
0000
0000
1100
0000
0000
1000
,  // measure 44
0002
0000
0000
0023
0000
0000
0230
0000
0000
0000
1300
0000
1000
0000
0010
0000
,  // measure 45
0100
0000
0001
0000
0001
0000
0001
0000
0101
0000
0000
0000
1010
0000
0000
0010
,  // measure 46
0100
0010
0000
1000
0000
0001
0010
0000
0000
0010
0100
0000
1000
0000
1000
0000
,  // measure 47
0100
1000
0000
0010
0000
0100
0001
0000
0101
0000
0000
0000
1100
0000
0000
1000
,  // measure 48
0001
1000
0000
0001
1000
0000
1001
0000
0000
0000
0010
0000
0010
0000
0010
0000
,  // measure 49
1001
0100
0010
1000
0001
0010
0100
1000
,  // measure 50
1010
0001
0100
0010
1000
0100
0010
0001
,  // measure 51
0011
0001
0100
0010
1000
0001
0010
0100
,  // measure 52
1100
0100
0010
0100
1000
0010
1000
0001
,  // measure 53
0100
0001
0100
0000
0001
0100
0001
0000
1000
0010
1000
0000
0010
0000
0000
0000
,  // measure 54
1000
0100
1000
0000
0100
1000
0100
0000
0010
0001
0010
0000
0001
0000
0000
0000
,  // measure 55
1000
0001
1000
0000
0001
1000
0001
0000
0100
0010
0100
0000
0010
0000
0000
0000
,  // measure 56
1010
0100
0010
0001
0100
1000
1000
1000
,  // measure 57
0110
0001
0010
0001
0100
0010
1000
0100
,  // measure 58
0011
1000
0010
0100
0001
1000
0100
0010
,  // measure 59
1100
1000
0010
0100
0010
1000
0100
0010
,  // measure 60
1001
0001
0100
0001
1000
0100
0010
0001
,  // measure 61
1000
0100
1000
0000
0001
0100
0001
0000
0100
0010
0100
0000
0010
0000
0000
0000
,  // measure 62
0001
0010
0001
0000
0100
0010
0100
0000
0010
1000
0010
0000
1000
0000
0000
0000
,  // measure 63
0100
1000
0100
0000
1000
0001
1000
0000
0001
0010
0001
0000
0100
0000
0000
0000
,  // measure 64
0101
0010
0100
0001
1000
0100
0100
0100
,  // measure 65
0220
0000
0000
0000
,  // measure 66
0000
0000
0000
0330
;

//---------------dance-single - ----------------
#NOTES:
     dance-single:
     :
     Medium:
     10:
     0.389418,0.462599,0.238711,0.261812,0.057753,354.000000,323.000000,31.000000,34.000000,0.000000,0.000000,0.389418,0.462599,0.238711,0.261812,0.057753,354.000000,323.000000,31.000000,34.000000,0.000000,0.000000:
0000
0000
0000
0000
,
0000
0000
0000
0000
,
0000
0000
0000
0000
,
1001
0000
1000
0100
1100
0000
0010
0001
,
0101
0000
0001
0100
0110
0000
0010
1000
,
2020
0000
0000
0030
0000
0000
3001
1000
,
0001
0020
0000
0200
0000
0330
0000
0000
,
2002
3000
2003
3002
,
0203
0000
0000
0300
,
0220
0000
0300
0000
2030
0000
3001
1000
,
1001
0000
1000
0001
0011
0000
0010
0100
,
1100
0000
1000
0010
0110
0000
0100
0001
,
0202
0000
0000
0303
,
1000
0001
0000
1001
0000
0000
0010
0100
,
0002
0000
0000
0000
,
0000
0000
0000
0003
,
0000
0000
0000
0000
,
1001
0000
0000
0000
1000
0000
0000
0000
0001
0000
0000
1000
0010
0000
0100
0000
,
0001
0000
0000
0000
0010
0000
0000
0000
0100
0000
0000
1000
0010
0000
0100
0000
,
0001
0000
0000
0000
1000
0000
0000
0000
0010
0000
0000
0100
0001
0000
1000
0000
,
0100
0000
0000
0000
0010
0000
0000
0000
0001
0000
0000
0100
0010
0000
2000
0000
,
0000
0010
0000
0100
0000
0010
0000
0001
,
0000
0100
0000
0010
0000
0100
0000
3001
,
0000
1000
0000
0001
1000
0000
1100
0000
,
0001
0000
0000
0101
0000
0000
1000
0000
0000
0001
1000
0001
,
1000
0010
0100
0010
1000
0100
0000
1000
,
0000
0001
0100
0001
0000
0010
0000
0100
,
0000
1000
0010
1000
0000
0010
0000
0100
,
0000
0001
0010
0001
0000
0100
0000
0010
,
0000
1000
0100
1000
0010
0100
0000
0001
,
0000
0010
0100
1000
0000
0001
0000
1000
,
0000
0010
0100
0010
0000
0100
0000
0001
,
0000
1000
0001
1000
0000
0001
0000
0010
,
0000
0100
0010
0100
1000
0010
0100
0000
,
0001
0010
0100
0000
1000
0001
0100
0000
,
0010
0100
0010
1000
0100
0010
0001
0000
,
0100
0010
1000
0000
0001
1000
0010
0000
,
1000
0010
0100
0001
0010
0100
1000
0010
,
1000
0001
0100
0000
0001
0010
0100
1000
,
0010
0100
0001
0000
2000
0000
3002
0000
,
2003
0000
3002
0000
0103
0010
1000
0010
,
0100
0001
0010
0100
1000
0000
2100
0000
,
0001
0000
0000
0001
0000
0000
3001
0000
0000
0000
0100
0000
0010
0000
1000
0000
,
0100
0000
0000
0100
0000
0000
0100
0000
0010
0000
0000
0000
0012
0000
0000
0000
,
1000
0000
0000
1000
0000
0000
1003
0000
0000
0000
0001
0000
1000
0000
0100
0000
,
0010
0000
0000
0010
0000
0000
0010
0000
0001
0000
0000
0000
0101
0000
0000
0100
,
0010
0000
0000
1000
0000
0000
0001
0000
0000
0000
1000
0000
1000
0000
0100
0000
,
0010
0000
0000
0001
0000
0000
0100
0000
0010
0000
0000
0000
1001
0000
0000
0001
,
0010
0000
0000
0100
0000
0000
1000
0000
0000
0000
0010
0000
0100
0000
0010
0000
,
1000
0001
1000
0100
0010
0001
0100
0000
,
0001
1000
0010
1000
0100
0010
0001
0000
,
0100
0010
1000
0001
0010
0001
0100
0000
,
0001
1000
0010
0100
0010
1000
0100
0000
,
2001
0001
0000
0010
0000
0100
3100
0000
,
1002
1000
0000
0100
0000
0010
0013
0000
,
1020
1000
0000
0100
0000
0001
0031
0000
,
2100
3001
0102
1003
,
0010
1000
0010
0100
0001
0010
0100
0000
,
1000
0010
0100
0010
1000
0100
0010
0000
,
0001
1000
0010
1000
0001
0100
0010
0000
,
1000
0001
0010
0100
1000
0010
1000
0000
,
0102
0100
0000
1000
0000
0010
0013
0000
,
2010
0010
0000
0100
0000
0001
3001
0000
,
0021
0001
0000
0100
0000
1000
1030
0000
,
0012
1003
2010
3001
,
0220
0000
0000
0000
,
0000
0000
0000
0330
;

//---------------dance-single - ----------------
#NOTES:
     dance-single:
     :
     Easy:
     7:
     0.278313,0.359800,0.323415,0.207910,0.000000,253.000000,211.000000,42.000000,27.000000,0.000000,0.000000,0.278313,0.359800,0.323415,0.207910,0.000000,253.000000,211.000000,42.000000,27.000000,0.000000,0.000000:
0000
0000
0000
0000
,
0000
0000
0000
0000
,
0000
0000
0000
0000
,
1001
1000
1100
0100
,
0110
0010
0011
0001
,
0202
0000
0000
0303
,
2000
0000
0000
3001
0000
0000
0000
0000
,
1001
0000
1000
0001
,
0200
0000
0300
0000
,
0110
0000
0010
1000
,
1001
0001
0101
0100
,
0110
0010
1010
1000
,
2200
0000
0000
3300
,
1000
0000
0000
0010
0000
0000
0100
0000
,
0002
0000
0000
0000
,
0000
0000
0000
0003
,
0000
0000
0000
0000
,
0010
1000
0010
0100
,
0001
0010
0100
1000
,
0001
0010
0001
1000
,
0100
0010
1000
0001
,
0010
0001
1000
0100
,
1000
0010
0100
0001
,
1000
0001
2002
3003
,
0220
0330
1000
0001
,
1001
0010
0000
1000
,
0001
0100
0010
1000
,
0010
0100
0001
0010
,
0001
0100
0001
1000
,
0000
0010
0000
1000
,
0010
1000
0100
0010
,
0100
0010
0001
0100
,
0001
1000
0001
0100
,
0000
0010
1000
1100
,
0001
0101
1000
1100
,
0001
1000
0001
0011
,
1000
1010
0001
0011
,
1000
0001
0010
0100
,
1000
1001
0010
0100
,
0001
1001
1000
1000
,
0001
0001
1000
0100
,
0010
0001
1001
0010
,
1000
0001
0000
0100
,
0100
0100
0110
0010
,
0100
0001
0000
1000
,
1000
1000
1100
0101
,
0100
0010
1000
0001
,
0100
0010
1010
0011
,
0001
1000
0000
0010
,
1001
0100
0010
0100
,
0101
0001
1000
0100
,
0110
0010
0100
1000
,
1010
0010
1000
0001
,
2000
0100
0100
3100
,
0002
0100
0100
0103
,
2000
0010
0010
3010
,
2020
3030
0202
0303
,
0011
0010
0100
1000
,
1001
0001
1000
0100
,
0110
0100
1000
0001
,
0101
0001
1000
0010
,
2000
0010
0010
3010
,
0002
0100
0100
0103
,
2000
0100
0100
3100
,
2200
3300
0022
0033
,
0220
0000
0000
0000
,
0000
0000
0000
0330
;

//---------------dance-single - ----------------
#NOTES:
     dance-single:
     :
     Beginner:
     4:
     0.129806,0.179900,0.077004,0.053903,0.000000,118.000000,108.000000,10.000000,7.000000,0.000000,0.000000,0.129806,0.179900,0.077004,0.053903,0.000000,118.000000,108.000000,10.000000,7.000000,0.000000,0.000000:
0000
0000
0000
0000
,
0000
0000
0000
0000
,
0000
0000
0000
0000
,
1001
0000
0010
0000
,
0100
0000
0001
0000
,
2000
0000
3000
0000
,
0002
0000
0003
0000
,
1001
0000
0100
0000
,
0020
0000
0030
0000
,
0110
0000
1000
0000
,
1001
0000
0001
0000
,
0010
0000
0100
0000
,
2000
0000
3000
0000
,
0010
0000
0100
0000
,
0002
0000
0000
0000
,
0000
0000
0000
0003
,
0000
0000
0000
0000
,
0100
0000
1000
0000
,
0001
0000
0010
0000
,
0001
0000
1000
0000
,
0010
0000
0100
0000
,
1001
0000
1000
0000
,
0001
0000
1000
0000
,
0001
0000
0100
0000
,
0010
0000
1000
1000
,
1000
0000
0001
0000
,
0001
0000
0001
0000
,
0001
0000
1000
0000
,
1000
0000
1000
0000
,
1000
0000
0010
0000
,
0010
0000
0010
0000
,
0010
0000
0100
0000
,
0100
0000
0100
0000
,
0100
0000
0001
0000
,
1000
0000
0001
0000
,
0001
0000
1000
0000
,
0001
0000
1000
0000
,
1000
0000
0010
0000
,
0000
0000
0100
0000
,
0000
0000
0010
0000
,
0100
0000
0010
0000
,
0100
0000
0110
0000
,
0000
0000
0000
0000
,
0000
0000
1001
0000
,
0000
0000
0000
0000
,
0000
0000
1000
0000
,
1000
0000
0001
0000
,
0001
0000
0100
0100
,
0100
0100
0000
0000
,
1001
0000
0010
0000
,
1000
0000
0001
0000
,
0010
0000
0100
0000
,
1000
0000
0001
0000
,
0100
0000
0000
0001
,
0001
0000
0000
1000
,
1000
0000
0000
0000
,
0010
0000
0100
0000
,
0110
0000
0010
0000
,
1000
0000
0100
0000
,
0010
0000
0100
0000
,
1000
0000
0001
0000
,
0010
0000
0000
0100
,
0100
0000
0000
1000
,
1000
0000
0000
0000
,
0001
0000
1000
0000
,
0220
0000
0000
0000
,
0000
0000
0000
0330
;
