#VERSION:0.83;
#TITLE:Indian Summer;
#SUBTITLE:;
#ARTIST:Canton;
#TITLETRANSLIT:;
#SUBTITLETRANSLIT:;
#ARTISTTRANSLIT:;
#GENRE:;
#ORIGIN:;
#CREDIT:;
#BANNER:Indian Summer.png;
#BACKGROUND:Indian Summer-bg.png;
#PREVIEWVID:;
#JACKET:Indian Summer-jacket.png;
#CDIMAGE:;
#DISCIMAGE:;
#LYRICSPATH:;
#CDTITLE:;
#MUSIC:Indian Summer.ogg;
#OFFSET:0.000000;
#SAMPLESTART:23.417000;
#SAMPLELENGTH:15.000000;
#SELECTABLE:YES;
#DISPLAYBPM:174.000000;
#BPMS:0.000=174.000;
#STOPS:;
#DELAYS:;
#WARPS:;
#TIMESIGNATURES:0.000=4=4;
#TICKCOUNTS:0.000=4;
#COMBOS:0.000=1;
#SPEEDS:0.000=1.000=0.000=0;
#SCROLLS:0.000=1.000;
#FAKES:;
#LABELS:0.000=Song Start;
#BGCHANGES:;
#KEYSOUNDS:;
#ATTACKS:
;

//---------------dance-single - ----------------
#NOTEDATA:;
#CHARTNAME:;
#STEPSTYPE:dance-single;
#DESCRIPTION:;
#CHARTSTYLE:;
#DIFFICULTY:Beginner;
#METER:1;
#RADARVALUES:0.101193,0.174593,0.009977,0.019954,0.000000,71.000000,70.000000,1.000000,2.000000,0.000000,0.000000,0.000000,0.000000,0.000000,0.101193,0.174593,0.009977,0.019954,0.000000,71.000000,70.000000,1.000000,2.000000,0.000000,0.000000,0.000000,0.000000,0.000000;
#CREDIT:;
#DISPLAYBPM:173.000000;
#NOTES:
0000
0000
0000
0000
,
0000
0000
0000
0000
,
0000
0000
0000
0000
,
0000
0000
0000
0000
,
0000
0000
0000
0000
,
0000
0000
0000
0000
,
0000
0000
0000
0000
,
0000
0000
0000
0000
,
0000
0000
0000
0000
,
1000
0000
1000
0000
,
1000
0000
0000
0000
,
0001
0000
0000
0000
,
0100
0000
0100
0000
,
0100
0000
0000
0000
,
0010
0000
0000
0000
,
0010
0000
0000
0000
,
1000
0000
0001
0000
,
1000
0000
0000
0000
,
0010
0000
0000
0000
,
0100
0000
0000
0000
,
0001
0000
0001
0000
,
0001
0000
0000
0000
,
0010
0000
0000
0000
,
0100
0000
0000
0000
,
1000
0000
1000
0000
,
1000
0000
0000
0000
,
0000
0000
0000
0000
,
0000
0000
0000
0000
,
0001
0000
0000
0000
,
0000
0000
0000
0000
,
0000
0000
0000
0000
,
0000
0000
0000
0000
,
0100
0000
0100
0000
,
0100
0000
0100
0000
,
0020
0000
0000
0030
,
0010
0000
0000
0000
,
1000
0000
1000
0000
,
1000
0000
1000
0000
,
0002
0000
0000
0003
,
0001
0000
0000
0000
,
0010
0000
0000
0000
,
0100
0000
0000
0000
,
0010
0000
0000
0000
,
0100
0000
0000
0000
,
1000
0000
0000
0000
,
0001
0000
0000
0000
,
1000
0000
0000
0000
,
0001
0000
0000
0000
,
0100
0000
0001
0000
,
0100
0000
0000
0000
,
0010
0000
1000
0000
,
0010
0000
0000
0000
,
1000
0000
0100
0000
,
1000
0000
0000
0000
,
0001
0000
0010
0000
,
0001
0000
0000
0000
,
0100
0000
0000
0000
,
1000
0000
0000
0000
,
0010
0000
0000
0000
,
0100
0000
0000
0000
,
0001
0000
0000
0000
,
1000
0000
0000
0000
,
0100
0000
0000
0000
,
0010
0000
0000
0000
,
1001
0000
0000
0000
,
0010
0000
0000
0000
,
0100
0000
0000
0000
,
0100
0000
0000
0000
,
0001
0000
0000
0000
,
1000
0000
0000
0000
,
0001
0000
0000
0000
;

//---------------dance-single - ----------------
#NOTEDATA:;
#CHARTNAME:;
#STEPSTYPE:dance-single;
#DESCRIPTION:;
#CHARTSTYLE:;
#DIFFICULTY:Easy;
#METER:4;
#RADARVALUES:0.190984,0.283340,0.059861,0.089791,0.000000,134.000000,128.000000,6.000000,9.000000,0.000000,0.000000,0.000000,0.000000,0.000000,0.190984,0.283340,0.059861,0.089791,0.000000,134.000000,128.000000,6.000000,9.000000,0.000000,0.000000,0.000000,0.000000,0.000000;
#CREDIT:;
#DISPLAYBPM:173.000000;
#NOTES:
0000
0000
0000
0000
,
0000
0000
0000
0000
,
0000
0000
0000
0000
,
0000
0000
0000
0000
,
0000
0000
0000
0000
,
0000
0000
0000
0000
,
1000
0000
0001
0000
,
2002
0000
0000
0000
,
0000
3003
0000
0000
,
0010
0000
0000
0001
,
0100
0000
0000
1000
,
0100
0000
0001
0000
,
0010
0000
0100
0000
,
1000
0000
0000
0001
,
0010
0000
0000
1000
,
0010
0000
0001
0000
,
2002
0000
0000
3003
,
0001
0000
1000
0001
,
0100
0000
0001
1000
,
0200
0000
0000
0300
,
0010
0000
0001
0001
,
0001
0000
0000
1000
,
0001
0000
1000
1000
,
1000
0000
0000
0001
,
1000
0000
0001
0000
,
1001
0000
0000
0000
,
0010
0000
0000
0000
,
0110
0000
0000
0000
,
0000
0000
0000
0000
,
0000
0000
0000
0000
,
0100
0000
0100
0000
,
0100
0100
0100
0100
,
1000
0000
0010
0000
,
0100
0000
0001
0100
,
0001
0000
0010
0000
,
0001
0000
0000
0000
,
1000
0000
0100
0000
,
0010
0000
0001
0010
,
0001
0000
0100
0000
,
0010
0000
0000
0000
,
1000
1000
1000
0000
,
0010
0000
0100
0000
,
0001
0001
0001
0000
,
0010
0000
0001
0000
,
1000
1000
1000
0000
,
0010
0000
1000
0000
,
0002
0000
0000
0003
,
2000
0000
0000
3000
,
0100
0000
0010
0000
,
0001
0000
0010
0000
,
0100
1000
0000
0000
,
0001
0100
0000
0000
,
0010
0000
0100
0000
,
0001
0000
0100
0000
,
0010
1000
0000
0000
,
0001
0010
0000
0000
,
0100
0000
1000
0000
,
0100
1000
0100
1000
,
0001
0000
0100
0000
,
0110
0000
0000
0000
,
0100
0000
0001
0000
,
0100
0001
0100
0001
,
1000
0000
0100
0000
,
0220
0000
0000
0330
,
0010
0000
0000
0001
,
0100
0000
0000
1000
,
0100
0000
0001
0000
,
0010
0000
0100
0000
,
1000
0000
0000
0001
,
0010
0000
0000
1000
,
0010
0000
0001
0000
,
1000
0000
0000
0000
;

//---------------dance-single - ----------------
#NOTEDATA:;
#CHARTNAME:;
#STEPSTYPE:dance-single;
#DESCRIPTION:;
#CHARTSTYLE:;
#DIFFICULTY:Medium;
#METER:8;
#RADARVALUES:0.396220,0.495845,0.429000,0.199535,0.000000,278.000000,235.000000,43.000000,20.000000,0.000000,0.000000,0.000000,0.000000,0.000000,0.396220,0.495845,0.429000,0.199535,0.000000,278.000000,235.000000,43.000000,20.000000,0.000000,0.000000,0.000000,0.000000,0.000000;
#CREDIT:;
#DISPLAYBPM:173.000000;
#NOTES:
0000
0000
0000
0000
,
0000
0000
0000
0000
,
0000
0000
0000
0000
,
0000
0000
0000
0000
,
0000
0000
0000
0000
,
0000
0011
0000
0000
0000
0000
0000
0000
,
2200
0000
0000
0000
,
3300
0000
0000
0000
,
0000
0000
0000
0000
,
1000
0000
0000
0010
0000
0000
0100
0000
,
0101
0100
0001
0010
,
0012
0000
0000
0023
0000
0000
0130
0000
,
2100
0000
0000
3020
0000
0000
0130
0000
,
0001
0100
0101
0001
,
0010
0100
1100
0010
,
1001
0000
0000
0110
0000
0000
1001
0000
,
0200
0000
0000
0300
,
0010
0000
0001
1000
0001
0000
0100
0000
,
0020
0000
0000
1030
,
0001
0010
0001
0100
,
0010
1000
0010
0100
,
0001
0000
1000
0001
1000
0000
0100
0000
,
0020
0000
0000
0031
,
1000
0100
1000
0010
,
0100
0001
0100
0010
,
2000
0000
0000
0010
,
3020
0000
0000
0000
0000
0100
0030
0200
,
0000
0000
0000
0301
0000
0000
0000
1001
,
0000
0000
0000
0000
,
0000
0000
0000
0000
,
0000
0000
0000
0000
,
0000
0000
0000
0000
,
1001
0000
0010
0100
0000
0001
1000
0000
,
0100
0000
0010
0100
0000
1000
0001
0000
,
0100
0101
0001
0011
,
0100
1100
1000
1010
,
0001
0000
0010
0100
0000
1000
0001
0000
,
0100
0000
0010
0100
0000
0001
1000
0000
,
0100
1100
1000
1010
,
0100
0101
0002
0003
,
0010
0000
0010
0000
0010
0000
0100
0010
,
0100
0000
1000
0010
0000
0100
0000
0001
,
0010
0000
0010
0000
0010
0000
0100
1000
,
0100
0000
0010
0001
0000
0100
0000
0010
,
1000
0000
1000
0000
1000
0000
0001
0010
,
0001
0000
1000
0100
0000
0010
0000
0001
,
0100
0100
0010
0010
,
1000
0001
1000
0002
0000
2003
0000
3001
,
1000
1001
0001
1001
,
0010
0001
0100
0000
0010
1000
0100
0000
,
0010
0110
0100
0110
,
0001
0010
1000
0000
0001
0100
1000
0000
,
0001
1001
1000
1001
,
0100
0001
0010
0000
0100
1000
0010
0000
,
0100
0110
0010
0110
,
1000
0010
0002
0000
0000
0013
0000
1000
,
0001
0100
0010
1000
,
0001
0100
0010
1000
0000
0001
0000
1000
,
0100
0010
0001
1000
,
0100
0010
0001
1000
0000
0001
0000
0100
,
0010
1000
0100
0001
,
0100
1000
0001
0100
0000
1000
0000
0100
,
0001
0010
1000
0010
,
2002
0000
0000
3003
,
0101
0100
0011
0100
,
1000
0000
0000
1100
,
1010
1100
1010
1001
,
2002
0000
0000
3003
,
0011
0101
0011
0101
,
1001
0000
0000
1001
,
0010
0100
0010
0100
,
1001
0000
0000
0000
;

//---------------dance-single - ----------------
#NOTEDATA:;
#CHARTNAME:;
#STEPSTYPE:dance-single;
#DESCRIPTION:;
#CHARTSTYLE:;
#DIFFICULTY:Hard;
#METER:12;
#RADARVALUES:0.544446,0.637515,0.399070,0.259396,0.104756,382.000000,342.000000,40.000000,26.000000,0.000000,0.000000,0.000000,0.000000,0.000000,0.544446,0.637515,0.399070,0.259396,0.104756,382.000000,342.000000,40.000000,26.000000,0.000000,0.000000,0.000000,0.000000,0.000000;
#CREDIT:;
#DISPLAYBPM:173.000000;
#NOTES:
0000
0000
0000
0000
,
0000
0000
0000
0000
,
0000
0000
0000
0000
,
0000
0000
0000
0000
,
0000
0000
0000
0000
,
0000
0000
0000
0000
,
0200
0000
0000
0000
,
0000
0000
0000
0000
,
0000
0000
0300
0000
,
2002
0000
3003
1010
0000
0000
0011
0000
,
0120
1000
0031
0011
,
0101
0000
0010
1000
0100
0010
1000
0000
,
0101
0000
0010
0001
0100
0010
0001
0000
,
1200
0001
0310
0101
,
1020
0001
0130
0101
,
1001
0000
0010
0100
0001
0010
0100
0000
,
1001
0000
0010
0100
1000
0010
0100
0010
,
1001
0000
0001
0000
0100
0001
0010
0000
,
0100
1000
0010
0000
0001
0010
1000
0000
,
0101
0000
1000
0000
0101
0001
0010
0000
,
1100
0000
0001
0000
1100
1000
0010
0000
,
1001
0000
0000
0100
0001
1000
0010
0000
,
1001
0000
0000
0100
1000
0001
0010
0000
,
1100
0000
0000
0010
0100
1000
0001
0000
,
0101
0000
0000
0010
0100
0001
1000
0100
,
0002
0000
0000
0000
,
0200
0000
0000
0003
,
2000
0000
0000
0300
,
0002
0000
0000
0000
,
0000
0000
0000
0000
,
0000
0000
0000
0000
,
0000
0000
3003
0000
0001
1000
0001
1000
,
0110
0000
0010
0001
0010
1000
0002
0000
,
1003
0100
0010
0100
2000
0010
3010
0010
,
0100
0001
0010
0100
0010
0001
2000
0000
,
3001
0010
0100
1000
0002
0100
0103
0100
,
0010
1000
0100
0001
0100
1000
0020
0000
,
0031
0010
1000
0100
0020
0001
0031
0001
,
0100
1000
0100
0001
0010
1000
0020
0000
,
0031
1000
0100
0001
0200
0010
0310
0010
,
1001
0000
1001
0000
1001
0000
0010
0100
,
0001
1000
0200
0010
0000
0001
0000
0310
,
0100
1000
0010
0000
1001
0000
0100
0001
,
1000
0010
0001
0020
0000
2030
0000
3100
,
1001
0000
1001
0000
1001
0000
0100
0010
,
0001
1000
0020
0100
0000
0001
0000
0130
,
0010
1000
0100
0000
0100
0000
0100
1000
,
0001
0010
0100
1000
0000
1000
0000
1000
,
0001
0000
0000
0010
0001
0000
0100
0000
0000
0000
0010
0000
1000
0000
0000
0000
,
0100
0001
0100
0010
0100
1000
0010
1000
,
0001
0000
0000
0100
0001
0000
0000
0001
0010
0000
0000
0010
0100
0000
0000
0100
,
1000
0010
1000
0001
0100
0010
1000
0001
,
1000
0000
0000
0010
1000
0000
0100
0000
0000
0000
0010
0000
0001
0000
0000
0000
,
0100
1000
0100
0010
0100
0001
0010
0001
,
1000
0000
0000
0010
1000
0000
0000
1000
0100
0000
0000
0100
0010
0000
0000
0010
,
0001
0100
0001
1000
0010
0100
0001
1000
,
0001
0000
0011
0000
1100
0000
1000
0001
,
0100
0010
0200
0001
0000
0001
0000
0301
,
0100
0000
1010
0000
0101
0000
0001
1000
,
0100
0010
0200
1000
0000
1000
0000
1300
,
0100
0000
1001
0000
0110
0000
0010
0001
,
0100
1000
0100
0002
0000
2003
0000
3001
,
1000
0000
0000
0010
0100
0000
0000
0001
0010
0000
0000
0100
1000
0000
0000
0010
,
0100
0000
0010
0000
0100
0000
0010
0000
0100
0000
0010
0100
0010
0000
0000
0000
,
1001
0000
0000
0000
0100
0000
0000
0100
0000
0000
0100
0000
0001
0000
0000
0000
,
1000
0000
0000
0000
0100
0000
0000
0100
0000
0000
0100
0000
1000
0000
0000
0000
,
0001
0000
0000
0000
0010
0000
0000
0010
0000
0000
0010
0000
0001
0000
0000
0000
,
1001
0000
0010
0100
0010
0100
0010
0000
,
1001
0000
0000
0000
0100
0000
0000
0100
0000
0000
0100
0000
0001
0000
0000
0000
,
1000
0000
0000
0000
0100
0000
0000
0100
0000
0000
0100
0000
1000
0000
0000
0000
,
0001
0000
0000
0000
0010
0000
0000
0010
0000
0000
0010
0000
0100
0000
0000
0000
,
1001
0000
0000
0000
;

//---------------dance-double - ----------------
#NOTEDATA:;
#CHARTNAME:;
#STEPSTYPE:dance-double;
#DESCRIPTION:;
#CHARTSTYLE:;
#DIFFICULTY:Easy;
#METER:4;
#RADARVALUES:0.189558,0.283340,0.049884,0.089791,0.000000,133.000000,128.000000,5.000000,9.000000,0.000000,0.000000,0.000000,0.000000,0.000000,0.189558,0.283340,0.049884,0.089791,0.000000,133.000000,128.000000,5.000000,9.000000,0.000000,0.000000,0.000000,0.000000,0.000000;
#CREDIT:;
#DISPLAYBPM:173.000000;
#NOTES:
00000000
00000000
00000000
00000000
,
00000000
00000000
00000000
00000000
,
00000000
00000000
00000000
00000000
,
00000000
00000000
00000000
00000000
,
00000000
00000000
00000000
00000000
,
00000000
00000000
00000000
00000000
,
00001000
00000000
00010000
00000000
,
00022000
00000000
00000000
00000000
,
00000000
00033000
00000000
00000000
,
00000100
00000000
00000000
00000001
,
00000100
00000000
00000000
00001000
,
00010000
00000000
01000000
00000000
,
00100000
00000000
00010000
00000000
,
10000000
00000000
00000000
01000000
,
00010000
00000000
00000000
00001000
,
00000100
00000000
00000001
00000000
,
00002002
00000000
00000000
00003003
,
00000001
00000000
00000100
00000010
,
00000100
00000000
00001000
00010000
,
00002000
00000000
00000000
00003000
,
00010000
00000000
00100000
00100000
,
00100000
00000000
00000000
10000000
,
01000000
00000000
00010000
00010000
,
00010000
00000000
00000000
00001000
,
00010000
00000000
00001000
00000000
,
00011000
00000000
00000000
00000000
,
00000100
00000000
00000000
00000000
,
00001001
00000000
00000000
00000000
,
00000000
00000000
00000000
00000000
,
00000000
00000000
00000000
00000000
,
00001000
00000000
00010000
00000000
,
00001000
00010000
00001000
00010000
,
00001000
00000000
00100000
00000000
,
00010000
00000000
10000000
00010000
,
10000000
00000000
00100000
00000000
,
00010000
00000000
00000000
00000000
,
00001000
00000000
00000010
00000000
,
00000001
00000000
00000100
00000001
,
00000100
00000000
00000010
00000000
,
00001000
00000000
00000000
00000000
,
00000100
00000100
00000100
00000000
,
00010000
00000000
00001000
00000000
,
00010000
00010000
00010000
00000000
,
00001000
00000000
00100000
00000000
,
01000000
01000000
01000000
00000000
,
10000000
00000000
00010000
00000000
,
02000000
00000000
00000000
03000000
,
00200000
00000000
00000000
00300000
,
01000000
00000000
00100000
00000000
,
00010000
00000000
00001000
00000000
,
00000100
00001000
00000000
00000000
,
00010000
00001000
00000000
00000000
,
00000010
00000000
00000001
00000000
,
00000100
00000000
00000010
00000000
,
00001000
00000100
00000000
00000000
,
00010000
00001000
00000000
00000000
,
01000000
00000000
00100000
00000000
,
01000000
00100000
01000000
00100000
,
00010000
00000000
00001000
00000000
,
00010000
00000000
00000000
00000000
,
00000100
00000000
00000010
00000000
,
00000100
00000010
00000100
00000010
,
00001000
00000000
00010000
00000000
,
00022000
00000000
00000000
00033000
,
00001000
00000000
00000000
00010000
,
01000000
00000000
00000000
10000000
,
01000000
00000000
00010000
00000000
,
00001000
00000000
00000100
00000000
,
00000001
00000000
00000000
00000100
,
00001000
00000000
00000000
00010000
,
01000000
00000000
10000000
00000000
,
00010000
00000000
00000000
00000000
;

//---------------dance-double - ----------------
#NOTEDATA:;
#CHARTNAME:;
#STEPSTYPE:dance-double;
#DESCRIPTION:;
#CHARTSTYLE:;
#DIFFICULTY:Medium;
#METER:8;
#RADARVALUES:0.397645,0.501082,0.438977,0.219489,0.000000,279.000000,235.000000,44.000000,22.000000,0.000000,0.000000,0.000000,0.000000,0.000000,0.397645,0.501082,0.438977,0.219489,0.000000,279.000000,235.000000,44.000000,22.000000,0.000000,0.000000,0.000000,0.000000,0.000000;
#CREDIT:;
#DISPLAYBPM:173.000000;
#NOTES:
00000000
00000000
00000000
00000000
,
00000000
00000000
00000000
00000000
,
00000000
00000000
00000000
00000000
,
00000000
00000000
00000000
00000000
,
00000000
00000000
00000000
00000000
,
00000000
00000110
00000000
00000000
00000000
00000000
00000000
00000000
,
00022000
00000000
00000000
00000000
,
00033000
00000000
00000000
00000000
,
00000000
00000000
00000000
00000000
,
00100000
00000000
00000000
10000000
00000000
00000000
01000000
00000000
,
11000000
01000000
00010000
00001000
,
00021000
00000000
00000000
00030200
00000000
00000000
00001300
00000000
,
00002100
00000000
00000000
00003020
00000000
00000000
00000130
00000000
,
00000101
00000001
00000011
00000010
,
00001000
00010000
00011000
00001000
,
00101000
00000000
00000000
00110000
00000000
00000000
01010000
00000000
,
00200000
00000000
00000000
00300000
,
10000000
00000000
01000000
10000000
00010000
00000000
00100000
00000000
,
02000000
00000000
00000000
13000000
,
01000000
00100000
00010000
01000000
,
00100000
00010000
00001000
00000100
,
00000010
00000000
00000100
00000001
00001000
00000000
00000010
00000000
,
00000200
00000000
00000000
00000301
,
00000100
00000010
00001000
00000100
,
00000010
00001000
00010000
01000000
,
00200000
00000000
00000000
00310000
,
00020000
00000000
00000000
00000000
00000000
01030000
00000000
02000000
,
00000000
00000000
00000000
03001000
00000000
00000000
00000000
00011000
,
00000000
00000000
00000000
00000000
,
00000000
00000000
00000000
00000000
,
00000000
00000000
00000000
00000000
,
00000000
00000000
00000000
00000000
,
00001001
00000000
00000100
00000001
00000000
00000100
00001000
00000000
,
00000010
00000000
00000001
00000010
00000000
00001000
00000010
00000000
,
00001000
00001100
00000100
00010100
,
00010000
00011000
00001000
00101000
,
00100000
00000000
01000000
00010000
00000000
01000000
10000000
00000000
,
00100000
00000000
00010000
00100000
00000000
10000000
00100000
00000000
,
01000000
01010000
00010000
00110000
,
00100000
00101000
00020000
00030000
,
00001000
00000000
00001000
00000000
00001000
00000000
00010000
00001000
,
00000100
00000000
00000010
00000100
00000000
00000010
00000000
00000100
,
00000001
00000000
00000001
00000000
00000001
00000000
00000010
00000100
,
00000010
00000000
00000100
00001000
00000000
00000100
00000000
00010000
,
00001000
00000000
00001000
00000000
00001000
00000000
00010000
00100000
,
00010000
00000000
00100000
10000000
00000000
00100000
00000000
10000000
,
01000000
01000000
00100000
00100000
,
00010000
01000000
00001000
00020000
00000000
00032000
00000000
00013000
,
00001000
00011000
00001000
00001100
,
00000001
00000010
00000100
00000000
00001000
00000010
00000100
00000000
,
00000001
00001001
00001000
00001100
,
00001000
00000010
00010000
00000000
00001000
00100000
00010000
00000000
,
00100000
00110000
00010000
10010000
,
10000000
00100000
01000000
00000000
00010000
00100000
01000000
00000000
,
10000000
10010000
00010000
01010000
,
01000000
00100000
00020000
00000000
00000000
00031000
00000000
00010000
,
00001000
00010000
00001000
00010000
,
00001000
00000100
00000001
00001000
00000000
00000100
00000000
00000010
,
00000001
00001000
00000001
00001000
,
00000001
00000010
00001000
00010000
00000000
00100000
00000000
10000000
,
00010000
10000000
00010000
10000000
,
01000000
10000000
00010000
01000000
00000000
00100000
00000000
00010000
,
00001000
00010000
00001000
00010000
,
00022000
00000000
00000000
00033000
,
00011000
00010000
00011000
00010000
,
00010000
00000000
00000000
00001100
,
00001010
00001100
00001010
00001001
,
00000220
00000000
00000000
00000330
,
00011000
00101000
00011000
00101000
,
01001000
00000000
00000000
10010000
,
01000000
00100000
01000000
00100000
,
20020000
00000000
00000000
30030000
;

//---------------dance-double - ----------------
#NOTEDATA:;
#CHARTNAME:;
#STEPSTYPE:dance-double;
#DESCRIPTION:;
#CHARTSTYLE:;
#DIFFICULTY:Hard;
#METER:12;
#RADARVALUES:0.495987,0.593617,0.319256,0.339210,0.104756,348.000000,316.000000,32.000000,34.000000,0.000000,0.000000,0.000000,0.000000,0.000000,0.495987,0.593617,0.319256,0.339210,0.104756,348.000000,316.000000,32.000000,34.000000,0.000000,0.000000,0.000000,0.000000,0.000000;
#CREDIT:;
#DISPLAYBPM:173.000000;
#NOTES:
00000000
00000000
00000000
00000000
,
00000000
00000000
00000000
00000000
,
00000000
00000000
00000000
00000000
,
00000000
00000000
00000000
00000000
,
00000000
00000000
00000000
00000000
,
00000000
00000000
00000000
00000000
,
00000000
00000000
00000000
00000000
,
00000000
00000000
00000000
00000000
,
10000000
00000000
00000000
00000000
00100000
00000000
00000000
10000000
00000000
00000000
01000000
00000000
00010000
00000000
00000000
00000000
,
00001000
00000000
00000000
00000000
00000100
00000000
00000000
00000001
00000000
00000000
00000010
00000000
00000001
00000000
00000000
00000000
,
00000100
00000000
00000000
00000000
00001000
00000000
00000000
00010000
00000000
00000000
00100000
00000000
10000000
00000000
00000000
00000000
,
01000000
00000000
00000000
00000000
00010000
00000000
00000000
00001000
00000000
00000000
00000010
00000000
00000001
00000000
00000000
00000000
,
00000100
00000000
00000000
00000000
00001000
00000000
00000000
00010000
00000000
00000000
00100000
00000000
00010000
00000000
00000000
00000000
,
00001000
00000000
00000000
00000000
00000100
00000000
00000000
00001000
00000000
00000000
00010000
00000000
01000000
00000000
00000000
00000000
,
00010000
00000000
00000000
00000000
00001000
00000000
00000000
00000010
00000000
00000000
00001000
00000000
00010000
00000000
00000000
00000000
,
00022000
00000000
00000000
00000000
00030000
00013000
00001000
00010000
,
00002000
00000000
00000000
02003000
00000000
00000000
03200000
00000000
,
00320000
00000000
00000000
00230000
00000000
00000000
20300000
00000000
,
32000000
00000000
00000000
03020000
00000000
00000000
00030200
00000000
,
00000320
00000000
00000000
00002030
00000000
00000000
00003020
00000000
,
00000032
00000000
00000000
00000203
00000000
00000000
00002300
00000000
,
00203000
00000000
00000000
02300000
00000000
00000000
03200000
00000000
,
00301000
00010000
00000100
00000010
00000100
00010000
00001000
00000000
,
00010000
00001000
00100000
01000000
00100000
00001000
00010000
00000000
,
00011000
00000000
00000000
00000000
,
00000011
00000000
00000000
00000000
,
00011000
00000000
00000000
00000000
,
11000000
00000000
00000000
00000000
,
00000000
00000000
00000000
00000000
,
00000000
00000000
00000000
00000100
00000000
00000100
00000000
00000100
,
00000000
00000100
00000010
00000001
00001000
00000010
00000100
00001000
,
00001100
00000000
00000001
00000010
00001000
00000100
00010000
00000000
,
00011000
00000000
00001000
01000000
00010000
00100000
10000000
00100000
,
00010000
00000000
01000000
00100000
10000000
01000000
00010000
00000000
,
00011000
00000000
00001000
00000100
00000001
00000010
00000100
00000010
,
00000001
00000000
00001000
00000100
00000010
00001000
00010000
00000000
,
00011000
00000000
00001000
00010000
01000000
00100000
00010000
00100000
,
01000000
00000000
10000000
00010000
00100000
00001000
00010000
00000000
,
00011000
00000000
00001000
00010000
00000010
00001000
00000001
00001000
,
00000200
00000000
00020300
00000000
02030000
00000000
13000000
01000000
,
00010000
01000000
10000000
00200000
00000000
00320000
00000000
00031000
,
00011000
00000000
00001010
00000000
00000110
00000000
00000010
00001000
,
00000100
00000010
00000001
00001001
00000000
00000110
00000000
00001000
,
00000020
00000000
00002030
00000000
00203000
00000000
10300000
00100000
,
00010000
00100000
10000000
02000000
00000000
03020000
00000000
00031000
,
00011000
00000000
00001100
00000000
00000110
00000000
00000100
00001000
,
00000010
00000100
00000001
00001001
00000000
00000110
00000000
00000001
,
00000100
00000000
00010000
00000000
00000100
00000000
00000001
00000100
,
00001000
00000100
00000010
00001000
00000000
00000001
00000000
00001000
,
00000100
00000000
00000000
00000100
00010000
00000000
00000000
00010000
00001000
00000000
00000000
00001000
01000000
00000000
00000000
01000000
,
00010000
00100000
10000000
00010000
01000000
10000000
00010000
00100000
,
01000000
00000000
00001000
00000000
01000000
00000000
10000000
01000000
,
00010000
01000000
00100000
00010000
00000000
10000000
00000000
00010000
,
10000000
00000000
00000000
10000000
01000000
00000000
00000000
01000000
00010000
00000000
00000000
00010000
00001000
00000000
00000000
00001000
,
00000100
00000001
00001000
00000010
00000001
00001000
00000100
00000001
,
00000010
00000000
00000101
00000000
00000011
00000000
00000100
00001000
,
00000010
00010000
00000200
00001000
00000000
00010000
00000000
00001300
,
00000100
00000000
00001100
00000000
00011000
00000000
00010000
01000000
,
00100000
00010000
02000000
00001000
00000000
00010000
00000000
03001000
,
01000000
00000000
10010000
00000000
01100000
00000000
00010000
10000000
,
01000000
00100000
01000000
00020000
00000000
00032000
00000000
00013000
,
00001000
00001100
00000101
00000011
,
00001010
00001000
00010000
00100000
01000000
00010000
10000000
00000000
,
10000000
00000000
00000000
00000000
00100000
00000000
00000000
10000000
00000000
00000000
01000000
00000000
00010000
00000000
00000000
00000000
,
00001000
00000000
00000000
00000000
00000100
00000000
00000000
00000001
00000000
00000000
00000010
00000000
00000001
00000000
00000000
00000000
,
00000100
00000000
00000000
00000000
00001000
00000000
00000000
00010000
00000000
00000000
00100000
00000000
10000000
00000000
00000000
00000000
,
01000000
00000000
00100000
00001000
00010000
00000010
00010000
00000000
,
00011000
00000000
00000000
00000000
00001000
00000000
00000000
00010000
00000000
00000000
00100000
00000000
00010000
00000000
00000000
00000000
,
00001000
00000000
00000000
00000000
00000100
00000000
00000000
00001000
00000000
00000000
00010000
00000000
01000000
00000000
00000000
00000000
,
00010000
00000000
00000000
00000000
00001000
00000000
00000000
00000010
00000000
00000000
00001000
00000000
00010000
00000000
00000000
00000000
,
00011000
00000000
00000000
00000000
;

//---------------dance-single - ----------------
#NOTEDATA:;
#CHARTNAME:;
#STEPSTYPE:dance-single;
#DESCRIPTION:;
#CHARTSTYLE:;
#DIFFICULTY:Challenge;
#METER:15;
#RADARVALUES:0.739705,0.917612,0.009977,0.039907,0.693384,519.000000,518.000000,1.000000,4.000000,0.000000,0.000000,0.000000,0.000000,0.000000,0.739705,0.917612,0.009977,0.039907,0.693384,519.000000,518.000000,1.000000,4.000000,0.000000,0.000000,0.000000,0.000000,0.000000;
#CREDIT:;
#DISPLAYBPM:174.000000;
#NOTES:
// measure 0
0000
0000
0000
0000
,  // measure 1
0000
0000
0000
0000
,  // measure 2
0000
0000
0000
0000
,  // measure 3
0000
0000
0000
0000
,  // measure 4
0000
0000
0000
0000
,  // measure 5
0000
0000
0000
0000
,  // measure 6
0000
0000
0000
0000
,  // measure 7
0000
0000
0000
0000
,  // measure 8
0000
0000
0000
0000
,  // measure 9
0010
0000
1000
0000
0100
0000
0010
0001
0000
0010
0001
0000
1000
0000
0000
0000
,  // measure 10
0100
0000
0001
0000
0010
0000
0100
1000
0000
0100
1000
0000
0001
0000
0000
0000
,  // measure 11
0100
0000
0001
0000
1000
0000
0010
0100
0000
0010
0100
0000
0001
0000
0000
0000
,  // measure 12
0010
0000
0001
0000
1000
0000
0100
0010
0000
0100
0010
0000
0001
0000
0000
0000
,  // measure 13
0100
0000
0001
0000
1000
0000
0100
0010
0000
0100
0010
0000
0001
0000
0000
0000
,  // measure 14
0100
0000
0001
0000
1000
0000
0010
1000
0000
0010
1000
0000
0100
0000
0000
0000
,  // measure 15
1000
0000
0001
0000
0010
0000
0001
0100
0000
0001
0100
0000
0010
0000
0000
0000
,  // measure 16
1000
0001
0010
0100
1000
0010
0100
0001
,  // measure 17
0010
0000
0100
0000
1000
0000
0001
0100
0001
0100
0001
0000
1000
0000
0000
0000
,  // measure 18
0010
0000
1000
0000
0100
0000
1000
0001
1000
0001
1000
0000
0010
0000
0000
0000
,  // measure 19
0100
0000
0001
0000
0010
0000
0100
1000
0100
1000
0100
0000
0010
0000
0000
0000
,  // measure 20
0001
0000
1000
0000
0100
0000
0010
0001
0010
0001
0010
0000
0100
0000
0000
0000
,  // measure 21
0010
0000
0100
0000
1000
0000
0001
0100
0001
0100
0001
0000
0010
0000
0000
0000
,  // measure 22
0100
0000
0010
0000
0001
0000
1000
0010
1000
0010
1000
0000
0100
0000
0000
0000
,  // measure 23
1000
0000
0001
0000
0010
0000
0100
0010
0100
0010
0100
0000
1000
0000
0000
0000
,  // measure 24
0001
0000
1000
0000
0010
0000
0100
0001
0000
0010
0100
0000
1000
0001
0000
0100
,  // measure 25
0010
1000
0100
0010
,  // measure 26
0002
0000
0000
0000
0000
0103
0020
0000
,  // measure 27
0000
0000
0000
0000
,  // measure 28
0000
1030
0000
0100
0000
1000
0000
0001
,  // measure 29
0000
0010
0000
0100
0000
0010
0000
0001
,  // measure 30
0000
0100
0000
0001
0000
1000
0000
0010
,  // measure 31
0000
1000
0001
0010
0001
1000
0001
0100
,  // measure 32
0010
0000
1000
0000
0001
0000
0100
0010
1000
0010
0100
0000
0001
0000
1000
0000
,  // measure 33
0100
0000
0010
0000
0001
0000
1000
0010
0100
0010
1000
0000
0001
0000
0000
0000
,  // measure 34
1000
0000
0001
0000
0100
0000
0010
0100
0001
0100
0010
0000
1000
0000
0001
0000
,  // measure 35
0010
0000
0100
0000
1000
0000
0001
0010
0100
0010
0001
0000
1000
0000
0000
0100
,  // measure 36
0010
0000
0001
0000
1000
0000
0010
0100
0001
0100
0010
0000
1000
0000
0100
0000
,  // measure 37
0010
0000
0100
0000
0010
0000
0001
1000
0100
1000
0001
0000
0100
0000
0000
0010
,  // measure 38
1000
0000
0100
0000
0010
0000
0001
0010
0100
0010
0001
0000
1000
0000
0001
0000
,  // measure 39
0100
0000
0010
0000
1000
0000
0001
1000
0100
1000
0001
0000
0010
0000
0000
0000
,  // measure 40
0001
0000
0100
0000
0010
0000
0100
0001
1000
0001
0010
0000
0100
0000
1000
0000
,  // measure 41
0010
0000
1000
0000
0100
0000
0010
0100
0010
0001
1000
0000
0010
0000
0100
0000
,  // measure 42
0010
0000
1000
0000
0001
0000
1000
0100
0010
0001
1000
0000
0001
0000
0100
0000
,  // measure 43
0010
0000
1000
0000
0001
0000
0010
0001
1000
0100
0010
0000
0100
0000
1000
0000
,  // measure 44
0001
0000
1000
0000
0100
0000
0010
0100
0010
0001
1000
0000
0100
0000
0010
0000
,  // measure 45
0001
0000
1000
0000
0001
0000
0010
0100
1000
0001
1000
0000
0010
0000
0100
0000
,  // measure 46
0001
0010
0001
1000
0001
0100
0010
1000
,  // measure 47
0100
1000
0100
1000
0010
0100
0010
0100
0001
0010
0001
1000
0010
0100
0001
0000
,  // measure 48
0010
0000
0000
0000
0001
0000
1000
0100
0000
1000
0100
0000
1000
0010
0000
0100
,  // measure 49
0001
0000
0010
0000
0100
1000
0001
0000
0100
0010
1000
0000
0100
0000
0010
0001
,  // measure 50
1000
0000
0000
0000
0010
0000
0100
0001
0000
0100
0001
0000
0100
0010
0000
1000
,  // measure 51
0100
0000
0010
0000
0100
1000
0001
0000
0010
0001
1000
0000
0001
0000
0100
0010
,  // measure 52
1000
0000
0000
0000
0001
0000
1000
0010
0000
1000
0010
0000
0100
0001
0000
0010
,  // measure 53
0100
0000
1000
0000
0010
0100
0001
0000
1000
0001
1000
0000
0010
0000
0100
0001
,  // measure 54
0010
0000
0000
0000
0100
0000
1000
0001
0000
1000
0001
0000
0010
0001
0000
0100
,  // measure 55
0010
0000
1000
0000
0100
0000
1000
0010
0000
0100
0001
0000
0010
0100
0000
1000
,  // measure 56
0001
0000
0100
0000
0001
0000
0010
0100
0000
1000
0010
0000
1000
0001
0000
0100
,  // measure 57
0001
0000
0010
0000
0100
0000
0010
0001
0000
1000
0001
0000
1000
0100
0000
1000
,  // measure 58
0010
0000
0100
0000
0010
0000
1000
0100
0000
1000
0001
0000
0010
0001
0000
0100
,  // measure 59
0001
0000
1000
0000
0010
0000
1000
0100
0000
0010
0001
0000
0100
0001
0000
1000
,  // measure 60
0010
0000
1000
0000
0001
0000
0010
0100
0000
0010
0001
0000
1000
0100
0000
1000
,  // measure 61
0010
0000
1000
0000
0001
0000
1000
0100
0000
0010
0100
0000
1000
0001
0000
0010
,  // measure 62
0001
0000
0100
0000
0010
0000
1000
0000
0001
0000
0010
0000
0100
1000
0100
0000
,  // measure 63
1000
0001
1000
0001
0010
0001
0010
0001
0100
0010
0100
0010
1000
0100
1000
0100
,  // measure 64
1000
0000
0000
0000
0001
0000
0100
0010
0000
0100
0001
0000
0010
0000
0000
0000
,  // measure 65
0100
0000
0000
0000
1000
0000
0001
0010
0000
0001
0100
0000
0010
1000
0000
0001
,  // measure 66
0100
0000
0000
0000
0001
0000
0010
0100
0000
1000
0010
0000
0100
0000
0000
0000
,  // measure 67
0001
0000
1000
0010
1000
0001
0100
0000
,  // measure 68
0220
0000
0000
0000
,  // measure 69
0000
0000
0000
0000
,  // measure 70
0000
0000
0000
0330
;
