#TITLE:ITORINO;
#SUBTITLE:;
#ARTIST:DJ TOTTO;
#TITLETRANSLIT:;
#SUBTITLETRANSLIT:;
#ARTISTTRANSLIT:;
#GENRE:;
#CREDIT:;
#BANNER:ITORINO-bn.png;
#BACKGROUND:ITORINO-bg.png;
#LYRICSPATH:;
#CDTITLE:;
#MUSIC:ITORINO.ogg;
#OFFSET:1.034000;
#SAMPLESTART:10.000000;
#SAMPLELENGTH:20.000000;
#LASTBEATHINT:0.098600;
#SELECTABLE:YES;
#DISPLAYBPM:174.000000;
#BPMS:0.000000=174.000000
;
#STOPS:
;
#BGCHANGES:;
#KEYSOUNDS:;
#ATTACKS:;

//---------------dance-single - ----------------
#NOTES:
     dance-single:
     :
     Hard:
     12:
     0.616715,0.692939,0.310971,0.777427,0.411579,472.000000,438.000000,34.000000,85.000000,0.000000,0.000000,0.616715,0.692939,0.310971,0.777427,0.411579,472.000000,438.000000,34.000000,85.000000,0.000000,0.000000:
0000
0000
0000
0000
,
0000
0000
0000
0000
,
0000
0000
0000
0000
,
0000
0000
0000
0000
,
0000
0000
0000
0000
0000
0000
0000
0000
0001
0000
0000
0001
0000
0000
0010
0000
,
0200
0000
0000
0000
1300
0000
0000
1000
0000
0000
0010
0000
0200
0000
0000
0000
,
0301
0000
0100
0000
0010
0000
0000
0010
0000
0000
1000
0000
0002
0000
0000
0000
,
0103
0000
0000
0100
0000
0000
0001
0000
2000
0000
0000
0000
3001
0000
0010
0000
,
0100
1000
0010
0100
0010
1000
0010
0001
,
0200
0000
0000
0000
0300
0000
0001
1000
0002
0000
0000
0000
0003
0000
1000
0001
,
2000
0000
3010
0200
0000
0301
0020
0000
,
1000
0000
0130
0010
0001
0100
0001
1000
,
0020
0000
1030
0002
0000
0013
0200
0000
,
0001
0000
0000
0000
1300
0000
0010
0100
0010
0000
1000
0000
0100
0000
0001
0000
,
0200
0000
1300
0020
0000
0130
0002
0000
,
0013
0000
0000
0001
2000
0000
0000
0000
3100
0000
0010
0000
0001
1000
0001
1000
,
0001
0000
0000
0010
0000
0000
0100
0000
2000
0000
0000
0000
3010
0000
0000
0100
,
0000
0000
0001
0000
2000
0000
0000
0000
3010
0000
0000
0000
1001
0000
0001
0100
,
0002
0000
0000
0000
1003
0000
0200
0000
0000
0000
1300
0000
0010
0000
0100
0001
,
0200
0010
0310
0000
1000
0001
1000
0100
,
0020
0000
0031
2000
0000
3001
0200
0000
,
0010
0000
0010
0000
0310
0000
0100
1000
0100
0000
0001
0000
0100
0000
1000
0000
,
0002
0000
0000
0000
0013
0000
1000
0001
2000
0000
0000
0000
0010
0000
0000
0000
,
0100
0000
3001
0000
0120
0100
0130
0000
,
0001
0000
0000
1000
0000
0000
0001
0000
0020
0000
0000
0000
0130
0000
0000
1000
,
0000
0010
0200
0000
0301
0000
1010
0000
,
0010
0000
1000
0000
0001
0000
1000
0000
0100
0000
0010
0000
,
0001
0000
1000
0000
0001
0000
0200
0000
0000
0000
0310
0000
,
0100
0000
0001
0000
1000
0000
0001
0000
0010
0000
0100
1000
,
0200
0000
0000
0310
0000
0000
0001
0000
1000
0002
0000
0000
,
1003
0000
0001
0000
1000
0000
0010
0000
0100
0000
0001
0000
,
0010
0000
0100
0000
1000
0000
0010
0000
0100
0000
0010
0000
,
1000
0000
0100
0000
0001
0010
0002
0000
0000
0003
0000
0000
,
0001
0000
1000
0000
0010
0100
0020
0000
0000
0030
0000
0000
,
0001
0000
0100
0000
0010
0000
1000
0000
0001
0000
1000
0000
,
0100
0000
0010
0000
0001
0000
0202
0000
0000
0303
0000
0000
,
1000
0000
0001
0000
0100
0000
0001
0000
1000
0000
0010
0100
,
0020
0000
0000
1000
0000
0000
0001
0000
0000
1030
0100
1000
,
0002
0000
0000
0003
0010
0100
2000
0000
0000
3000
0001
1000
,
0002
0000
0000
0003
1000
0100
0010
0000
0010
0100
0000
0100
,
2000
0000
0000
0000
0010
0000
0000
0000
0001
0000
0000
0000
3100
0000
1000
0001
,
1000
0010
0100
0001
0010
0010
0010
0100
,
1100
0000
1000
0010
0100
0001
0022
0000
,
0000
0000
0000
0000
0033
0000
1000
0001
1000
0000
0100
0000
0100
0000
0100
0000
,
0110
0000
0001
0100
0010
1000
2200
0000
,
0000
0000
0000
0000
3300
0000
0001
1000
0001
0000
0100
0000
0100
0000
0100
0000
,
0101
0000
0010
1000
0001
0100
2002
0000
,
0000
0000
0000
0000
3003
0000
0010
0100
0010
0000
1000
0000
0001
0000
0100
0000
,
0000
0000
2010
0000
0000
0001
0000
0000
0010
0000
0000
0001
0000
0000
3100
1000
,
0100
0010
0001
0100
1000
1000
1000
0001
,
0011
0000
0001
1000
0010
0100
0202
0000
,
0000
0000
0000
0000
0303
0000
0001
0010
0001
0000
1000
0000
1000
0000
1000
0000
,
1001
0000
0010
0100
0001
1000
2020
0000
,
0000
0000
0000
0000
3030
0000
0001
0010
0001
0000
0100
0000
0100
0000
0100
0000
,
0110
0000
0010
1000
0001
0100
0220
0000
,
0000
0000
0000
0000
0330
0000
0010
1000
0010
0000
0100
0000
0001
0000
1000
0000
,
0000
0000
0012
0000
0000
1000
0000
0000
0010
0000
0000
0100
0000
0000
0013
0001
,
0010
0100
1000
0001
0200
0000
0300
0000
,
2001
0000
0010
0000
3010
0100
0010
0100
,
0001
0000
0010
0000
0100
0000
2000
0000
0000
0000
3001
0000
1000
0000
0010
0100
,
0020
0000
1000
0000
1030
0001
1000
0001
,
0010
0000
0001
0000
0100
0000
0020
0000
1030
0000
2200
0000
0000
3300
0000
0000
,
0021
1000
0001
1000
,
0031
0100
0010
1000
0100
0001
0100
0010
,
0001
0000
0100
0000
0010
0000
2000
0000
0000
0000
3100
0000
0010
0000
0001
1000
,
0001
1000
0010
0210
0000
0301
0100
0010
,
1020
0000
1030
0010
0210
0000
0301
0100
,
2001
0000
3010
0100
0201
0000
0301
1000
,
1200
0000
1300
0001
0021
0000
0130
0010
,
0120
0000
0031
0100
2001
0000
3010
1000
,
0001
0000
0000
0001
1000
0000
0000
1000
0010
0000
0000
0010
0100
0000
0000
0100
,
0020
0000
0000
0000
2000
0000
0000
0000
3030
0000
0001
0100
0002
0000
0000
0000
,
0013
0100
0001
0100
1000
0010
1000
0001
,
1020
0000
0130
2002
0000
0000
3003
0000
,
1200
0302
0023
2030
,
3100
0000
0100
0000
0100
0000
0010
0000
0010
0000
0010
0000
,
0022
0000
0000
0000
,
0000
0000
0000
0000
,
0000
0000
0000
0000
,
0000
0000
0000
0033
;

//---------------dance-single - ----------------
#NOTES:
     dance-single:
     :
     Medium:
     9:
     0.484749,0.656469,0.548772,0.713404,0.077743,371.000000,311.000000,60.000000,78.000000,0.000000,0.000000,0.484749,0.656469,0.548772,0.713404,0.077743,371.000000,311.000000,60.000000,78.000000,0.000000,0.000000:
0000
0000
0000
0000
,
0000
0000
0000
0000
,
0000
0000
0000
0000
,
0000
0000
0000
0000
,
0000
0000
0000
0000
0001
0010
0000
0001
,
0010
0000
0100
1000
0000
0100
1000
0000
,
0010
0100
0001
0100
0000
0001
0100
0000
,
0010
1000
0000
0010
1000
0000
0001
1000
,
0001
0000
0010
0100
1000
0000
1000
0001
,
0200
0000
0000
0000
0020
0000
0330
1000
,
0002
0000
0000
0023
0000
0000
0230
0000
,
0000
0000
0300
0000
1000
0001
1000
0010
,
0200
0000
0000
0320
0000
0000
2030
0000
,
0000
0000
3000
0001
1000
0001
0010
0100
,
0020
0000
0000
0032
0000
0000
2003
0000
,
0000
0000
0000
0000
3010
0100
0010
0000
,
1000
0100
0000
1000
0100
0000
0010
0001
,
0000
0010
0001
0000
1001
0000
0110
0000
,
2000
0000
0000
3002
0000
0000
0003
0010
,
0200
0000
0300
0000
1000
0010
0100
0001
,
0020
0000
0000
0230
0000
0000
2300
0000
,
0000
0000
3000
0010
1000
0001
0010
0100
,
2000
0000
0000
3001
0200
0000
0010
0000
,
1000
0301
0102
1003
,
0001
0100
0000
0001
0100
0000
0010
1000
,
0000
0010
1000
0000
1100
0000
0011
0000
,
1000
1010
0001
0011
,
0001
0000
0100
0000
0010
0000
2000
0000
0000
3000
0000
0000
,
0100
0000
0000
1001
0000
0000
0010
0000
1000
0000
0001
0000
,
0200
0010
1000
0301
,
0100
0101
0001
0011
,
1000
1100
0010
1010
,
1000
0000
0100
0000
0010
0000
0002
0000
0000
0003
0000
0000
,
0001
0000
0010
0000
0100
0000
2000
0000
0000
3000
0000
0000
,
1001
1100
1001
0101
,
0001
0000
1000
0000
0100
0000
0020
0000
0000
0030
0000
0000
,
0011
0000
0000
1100
0000
0000
1000
0000
0010
0000
0100
0000
,
0002
0000
0000
0000
0000
0000
0000
0000
0000
1003
0000
1000
,
0200
0000
0000
0300
0000
0010
0002
0000
0000
0003
0000
1000
,
0020
0000
0000
0030
0000
0000
1000
0000
1000
0001
0000
0001
,
0200
0010
1000
0301
,
1000
0100
0010
0001
0100
0010
0100
0010
,
2000
0000
3100
0010
0001
0000
2020
0000
,
0000
0000
3030
0000
1000
0100
0010
0000
,
0002
0000
1003
0010
0100
0000
0202
0000
,
0000
0000
0303
0001
0010
0100
1000
0000
,
0020
0000
1030
0001
0100
0000
2002
0000
,
0000
0000
3003
0000
1000
0100
0010
0001
,
0000
0021
0000
1000
0000
0001
0000
0130
,
0010
0100
1000
0001
0100
0010
0100
0010
,
2000
0000
3001
0010
0100
0000
2200
0000
,
0000
0000
3300
1000
0001
0010
0100
0000
,
0020
0000
0031
0100
1000
0000
0022
0000
,
0000
0000
0033
0100
0010
1000
0001
0000
,
0200
0000
0310
1000
0001
0000
0220
0000
,
0000
0000
0330
0001
1000
0010
1000
0001
,
0000
1020
0000
0001
0000
1000
0000
0130
,
0001
0010
0100
1000
0002
0000
0003
0000
,
1001
1001
1001
1001
,
1100
1100
1100
1100
,
0011
0011
0011
0011
,
1000
0001
0100
0020
0000
0130
0000
0000
,
0110
0110
0110
0110
,
0101
0101
0101
0101
,
1010
1010
1010
1010
,
1000
0001
0010
0100
0000
1000
0001
0000
,
0012
1003
2100
3001
,
0210
0310
1002
0103
,
2010
3100
0012
0013
,
1002
1003
1200
0301
,
2000
3002
0203
0320
,
2030
0000
0200
0000
3300
0010
0002
0000
,
2003
3020
0230
0302
,
0023
0000
0032
2000
0000
0000
3003
0000
,
2200
0000
0000
3300
,
1000
0010
0100
0001
,
0022
0000
0000
0000
,
0000
0000
0000
0000
,
0000
0000
0000
0000
,
0000
0000
0000
0033
;

//---------------dance-single - ----------------
#NOTES:
     dance-single:
     :
     Easy:
     7:
     0.310971,0.364705,0.164632,0.521334,0.000000,238.000000,220.000000,18.000000,57.000000,0.000000,0.000000,0.310971,0.364705,0.164632,0.521334,0.000000,238.000000,220.000000,18.000000,57.000000,0.000000,0.000000:
0000
0000
0000
0000
,
0000
0000
0000
0000
,
0000
0000
0000
0000
,
0000
0000
0000
0000
,
0000
0000
0001
0100
,
0010
1000
0100
0010
,
0001
1000
0010
0100
,
0001
0010
0100
1000
,
0010
0010
1000
0001
,
2002
0000
0000
3003
,
0001
0000
0000
1000
0000
0000
0020
0000
,
0000
0000
0100
0130
,
0001
0000
0000
0010
0000
0000
0200
0000
,
0000
0000
1000
1300
,
0100
0000
0000
1000
0000
0000
0002
0000
,
0000
0000
0000
0003
,
1000
0001
0010
0001
,
1000
0010
0100
0100
,
0002
0000
0000
1003
0000
0000
0000
0000
,
0020
0000
1000
1030
,
0010
0000
0000
1000
0000
0000
0200
0000
,
0000
0000
0010
0310
,
0002
0000
2003
0010
,
0100
3010
0220
0330
,
0001
1000
0010
1000
,
0001
0010
0100
0100
,
1000
1000
0001
0001
,
0100
0010
0200
0300
,
0001
0010
0001
0100
,
2000
0000
0000
3000
,
0010
0010
1000
1000
,
0100
0100
0001
0001
,
0010
0001
0200
0300
,
0010
1000
0200
0300
,
1000
1000
0001
0001
,
0010
0100
0020
0030
,
0001
0100
0010
1000
,
0002
0000
0000
0013
,
2002
3003
0220
0330
,
2002
3003
1000
0100
,
0220
0000
0000
0330
,
0001
0010
1000
0100
,
0010
0001
0100
2000
,
0000
0000
3001
0100
,
0001
1000
0100
0020
,
0000
0000
0130
1000
,
0010
0100
1000
0002
,
0000
0000
0103
0010
,
0000
2002
0000
0000
0000
0000
3003
0000
,
0010
1000
0100
0001
,
0010
0001
1000
0200
,
0000
0000
1300
0001
,
1000
0010
0100
0002
,
0000
0000
0013
0100
,
1000
0001
0100
0020
,
0000
0000
0130
0001
,
0000
0220
0000
0000
0000
0000
0330
0000
,
1000
0001
0020
0030
,
0001
0001
0001
0001
,
1000
1000
1000
1000
,
0010
0010
0010
0010
,
0100
0100
0100
0100
,
0001
0001
0001
0001
,
0010
0010
0010
0010
,
0100
0100
0100
0100
,
1000
1000
1000
1000
,
2200
3300
0022
0033
,
0202
0303
2020
3030
,
2200
3300
0022
0033
,
0202
0303
2020
3030
,
1000
1000
1000
1000
,
0010
0010
0010
0010
,
0100
0100
0100
0100
,
0001
0001
0001
0001
,
0220
0000
0000
0330
,
0001
0001
1000
1000
,
2002
0000
0000
0000
,
0000
0000
0000
0000
,
0000
0000
0000
0000
,
0000
0000
0000
3003
;

//---------------dance-single - ----------------
#NOTES:
     dance-single:
     :
     Beginner:
     3:
     0.142419,0.208533,0.054877,0.000000,0.000000,109.000000,103.000000,6.000000,0.000000,0.000000,0.000000,0.142419,0.208533,0.054877,0.000000,0.000000,109.000000,103.000000,6.000000,0.000000,0.000000,0.000000:
0000
0000
0000
0000
,
0000
0000
0000
0000
,
0000
0000
0000
0000
,
0000
0000
0000
0000
,
0000
0000
0001
0000
,
0000
1000
0000
0000
,
0000
0010
0000
0000
,
0100
0000
0000
0000
,
0001
0000
0001
0000
,
1001
0000
0000
0000
,
1000
0000
0000
0010
,
0000
0000
0000
0000
,
0100
0000
0000
0010
,
0000
0000
0000
0000
,
1000
0000
0000
0001
,
0000
0000
0000
0000
,
0010
0000
0000
0010
,
0000
0000
0010
0000
,
0001
0000
1000
0000
,
0100
0000
0000
0000
,
0010
0000
0000
0001
,
0000
0000
0000
0000
,
1000
0000
1000
0000
,
0000
0000
1001
0000
,
0010
0000
0000
0010
,
0000
0000
0010
0000
,
1000
0000
1000
0000
,
0010
0000
0010
0000
,
0100
0000
0001
0000
,
1000
0000
0000
0000
,
0001
0000
0001
0000
,
0010
0000
0010
0000
,
0100
0000
0100
0000
,
1000
0000
1000
0000
,
0010
0000
1000
0000
,
0010
0000
0100
0000
,
0001
0000
1000
0000
,
0001
0000
0000
0000
,
0010
0000
0010
0000
,
0010
0000
0001
0000
,
1001
0000
0000
0000
,
1000
0000
0000
0000
,
0010
0000
0000
0100
,
0000
0000
0000
0000
,
0001
0000
0000
1000
,
0000
0000
0000
0000
,
0100
0000
0000
0010
,
0000
0000
0001
0000
,
1000
0000
0000
0000
,
0010
0000
0100
0000
,
0001
0000
0000
0010
,
0000
0000
0000
0000
,
1000
0000
0000
0001
,
0000
0000
0000
0000
,
0100
0000
0000
0010
,
0000
0000
0100
0000
,
1001
0000
0000
0000
,
0010
0000
0100
0000
,
0001
0000
0000
0000
,
1000
0000
0001
0000
,
0100
0000
0000
0000
,
0010
0000
0010
0000
,
1000
0000
0000
0000
,
0001
0000
0010
0000
,
0001
0000
1000
0000
,
0100
0000
0010
0000
,
0001
0000
0000
0000
,
0100
0000
0000
0000
,
0010
0000
0000
0000
,
1000
0000
0000
0000
,
0010
0000
0010
0000
,
0100
0000
0100
0000
,
0001
0000
1000
0000
,
0100
0000
0000
0000
,
1001
0000
0000
0000
,
0010
0000
0010
0000
,
1001
0000
0000
0000
;

//---------------dance-single - ----------------
#NOTES:
     dance-single:
     :
     Challenge:
     17:
     1.046587,1.130585,0.731696,0.567065,1.298761,801.000000,721.000000,80.000000,62.000000,0.000000,0.000000,1.046587,1.130585,0.731696,0.567065,1.298761,801.000000,721.000000,80.000000,62.000000,0.000000,0.000000:
// measure 0
0000
0000
0000
0000
,  // measure 1
0000
0000
0000
0000
,  // measure 2
0000
0000
0000
0000
,  // measure 3
0000
0000
0000
0000
,  // measure 4
0000
0000
0000
0000
0000
0000
0000
0000
0001
0000
0010
0100
0000
0100
1000
0000
,  // measure 5
1020
0000
0000
0000
0130
0000
0001
1000
0000
1000
0100
0000
0210
0000
0000
0000
,  // measure 6
1300
0000
0001
0000
0010
0000
0001
1000
0000
1000
0100
0000
2100
0000
0000
0000
,  // measure 7
3001
0000
0100
0010
0000
0010
1000
0000
2001
0000
0000
0000
3010
0000
0100
0000
,  // measure 8
0001
0010
0100
1000
0000
0010
0000
0100
0000
0001
1000
0010
1000
0100
0010
0001
,  // measure 9
0200
0000
0000
0000
0300
0000
0001
1000
0002
0000
0000
0000
0003
0000
0010
0100
,  // measure 10
2000
0000
3010
0102
0000
0103
0021
0001
,  // measure 11
0031
0000
0000
1000
0100
0000
0010
0000
0001
0100
0001
0100
0010
1000
0100
0000
,  // measure 12
2100
0000
0000
3001
1000
0000
0201
0000
0000
0310
0100
0000
2010
0000
0001
0000
,  // measure 13
3001
0000
0000
0010
0100
0000
1000
0001
1000
0010
0100
0001
0010
0100
1000
0000
,  // measure 14
0011
0000
1000
0010
1000
0000
1100
0000
0001
0100
0001
0000
2001
0000
0100
0000
,  // measure 15
3100
0000
0000
1000
0001
0000
0110
0000
0010
1000
0001
0010
0001
0100
1000
0000
,  // measure 16
0010
0000
1000
0100
0000
0010
0001
0000
0102
0000
0000
0000
0013
0000
0001
0010
,  // measure 17
0000
0100
1000
0000
1020
0000
0000
0000
1030
0000
0001
0100
0001
0000
0010
0100
,  // measure 18
2000
0000
0000
0000
3010
0000
1001
0000
0001
0000
0010
0000
0100
0000
1000
0001
,  // measure 19
0100
0000
0010
0000
1000
0000
0001
0000
0010
0001
1000
0001
0010
0100
1000
0000
,  // measure 20
1010
0000
0001
0100
0010
0000
0110
0000
1000
0001
0100
0000
0101
0000
1000
0000
,  // measure 21
0001
0010
1000
0010
0001
0000
0100
0010
1000
0001
1000
0001
0010
0100
1000
0000
,  // measure 22
2100
0000
0001
0000
3001
0000
0010
0100
0002
0000
1000
0000
0100
0000
0010
0000
,  // measure 23
0100
0000
0100
0000
0103
0000
1000
0000
0011
0000
0001
0100
0010
1000
0100
0010
,  // measure 24
0001
0000
1000
0010
0000
1000
0100
0000
0201
0000
0000
0000
1300
0000
0001
0100
,  // measure 25
0000
0000
0000
0010
0000
0000
0100
0000
0000
0000
0000
0000
2010
0000
0000
0000
0000
0000
0000
0000
0000
0000
0000
0000
3001
0000
0000
0000
0100
0000
0000
0000
0001
0000
0000
0000
1000
0000
0000
0000
0100
0000
0000
0000
1000
0000
0000
0000
,  // measure 26
0001
0010
0001
0100
0010
1000
0100
0010
0100
1000
0001
1000
,  // measure 27
0020
0000
0001
0000
1030
0000
1200
0000
0001
0000
1300
0000
,  // measure 28
1010
0000
0101
0000
0011
0000
0110
0000
1000
0001
0010
0100
,  // measure 29
2000
0000
0010
0000
0010
0000
3001
0010
0100
2000
0000
0000
,  // measure 30
3001
0010
0001
1000
0100
1000
0001
0100
0001
1000
0010
1000
,  // measure 31
0200
0000
0001
0000
0010
0000
1000
0000
0010
0000
0301
0000
,  // measure 32
0100
0010
0001
0100
0010
1000
0002
0000
0010
0000
1003
0001
,  // measure 33
0010
0100
1000
0010
0100
0001
2000
0000
3100
1000
0001
0100
,  // measure 34
0010
0100
0001
1000
0001
1000
0100
0010
0001
0100
0010
1000
,  // measure 35
0001
0000
0011
0000
0110
0000
2100
0000
0010
0000
3100
0000
,  // measure 36
1001
0000
0011
0000
1100
0000
0101
0000
0010
1000
0100
0010
,  // measure 37
0002
0000
0100
0000
0100
0000
1003
0001
0100
0010
1000
0001
,  // measure 38
0020
0000
0000
0031
0100
0010
2000
0000
0000
3001
1000
0100
,  // measure 39
0020
0000
0000
0130
0010
0001
1000
0001
0100
0010
1000
0001
,  // measure 40
0010
0000
1000
0100
1000
0000
0001
0100
0001
0000
1000
0010
1000
0000
0001
0010
,  // measure 41
0001
0100
0010
1000
0001
0010
0100
1000
0010
0100
0010
0100
0001
1000
0100
0000
,  // measure 42
0110
0000
0010
0001
1000
0000
0100
0000
1100
0000
1001
0000
0102
0000
0000
0000
,  // measure 43
1000
0000
1000
0000
1003
0000
0001
0000
0010
0100
0010
0100
1000
0001
0100
0000
,  // measure 44
1001
0000
0001
0010
0100
0000
1000
0000
1010
0000
0110
0000
0201
0000
0000
0000
,  // measure 45
0010
0000
0010
0000
0310
0000
1000
0100
1000
0001
1000
0001
0010
0001
0100
0000
,  // measure 46
1010
0000
0010
1000
0001
0000
0100
0000
0110
0000
1001
0000
1200
0000
0000
0000
,  // measure 47
0001
0000
0001
0000
0301
0000
0100
1000
0010
0100
0001
0000
1000
0001
0100
0000
,  // measure 48
0010
0000
1100
0000
0000
0101
0000
0000
1100
0000
0000
0101
0000
0000
1000
0001
,  // measure 49
1000
0010
0100
0001
1000
0100
0010
0001
0100
0010
0100
0010
1000
0001
0010
0000
,  // measure 50
0011
0000
0001
1000
0010
0000
0100
0000
0101
0000
1010
0000
2100
0000
0000
0000
,  // measure 51
0010
0000
0010
0000
3010
0000
1000
0001
0010
0001
1000
0100
1000
0001
0100
0000
,  // measure 52
1001
0000
0010
0100
0001
0000
1000
0000
1100
0000
0110
0000
0021
0000
0000
0000
,  // measure 53
0100
0000
0100
0000
0130
0000
0010
0001
1000
0001
1000
0001
1000
0010
0100
0000
,  // measure 54
0101
0000
0001
0010
0100
0000
1000
0000
1001
0000
0101
0000
0012
0000
0000
0000
,  // measure 55
1000
0000
1000
0000
1003
0001
0010
0100
1000
0010
0100
0000
0001
0010
0001
0000
,  // measure 56
0100
0000
0101
0000
0000
1100
0000
0000
0101
0000
0000
1100
0000
0000
0001
1000
,  // measure 57
0001
0010
0100
1000
0010
1000
0001
1000
0200
0000
0000
0000
0310
0001
1000
0010
,  // measure 58
0100
0000
0000
0100
0001
0000
0000
0001
1000
0000
0020
0000
0230
0000
0302
0000
,  // measure 59
2003
0000
0100
0000
3001
0000
0020
0000
1000
0000
0130
0010
0001
0100
0010
1000
,  // measure 60
0001
0000
0000
0001
1000
0000
0000
1000
0001
0010
0001
0010
0100
1000
0001
0000
,  // measure 61
2000
0000
3002
0000
0023
0000
0230
0000
1300
0000
0210
0000
0301
0000
1000
0010
,  // measure 62
0100
0000
0000
0100
0010
0000
0000
0010
1000
0000
0000
1000
0001
0000
0000
0001
,  // measure 63
0010
0000
0001
1000
0010
0100
0010
0100
0001
0010
0100
1000
0001
0100
0010
0100
,  // measure 64
0002
0000
0023
0000
0230
0000
2300
0000
3010
0000
0200
0000
0301
0010
0001
1000
,  // measure 65
0200
0000
0320
0000
0032
0000
2003
0000
3010
0000
1000
0001
0010
0100
1000
0000
,  // measure 66
1010
0000
1010
0000
0001
1000
0100
0010
0001
0000
0011
0000
0010
0100
1000
0001
,  // measure 67
0100
0000
0110
0000
0010
1000
0100
0001
0100
0000
1100
0000
0001
1000
0001
0010
,  // measure 68
0100
0000
0011
0000
1000
0001
1000
0100
0010
0000
1001
0000
0100
0010
1000
0001
,  // measure 69
0010
0000
0110
0000
0100
0010
0001
1000
0100
0000
1010
0000
0010
0100
0001
1000
,  // measure 70
0001
0010
0001
0100
0001
0100
0001
0010
0001
0010
0001
0100
0001
0100
0001
0010
,  // measure 71
0100
0000
0000
0000
2100
0000
0000
0000
3001
1000
0100
1000
0002
0000
0000
0000
,  // measure 72
1003
0100
0001
1000
0010
0001
1000
0100
0001
1000
0010
0001
,  // measure 73
1001
0000
0100
0000
0010
0000
0101
0000
1000
0001
0010
0100
1000
0010
0100
0001
,  // measure 74
1000
0100
0001
0010
1000
0100
0001
0010
1000
0100
0001
0010
,  // measure 75
1000
1000
1000
0001
0001
0001
1000
0100
0010
0001
0100
0010
,  // measure 76
2000
0000
0000
0000
,  // measure 77
0000
0000
0000
0000
0000
0000
0000
0000
3001
0010
0200
0000
0000
0000
0000
0000
,  // measure 78
0000
0000
0000
0000
,  // measure 79
0000
0000
0000
0300
;
