#TITLE:INSIDE YOUR MIND;
#SUBTITLE:;
#ARTIST:Limahl;
#TITLETRANSLIT:;
#SUBTITLETRANSLIT:;
#ARTISTTRANSLIT:;
#GENRE:;
#CREDIT:;
#BANNER:INSIDE YOUR MIND-bn.png;
#BACKGROUND:INSIDE YOUR MIND-bg.png;
#LYRICSPATH:;
#CDTITLE:;
#MUSIC:INSIDE YOUR MIND.ogg;
#OFFSET:0.000000;
#SAMPLESTART:38.889000;
#SAMPLELENGTH:20.000000;
#SELECTABLE:YES;
#DISPLAYBPM:135.000000;
#BPMS:0.000000=135.000000
;
#STOPS:
;
#BGCHANGES:;
#KEYSOUNDS:;
#ATTACKS:;

//---------------dance-single - ----------------
#NOTES:
     dance-single:
     :
     Hard:
     9:
     0.408980,0.446839,0.154749,0.154749,0.256304,296.000000,280.000000,16.000000,16.000000,0.000000,0.000000,0.408980,0.446839,0.154749,0.154749,0.256304,296.000000,280.000000,16.000000,16.000000,0.000000,0.000000:
0000
0000
0000
0000
,
0000
0000
0000
0000
,
0000
0000
0000
0000
,
0000
0000
0000
0000
0000
0000
1000
0001
,
1000
0000
0000
0000
0010
0000
0000
0000
0100
0000
0001
1000
0000
0000
0000
0000
,
0010
0000
0000
0000
0100
0000
0000
0000
0010
0000
1000
0001
0000
0000
0000
0000
,
0010
0000
0000
0000
0100
0000
0000
0000
1000
0000
0001
0100
0000
0000
0000
0000
,
0001
0000
0000
0000
1000
0000
0000
0000
0100
0000
0010
0001
0000
0000
0000
0000
,
1000
0000
0000
0010
0000
0000
0100
0000
0001
0000
0000
0010
0000
0000
0100
0000
,
1000
0000
0000
0001
0000
0000
1000
0000
0010
0000
0000
0000
0101
0000
0000
0000
,
0010
0000
0000
0100
0000
0000
1000
0000
0010
0000
0000
0100
0000
0000
0001
0000
,
1000
0000
0000
0010
0000
0000
0100
0000
0001
1000
0001
0000
0000
0000
0000
0000
,
0010
0000
0000
0001
0000
0000
0100
0000
0001
0000
0000
1000
0000
0000
0010
0000
,
1000
0000
0000
0100
0000
0000
0010
0000
0001
0000
0000
0000
0000
0000
1000
0000
,
1000
0000
0000
0001
0000
0000
0010
0000
0100
0000
0000
0010
0000
0000
0100
0000
,
1000
0000
0000
0010
0000
0000
0100
0000
0001
0000
1000
0000
1100
0000
0000
0000
,
0010
0000
0000
0100
0000
0000
0001
0000
0100
0000
0000
0010
0000
0000
1000
0000
,
0100
0000
0000
1000
0000
0000
0001
0000
0010
0000
0000
0000
0101
0000
0000
0000
,
0010
0000
0000
0100
0000
0000
0001
0000
1000
0000
0000
0100
0000
0000
0001
0000
,
1000
0000
0000
0001
0000
0000
0100
0000
0010
0000
0000
0000
1100
0000
0000
0000
,
0001
0000
0000
0010
0000
0000
0001
0000
1000
0000
0000
0010
0000
0000
0100
0000
,
0010
0000
0000
1000
0000
0000
0100
0000
0001
0000
0000
0000
0000
0000
0010
0000
,
0010
0000
0000
0001
0000
0000
1000
0000
0100
0000
0000
0010
0000
0000
0001
0000
,
1000
0000
0000
0001
0000
0000
1000
0000
0020
0000
0000
0000
0230
0000
0000
0000
,
0301
0000
0000
0000
1000
0000
0100
0010
0000
0000
0000
0000
0000
0000
0001
0000
,
0100
0000
0000
0000
0010
0000
1000
0001
0000
0000
0000
0000
1001
0000
0000
0000
,
0100
0000
0000
0000
0001
0000
1000
0010
0000
0000
0000
0000
0000
0000
1000
0000
,
0100
0000
0000
0000
1000
0000
0001
0010
0000
0000
0000
0000
0110
0000
0000
0000
,
0001
0000
0000
0000
1000
0000
0100
0010
0000
0000
0000
0000
0000
0000
0010
0000
,
0001
0000
0000
0000
0100
0000
0010
1000
0000
0000
0000
0000
0101
0000
0000
0000
,
0001
0000
0000
0100
0000
0000
0010
0000
2000
0000
0000
0000
0100
0000
0000
0000
,
0001
0000
3010
1000
0200
0000
0320
0000
,
0031
0000
0000
0000
1000
0000
0001
0100
0000
0000
0000
0000
0010
0000
1000
0000
,
0100
0000
0000
0000
0010
0000
0001
1000
0000
0000
0000
0000
2100
0000
0000
0000
,
3001
0000
0000
0000
1000
0000
0010
0100
0000
0000
0000
0000
0001
0000
0100
0000
,
0001
0000
0000
0000
0010
0000
0100
1000
0000
0000
0000
0000
1002
0000
0000
0000
,
0103
0000
0000
0000
0010
0000
1000
0100
0000
0000
0000
0000
1000
0000
0001
0000
,
0010
0000
0000
0000
0001
0000
1000
0100
0000
0000
0000
0000
0011
0000
0001
0000
,
1000
0000
0000
0010
0000
0000
0100
0000
0002
0000
0000
0000
0010
0000
0000
0000
,
1000
0000
1003
0001
0100
0010
0100
0000
,
0110
0000
0001
1000
0000
0100
0010
0000
,
0000
0000
0001
1000
0000
0010
0100
0000
,
0000
0000
1000
0100
0000
0010
0001
0000
,
0000
0000
0010
0100
0000
0001
1000
0000
,
1001
0000
0010
1000
0100
0010
0001
0000
,
0011
0000
0100
0001
1000
0100
0010
0000
,
1100
0000
0010
1000
0001
0010
0100
0000
,
2001
0010
3100
0110
,
0001
0000
0000
1000
0000
0000
0001
0000
0010
0000
0000
0100
0000
0000
1000
0000
,
0010
0000
0000
1000
0000
0000
0001
0000
0200
0000
0000
0000
0310
0000
0000
0000
,
1000
0000
0000
0100
0000
0000
0010
0000
0002
0000
0000
0000
1003
0000
0000
0000
,
0001
0000
0000
1000
0000
0000
0010
0000
2000
0000
0000
0000
3100
0000
0000
0000
,
1000
0000
0000
0001
0000
0000
0010
0000
0001
0003
0000
0100
0000
0000
1000
0000
,
0010
0000
0000
0100
0000
0000
0001
0000
2000
0000
0000
0000
3010
0000
0000
0000
,
1000
0000
0000
0001
0000
0000
0010
0000
0200
0000
0000
0000
1300
0000
0002
0000
,
0010
0000
0100
0000
1003
0001
0100
0000
,
0002
0000
0000
0000
,
0000
0000
0000
0003
;

//---------------dance-single - ----------------
#NOTES:
     dance-single:
     :
     Medium:
     7:
     0.312262,0.363056,0.193437,0.193437,0.000000,226.000000,206.000000,20.000000,20.000000,0.000000,0.000000,0.312262,0.363056,0.193437,0.193437,0.000000,226.000000,206.000000,20.000000,20.000000,0.000000,0.000000:
0000
0000
0000
0000
,
0000
0000
0000
0000
,
0000
0000
0000
0000
,
0000
0000
0000
0000
0000
0000
1000
0001
,
1000
0000
0010
0000
0100
0001
0100
0000
,
0001
0000
0010
0000
0100
1000
0100
0000
,
1000
0000
0001
0000
0100
0010
0100
0000
,
0001
0000
1000
0000
0100
0010
0100
0000
,
1000
1100
0001
0101
,
1000
0000
0010
0100
0002
0000
0003
0000
,
0010
0011
0100
1010
,
0001
0000
1000
0000
0010
0230
0000
0000
,
0301
0011
1000
1100
,
0010
0000
1000
0001
0200
0000
0300
0000
,
0100
0101
0010
1010
,
1000
0000
0001
0100
0020
0000
0030
0000
,
1000
1001
0100
0110
,
0010
0000
0001
1000
0200
0000
0300
0000
,
0010
1001
0001
0110
,
0100
0000
0010
1000
0002
0000
0003
0000
,
0010
0011
0100
0101
,
1000
0000
0001
0010
0200
0000
0300
0000
,
1000
0001
0100
0010
,
1000
0100
0010
0001
,
1000
3000
0010
0000
0200
0000
0300
0001
,
1000
0000
0001
1000
0100
0000
0010
0000
,
1000
0000
0100
0000
0002
0000
0003
0010
,
0001
0000
0100
0001
0010
0000
1000
0000
,
0100
0000
1000
0000
0020
0000
0030
0001
,
1000
0000
0010
1000
0200
0000
0300
0000
,
0010
0000
0100
1000
0002
0000
0000
0000
,
0000
0000
0000
1003
0001
0000
0100
0000
,
0001
0010
1000
0100
,
1001
0000
0010
0001
1000
0000
0000
0000
,
0010
1000
0100
0001
,
0110
0000
0100
0010
1000
0000
0000
0000
,
0100
1000
0010
0001
,
1100
0000
0010
1000
0100
0000
0000
0000
,
0010
0000
0100
0001
2000
0000
0000
0000
,
0010
0100
0010
3100
,
2010
0000
0000
0001
0000
0001
0000
0000
,
0000
0000
0000
0100
0000
0100
0000
0000
,
0000
0000
0000
0001
0000
0001
0000
0000
,
0000
0000
0000
0010
0000
3010
0000
0000
,
1001
0010
1000
0100
,
0010
0001
0100
0001
,
1000
0010
0100
0001
,
0020
0000
0030
0110
,
0001
0010
0001
1000
,
0010
0100
0002
0003
,
1000
0000
0001
0100
0020
0000
0030
0000
,
1000
0000
0100
0010
0002
0000
0003
0000
,
0010
0001
0100
1000
,
0001
1000
0010
0100
,
0001
0000
0010
0000
1000
0000
0010
0200
,
0000
0010
1000
0301
,
0002
0000
0000
0000
,
0000
0000
0000
0003
;

//---------------dance-single - ----------------
#NOTES:
     dance-single:
     :
     Easy:
     5:
     0.229361,0.279274,0.077375,0.058031,0.000000,166.000000,158.000000,8.000000,6.000000,0.000000,0.000000,0.229361,0.279274,0.077375,0.058031,0.000000,166.000000,158.000000,8.000000,6.000000,0.000000,0.000000:
0000
0000
0000
0000
,
0000
0000
0000
0000
,
0000
0000
0000
0000
,
0000
0000
0000
0000
,
1000
0001
1000
0100
,
0010
0001
0100
1000
,
0010
0100
0010
1000
,
0100
0010
0001
1000
,
0001
0100
1000
0000
,
0010
1000
0001
0000
,
0100
0001
0010
0000
,
0100
0001
1000
0000
,
0001
1000
0010
0000
,
1000
0001
0100
0000
,
0001
1000
0001
0000
,
0010
0100
1000
0000
,
0010
1000
1000
0000
,
0100
0010
0001
0000
,
1000
0001
0001
0000
,
0010
0001
0100
0000
,
0001
0010
1000
0000
,
0100
0010
0001
0000
,
1000
0001
0010
0100
,
1000
0010
0100
0001
,
1001
0001
0100
0000
,
0010
1000
0001
0000
,
0110
0010
1000
0000
,
0100
0010
0001
0000
,
1001
0010
1000
0000
,
0001
1000
0100
0000
,
0010
0001
0200
0000
,
0000
0000
0001
0301
,
0110
1000
0001
0000
,
0010
0100
1000
0000
,
1001
0100
1000
0000
,
0010
1000
0001
0000
,
0110
0001
0100
0000
,
1000
0100
0010
0000
,
0001
1000
0020
0000
,
0200
0000
0000
0330
,
1001
0001
0000
0001
,
0000
1000
0000
1000
,
0000
0010
0000
0010
,
0000
0100
0000
0100
,
0001
0001
0001
0001
,
0010
0010
0010
0010
,
0100
0100
0100
0100
,
2000
0000
3000
0110
,
0001
0010
1000
0000
,
0010
0100
0001
0000
,
0010
0001
1000
0000
,
0100
0010
0001
0000
,
1000
0001
0100
0000
,
0010
1000
0100
0000
,
1000
0001
1000
0100
,
0020
0000
0000
0030
,
0002
0000
0000
0000
,
0000
0000
0000
0003
;

//---------------dance-single - ----------------
#NOTES:
     dance-single:
     :
     Beginner:
     2:
     0.113299,0.162487,0.019344,0.000000,0.000000,82.000000,80.000000,2.000000,0.000000,0.000000,0.000000,0.113299,0.162487,0.019344,0.000000,0.000000,82.000000,80.000000,2.000000,0.000000,0.000000,0.000000:
0000
0000
0000
0000
,
0000
0000
0000
0000
,
0000
0000
0000
0000
,
0000
0000
0000
0000
,
1000
0000
1000
0000
,
0100
0000
0100
0000
,
0010
0000
0010
0000
,
0001
0000
0001
0000
,
1000
0000
0001
0000
,
1000
0000
0010
0000
,
0100
0000
0001
0000
,
0010
0000
0100
0000
,
1000
0000
0001
0000
,
1000
0000
0100
0000
,
1000
0000
0010
0000
,
0100
0000
0001
0000
,
0010
0000
0100
0000
,
0010
0000
0001
0000
,
0100
0000
0010
0000
,
1000
0000
0001
0000
,
1000
0000
0010
0000
,
1000
0000
0001
0000
,
0010
0000
0100
0000
,
1000
0000
0001
0000
,
1001
0000
0000
0000
,
0000
0000
0000
0001
,
0001
0000
0000
0000
,
0000
0000
0000
1000
,
1000
0000
0000
0000
,
0000
0000
0000
0000
,
0010
0000
0010
0000
,
0000
0000
1000
0000
,
1001
0000
0000
0000
,
0000
0000
0000
0010
,
0010
0000
0000
0000
,
0000
0000
0000
0100
,
0100
0000
0000
0000
,
0000
0000
0000
0000
,
0001
0000
0001
0000
,
1000
0000
0000
0000
,
0000
0010
0000
0000
,
0000
0010
0000
0000
,
0000
0100
0000
0000
,
0000
0100
0000
0000
,
0000
0001
0000
0000
,
0000
1000
0000
0000
,
0000
0001
0000
0000
,
1000
0000
0000
0000
,
0010
0000
0010
0000
,
0010
0000
0100
0000
,
0001
0000
0010
0000
,
0001
0000
1000
0000
,
0100
0000
0010
0000
,
0100
0000
1000
0000
,
0001
0000
0001
0000
,
0100
0000
0000
0000
,
0001
0000
0000
0000
;

//---------------dance-single - ----------------
#NOTES:
     dance-single:
     :
     Challenge:
     12:
     0.583073,0.530621,0.116062,0.096718,0.396545,422.000000,410.000000,12.000000,10.000000,0.000000,0.000000,0.583073,0.530621,0.116062,0.096718,0.396545,422.000000,410.000000,12.000000,10.000000,0.000000,0.000000:
// measure 0
0000
0000
0000
0000
,  // measure 1
0000
0000
0000
0000
,  // measure 2
0000
0000
0000
0000
,  // measure 3
0000
0000
0100
0310
0000
0001
1000
0001
,  // measure 4
1000
0000
0100
0000
0010
0000
0001
0000
0100
0000
0010
1030
0010
0000
0000
0000
,  // measure 5
1000
0000
0001
0000
0010
0000
0100
0000
1000
0000
0010
0100
0010
0000
0000
0000
,  // measure 6
0100
0000
0001
0000
0010
0000
0100
0000
1000
0000
0001
0100
0001
0000
0000
0000
,  // measure 7
0010
0000
0100
0000
1000
0000
0010
0000
0100
0000
0001
1000
0001
0000
0000
0000
,  // measure 8
1000
0000
3000
3100
0010
0000
0001
0000
0100
0000
0000
0010
1000
0000
0001
0000
,  // measure 9
0010
0000
0000
0100
0010
0000
0001
0000
1000
0100
0000
1000
0001
0000
0000
0000
,  // measure 10
0010
0000
0000
0100
1000
0000
0001
0000
1000
0000
0000
0010
0100
0000
0001
0000
,  // measure 11
0010
0000
0000
0001
1000
0000
0010
0000
0100
0301
0100
0000
1001
0000
0000
0000
,  // measure 12
0001
0000
0000
1000
0100
0000
0010
0000
0001
0000
0000
0100
0010
0000
1000
0000
,  // measure 13
0100
0000
0000
0010
0001
0000
0100
0000
1000
0001
0000
1000
0010
0000
0100
0000
,  // measure 14
0001
0000
0000
0010
0001
0000
0100
0000
0010
0000
0000
1000
0100
0000
1000
0000
,  // measure 15
0001
0000
0000
1000
0010
0000
0100
0000
0001
0000
0101
0000
0101
0000
0000
0000
,  // measure 16
1000
0000
0000
0100
0010
0000
0001
0000
0100
0000
0000
0001
1000
0000
0010
0000
,  // measure 17
1000
0000
0000
0100
0010
0000
0001
0000
0100
0010
0100
0000
0001
0000
1000
0000
,  // measure 18
0100
0000
0000
0010
0100
0000
1000
0000
0001
0000
0000
0010
0001
0000
1000
0000
,  // measure 19
0100
0000
0000
0010
0001
0000
0100
0000
1000
0001
1000
0000
0010
0000
0100
0000
,  // measure 20
0010
0000
0000
0001
1000
0000
0100
0000
1000
0000
0000
0010
0100
0000
0001
0000
,  // measure 21
0010
0000
0000
0100
1000
0000
0010
0000
1000
0001
1000
0000
0100
0000
0001
0000
,  // measure 22
0010
0000
0000
0001
1000
0000
0010
0000
0100
0000
0000
0001
1000
0000
0100
0000
,  // measure 23
0020
0000
0000
0032
0000
0000
1003
0000
1100
0000
0000
0000
0010
0000
0100
0000
,  // measure 24
0001
0000
0000
0000
0010
0000
0001
0100
0000
0100
0010
0000
1000
0000
0001
0000
,  // measure 25
0100
0000
0000
0000
0001
0000
1000
0100
0000
0100
1000
0000
1010
0000
0000
0000
,  // measure 26
0001
0000
0000
0000
1000
0000
0010
0100
0000
0100
0001
0000
0010
0000
0100
0000
,  // measure 27
1000
0000
0000
0000
0010
0000
1000
0001
0000
0001
0100
0000
0110
0000
0000
0000
,  // measure 28
0001
0000
0000
0000
1000
0000
0100
0010
0000
0010
0001
0000
0100
0000
1000
0000
,  // measure 29
0001
0000
0000
0000
1000
0000
0001
0010
0000
0010
0100
0000
1000
0000
0000
0000
,  // measure 30
0010
0000
1000
0100
0000
1000
0001
0000
0200
0000
0010
0000
0010
0000
0000
0000
,  // measure 31
0001
0001
0301
1000
0010
0100
0001
1000
,  // measure 32
0100
0000
0000
0000
1000
0000
0001
0100
0000
0100
0001
0000
1000
0000
0010
0000
,  // measure 33
0100
0000
0000
0000
0001
0000
1000
0010
0000
0010
0100
0000
0101
0000
0000
0000
,  // measure 34
1100
0000
0000
0000
0001
0000
0010
0100
0000
0100
1000
0000
0001
0000
1000
0000
,  // measure 35
0010
0000
0000
0000
0100
0000
0001
1000
0000
1000
0100
0000
0110
0000
0000
0000
,  // measure 36
0011
0000
0000
0000
1000
0000
0001
0010
0000
0010
0001
0000
0100
0000
0010
0000
,  // measure 37
1000
0000
0000
0000
0100
0000
1000
0001
0000
0001
0100
0000
0010
0000
1000
0000
,  // measure 38
0001
0000
1000
0100
0000
1000
0100
0000
0020
0000
0001
0000
0001
0000
0000
0000
,  // measure 39
0031
0100
0000
0000
0001
1000
0001
1003
0000
0000
0010
0000
0100
0000
0000
0000
,  // measure 40
1001
0010
0001
0100
0001
0010
1000
0000
,  // measure 41
0100
0010
0001
0100
0010
1000
0001
0000
,  // measure 42
1000
0100
0010
0100
1000
0010
0001
0000
,  // measure 43
1000
0001
0010
0001
0100
0010
1000
0000
,  // measure 44
0001
1000
0010
0100
0010
0001
0010
1000
,  // measure 45
0100
0010
0100
0001
0100
1000
0010
0100
,  // measure 46
0010
0001
0010
0100
0001
1000
0100
0010
,  // measure 47
0001
0100
0010
0001
0010
1000
0110
0000
,  // measure 48
0001
0000
0000
1000
0010
0000
0100
0000
0001
0000
0000
0010
0100
0000
1000
0000
,  // measure 49
0010
0000
0000
0100
0010
0000
1000
0000
0001
0100
0001
0000
1000
0000
0000
0000
,  // measure 50
0001
0010
0000
0010
0100
0000
1000
0000
0002
0000
0100
0000
0103
0000
0000
0000
,  // measure 51
1000
0010
0000
0010
0100
0000
0001
0000
2000
0000
0100
0000
3100
0000
0000
0000
,  // measure 52
1000
0000
0000
0010
0100
0000
0001
0000
0010
0000
0000
0100
1000
0000
0001
0000
,  // measure 53
1000
0000
0000
0001
0100
0000
0001
0000
0020
0000
0100
0000
0130
0000
0000
0000
,  // measure 54
1000
0001
0000
0010
0001
0000
0100
0000
2000
0000
0000
0000
3001
0000
0200
0000
,  // measure 55
0010
0000
0000
0010
0000
0000
0310
0000
1000
0000
0000
0100
0000
0000
1000
0000
,  // measure 56
0002
0000
0000
0000
,  // measure 57
0000
0000
0000
0003
;
