#TITLE:IN BETWEEN;
#SUBTITLE:;
#ARTIST:BEMANI Sound Team “L.E.D.-G” feat. Mayumi Morinaga;
#TITLETRANSLIT:;
#SUBTITLETRANSLIT:;
#ARTISTTRANSLIT:;
#GENRE:;
#CREDIT:;
#BANNER:IN BETWEEN.png;
#BACKGROUND:IN BETWEEN-bg.png;
#LYRICSPATH:;
#CDTITLE:;
#MUSIC:IN BETWEEN.ogg;
#OFFSET:0.000000;
#SAMPLESTART:86.607002;
#SAMPLELENGTH:15.000000;
#SELECTABLE:YES;
#DISPLAYBPM:160.000000;
#BPMS:0.000000=159.500000
,4.000000=160.000000
;
#STOPS:72.000000=5.625000,
181.000000=1.125000
;
#BGCHANGES:;
#KEYSOUNDS:;
#ATTACKS:;

//---------------dance-single - ----------------
#NOTES:
     dance-single:
     :
     Beginner:
     4:
     0.175622,0.300845,0.112546,0.086574,0.000000,142.000000,129.000000,13.000000,10.000000,0.000000,0.000000,0.175622,0.300845,0.112546,0.086574,0.000000,142.000000,129.000000,13.000000,10.000000,0.000000,0.000000:
0000
0000
0000
0000
,
0000
0000
0000
0000
,
0000
0000
0000
0000
,
0000
0000
0000
0000
,
0000
0000
0000
0000
,
0000
0000
0000
0000
,
1000
1000
1000
0000
,
0010
0010
0010
0000
,
0001
0001
0001
0001
,
0020
0000
0030
0000
,
0001
0000
0001
0001
,
0010
0000
0001
0000
,
1000
0000
1000
1000
,
0010
0000
1000
0000
,
1000
1000
1000
0000
,
0100
0100
0100
0000
,
0001
0001
0001
0001
,
0000
0010
0010
0010
,
1001
0000
0000
1000
,
0000
1000
0000
0010
,
0000
0001
0000
0001
,
0000
0100
0000
0000
,
0000
0002
0000
0003
,
0000
2000
0000
3000
,
0000
1001
0000
0000
,
0000
0000
0000
0000
,
0000
1000
0000
1000
,
0000
0010
0000
0100
,
0000
2000
0000
0000
,
0000
3000
0000
0000
,
0000
0010
0000
0010
,
0000
0001
0000
0100
,
0000
0002
0000
0000
,
0000
0003
0000
0000
,
0000
1001
0000
0000
,
0000
0000
0000
0000
,
0000
0110
0000
0000
,
0000
0000
0000
0000
,
0000
1001
0000
0000
,
0000
0000
0000
0000
,
0000
0110
0000
0000
,
0000
0000
0000
0000
,
0000
1000
0000
1000
,
0000
0001
0000
0001
,
0000
1000
0000
0001
,
0000
1001
0000
1000
,
0000
1000
0000
0100
,
0200
0300
0000
0001
,
0000
0001
0000
0010
,
0020
0030
0000
1000
,
0000
1000
0000
0010
,
0000
1000
2000
0000
,
3000
0000
1001
0000
,
0000
0000
0001
0001
,
0010
0010
0001
0001
,
0001
0000
1000
1000
,
0010
0010
1000
1000
,
1000
1000
0000
0001
,
0010
0001
0010
0010
,
0001
0001
0200
0000
,
0300
0000
0001
0001
,
1001
0000
2000
0000
,
3000
0000
0000
0000
,
1000
1000
0010
0010
,
1000
1000
0100
0100
,
0100
0000
0001
0001
,
0010
0010
0001
0001
,
0100
0100
1001
0000
,
0110
0000
1001
0000
,
0010
0010
1001
0000
,
0000
0000
0000
0000
;

//---------------dance-single - ----------------
#NOTES:
     dance-single:
     :
     Easy:
     7:
     0.284458,0.421183,0.328982,0.207778,0.000000,230.000000,192.000000,38.000000,24.000000,0.000000,0.000000,0.284458,0.421183,0.328982,0.207778,0.000000,230.000000,192.000000,38.000000,24.000000,0.000000,0.000000:
0000
0000
0000
0000
,
0000
0000
0000
0000
,
0000
0000
0000
0000
,
0000
0000
0000
0000
,
0000
0000
0000
0000
,
0000
0000
0000
0000
,
1000
1000
0001
0001
,
0010
0010
0100
0100
,
1000
0001
0100
0010
,
2000
0000
0001
3001
,
0001
0100
0010
1000
,
0001
0100
1000
0100
,
0001
1000
0100
0010
,
0001
0010
1000
0010
,
0001
0100
0110
0110
,
1000
0100
0110
0110
,
0200
1300
2000
3001
,
0000
1000
0100
0010
,
1001
2000
0000
3010
,
0000
0002
0000
0013
,
0000
0220
0000
0000
,
0000
0330
0000
0000
,
0000
0002
0000
0103
,
0000
2000
0000
3100
,
0000
0220
0000
0000
,
0000
0330
0000
0000
,
0000
2000
0000
3001
,
0000
0002
0000
1003
,
0000
0220
0000
0000
,
0000
0330
0000
0000
,
0000
2000
0000
0000
,
3001
0020
0000
0230
,
0000
2300
0000
0000
,
0000
3000
0000
0000
,
0000
1000
0100
0010
,
0001
1000
0100
0001
,
0000
0001
0100
0010
,
1000
0001
0100
1000
,
0000
1000
0010
0100
,
0001
1000
0010
0001
,
0000
0001
0010
0100
,
1000
0001
0010
1000
,
0000
1000
1100
0100
,
0010
0001
1001
1000
,
0010
0100
0101
0001
,
1001
0110
0001
0010
,
0100
1000
0010
0100
,
1001
0110
0010
1000
,
0010
0100
1001
1000
,
0200
0010
0300
0010
,
0100
1000
0001
0010
,
1000
0010
0011
0110
,
1100
1001
0110
0000
,
0000
0000
1000
1010
,
0010
0110
0100
0101
,
0001
1001
1000
1100
,
0100
0110
0010
0011
,
0001
1001
0000
0010
,
0100
1000
0001
1000
,
0001
0100
0010
1010
,
0001
0011
0110
1001
,
0110
0000
2002
0000
,
0000
0000
3003
0000
,
0010
1000
0001
1000
,
0100
0020
0001
0001
,
0130
0000
0001
0100
,
0010
1000
0010
0110
,
1000
1001
0010
0100
,
1000
0001
0200
0000
,
0010
0310
1001
0000
,
0000
0000
0000
0000
;

//---------------dance-single - ----------------
#NOTES:
     dance-single:
     :
     Medium:
     12:
     0.403188,0.541521,0.103889,0.311667,0.000000,326.000000,314.000000,12.000000,36.000000,0.000000,0.000000,0.403188,0.541521,0.103889,0.311667,0.000000,326.000000,314.000000,12.000000,36.000000,0.000000,0.000000:
0000
0000
0000
0000
,
0000
0000
0000
0000
,
0000
0000
0000
0000
,
0000
0000
0000
0000
,
0000
0000
0000
0000
,
0000
0000
0000
0000
,
1000
1000
0100
0100
,
0010
0000
0010
0000
0001
0000
0001
0001
,
0010
0001
0010
0100
1000
0100
0010
0100
,
2000
0000
0001
3001
,
0001
0100
1000
0100
0010
1000
0001
0100
,
0001
0010
1000
0010
0001
0100
1000
0000
,
0100
0001
1000
0010
0001
0010
1000
0001
,
0100
0010
1000
0001
0010
0100
1000
0000
,
0001
0010
1000
0010
0001
0100
1000
0001
,
0010
1000
0001
0100
0010
1000
0001
0000
,
1000
0100
1000
0100
0010
0001
0010
0001
,
0000
1000
0010
0100
0001
0100
0010
0000
,
1001
0000
2000
0000
0000
3000
1020
0000
,
0000
0000
0230
0000
0000
0300
0102
0000
,
0000
2003
0000
0000
,
0000
3000
0000
0002
,
0023
0000
0230
0000
0000
0300
0120
0000
,
0000
0000
0032
0000
0000
0003
2001
0000
,
3020
0230
0000
0000
,
0000
0300
0000
0002
,
0203
0000
2300
0000
0000
3000
1200
0000
,
0000
0000
0320
0000
0000
0030
0210
0000
,
0302
2003
0000
0000
,
0000
3000
0000
2000
,
3200
0302
0000
0000
,
0203
0000
2300
0000
3010
0200
0000
0000
,
0302
2003
0000
0000
,
0000
3000
0000
0000
,
0000
0000
0011
0000
0010
0100
0000
0100
,
2000
0000
0000
3000
,
0000
0100
1000
0100
0010
0001
1000
0001
,
0200
0000
0000
0300
,
0000
0010
1000
0010
0100
0001
0000
0001
,
0020
0000
0000
0030
,
0000
0001
0010
0100
1000
0001
0000
0100
,
0020
0000
0000
0030
,
0000
1000
1000
0100
,
0100
0010
0001
0000
0001
0000
1000
0010
,
0100
0001
1000
0010
1000
0010
0100
0001
,
0100
0010
1000
0000
0001
0100
0010
1000
,
0001
0100
1000
0100
0010
1000
0001
0010
,
0200
0000
1300
0000
1000
0100
0010
0001
,
1000
0010
0001
0010
0100
0001
0010
0100
,
2000
0000
0001
0000
3000
0001
0100
0010
,
0100
1000
0100
0001
1000
0100
0001
0100
,
0010
0100
1000
0000
0100
0010
0100
0010
,
0001
1000
0010
0100
0001
0000
0000
0000
,
0000
0000
0000
0000
0001
0100
0001
0100
,
0010
1000
0001
1000
0100
0010
0001
0010
,
0100
1000
0001
0000
1000
0100
1000
0100
,
0010
0001
0010
0100
1000
0010
1000
0001
,
0100
1000
0100
0100
0000
0000
0010
0100
,
0001
1000
0001
0010
0100
1000
0100
0010
,
0001
1000
0001
0100
0001
0010
0100
1000
,
0001
0100
0010
1000
0001
1000
0001
0100
,
0110
0000
0101
0000
,
0000
0000
0000
0000
0000
0000
0000
0001
,
0100
0010
1000
0000
0001
0010
0100
1000
,
0100
0010
0001
0000
1000
0010
0100
0001
,
1001
0000
0000
0001
1000
0100
0001
0100
,
0010
0001
0010
0100
1000
0010
0001
0010
,
0100
1000
0001
0010
0100
1000
0100
0001
,
1000
0010
0001
0010
1000
0000
0000
0000
,
0010
0010
0100
0100
1001
0000
0000
0000
,
0000
0000
0000
0000
;

//---------------dance-single - ----------------
#NOTES:
     dance-single:
     :
     Hard:
     15:
     0.630754,0.812281,0.441528,0.112546,0.419884,510.000000,459.000000,51.000000,13.000000,0.000000,0.000000,0.630754,0.812281,0.441528,0.112546,0.419884,510.000000,459.000000,51.000000,13.000000,0.000000,0.000000:
0000
0000
0000
0000
,
0000
0000
0000
0000
,
0000
0000
0000
0000
,
0000
0000
0000
0000
,
0000
0000
0000
0000
,
0000
0000
0000
0000
0000
0000
0000
0000
0000
0000
0000
0000
0000
0000
0010
0001
,
1000
1100
0110
0110
,
0011
0000
0011
0000
1001
0000
1001
0001
,
0010
0000
0001
0000
0010
0000
0100
1000
0100
0000
0010
0000
0001
1000
0001
1000
,
0010
0000
0110
1001
,
0001
0000
0100
0000
0010
1000
0001
0000
1000
0000
0010
0100
0000
0001
1000
0000
,
0001
0000
0010
0000
0100
1000
0001
0000
0010
0000
0100
0010
0000
0001
1000
0000
,
0001
0000
0100
0000
0010
1000
0001
0000
0100
0000
0001
1000
0000
0010
1000
0000
,
0100
0000
0010
0000
0001
0010
0001
0000
0110
0000
0000
1100
0000
0000
1001
0000
,
0001
0000
1000
0000
0100
0010
0001
0000
0010
0000
1000
0010
0000
0100
0010
0000
,
0001
0000
1000
0000
0001
0100
1000
0000
0100
0000
0010
0100
0000
0001
0100
0000
,
0001
0000
1000
0000
0010
0000
0100
0001
1000
0000
0000
0110
0000
0000
0101
0000
,
0000
0000
0001
0000
0010
0000
0100
1000
0100
0000
0000
0110
0000
0000
0011
0000
,
2002
3003
0000
0000
0000
0000
0000
0000
0000
0000
0000
0000
0000
0000
0000
0000
0120
0000
0000
0000
0000
0000
0000
0000
0000
0000
0000
0000
0000
0000
0000
0000
0000
0000
0000
0000
0000
0000
0000
0000
0030
0000
0000
0000
0000
0000
0000
0000
0012
0000
0000
0000
0000
0000
0000
0000
0000
0000
0000
0000
0000
0000
0000
0000
,
1000
1003
0020
0100
0100
0000
0001
0000
,
1000
0000
0230
0000
0000
0001
0001
0000
,
1000
1000
0000
0010
0310
0000
0100
0001
,
1000
0020
0000
2030
,
0001
3001
0200
0010
0000
0000
1000
0000
,
0001
0320
0000
0100
,
0001
0001
0000
1000
0000
0000
0001
0000
,
0130
0000
1000
0100
0100
0100
0010
0100
,
1000
1000
0100
0010
0010
0100
0001
0100
,
1000
0100
0010
0001
0001
1000
1000
0001
,
0100
0100
0001
0010
0010
0001
1000
0001
,
0010
0001
0001
0010
0010
0010
0100
0010
,
0001
0001
0010
1000
0010
0010
0001
0010
,
1000
0010
0100
1000
1000
1000
0001
1000
,
0010
0010
1000
0100
1000
1000
0010
1000
,
1000
1001
0000
0000
,
0000
0000
0000
0000
0000
0000
0000
0000
0000
0000
0001
0010
0001
0000
0000
0110
,
0000
0000
0100
1000
0001
0000
0000
0000
0000
0000
0000
0000
0000
0000
0000
0000
,
0000
0000
0000
0000
0000
0000
0000
0000
1000
0010
1000
0010
0100
0000
0001
0000
,
1000
0100
0010
0001
1000
0000
0000
0000
0000
0000
0000
0000
0000
0000
0000
0000
,
0000
0000
0000
0000
0000
0000
0000
0000
0000
0000
0001
0010
0100
0000
0000
1100
,
0000
0110
1001
0000
0000
0000
0000
0000
,
0000
0000
0000
0000
0000
0000
0000
0000
0000
0000
0001
1000
0001
1000
0000
0010
,
0000
0100
0000
0001
1000
0000
0000
0000
1000
0000
0000
0000
0100
0000
0000
0000
,
0100
0010
0001
0000
0001
0000
0010
0100
,
0010
0000
0100
0000
1000
0100
1000
0100
0010
0001
0010
0001
1000
0010
0100
0001
,
1000
0000
0000
0000
0100
0000
0000
0000
0010
0000
0000
0000
0002
0000
0000
0000
2000
3003
0000
0000
0000
0000
0000
0000
0000
0000
0000
0000
0000
0000
0000
0000
0001
0000
0000
0000
0000
0000
0000
0000
0010
0000
0000
0000
0100
0000
0000
0000
0000
0000
0000
0000
1000
0000
0000
0000
0100
0000
0000
0000
0000
0000
0000
0000
,
0010
0000
0001
0000
0010
0000
0100
0000
1000
0000
0001
0100
0000
0010
1000
0000
,
0001
0100
0010
0100
0001
0000
0000
0000
1000
0000
0010
0100
0000
1000
0100
0000
,
0001
0000
0010
0000
0100
0000
0010
0000
0001
0000
1000
0001
0000
1000
0100
0000
,
0020
0000
0001
0000
0100
0000
0000
0000
0030
0000
0001
0010
0001
0000
1000
0000
,
0100
0000
0010
0000
0001
0000
0100
0000
0010
0000
1000
0001
0100
0000
0010
0000
,
1000
0000
0001
0000
0010
0000
0100
0010
0100
1000
0100
1000
0100
0010
0100
0010
,
0001
1000
0001
1000
0010
0000
0110
0000
1001
0000
0000
0000
0000
0000
0000
0000
,
0000
0000
0000
0000
0000
0000
0000
0000
1010
0000
1000
0001
0100
0000
0010
0000
,
0110
0000
0001
0010
0100
0000
1000
0000
1100
0000
0100
0000
0110
0000
0010
0000
,
0011
0000
0001
0000
0101
0000
0100
0000
1001
0000
0001
0010
0100
0000
1000
0000
,
1100
0000
0100
0010
0100
0000
1000
0000
0001
1000
0100
0000
0001
0000
0100
0000
,
1100
0000
0010
0000
0110
0000
0011
0000
0000
0000
0000
0000
1000
0010
1000
0010
,
0100
0000
0001
0000
1000
0000
0001
0000
0011
0000
0000
0110
0000
0000
1100
0000
,
0001
0000
0100
0000
0010
0000
1000
0000
0001
0100
0001
0100
0010
1000
0010
1000
,
0001
0000
0010
0000
0100
0000
1000
0000
0100
0000
0010
0100
0010
0000
0001
0010
,
0100
0000
1001
0000
,
0000
0000
0000
0000
0000
0000
0000
0000
0000
0000
0000
0000
0000
0000
0001
0100
,
0010
0000
0000
1000
0000
0000
0010
0100
0001
0000
0100
0000
0110
0000
0001
0000
,
0101
1000
1001
0100
1100
0110
0011
0110
,
1100
0000
0000
0000
0000
0000
0001
1000
0001
0000
0100
0000
0010
0000
1000
0000
,
0001
0000
0010
0000
0100
0000
1000
0100
0010
0000
0001
0000
1000
0000
0010
0000
,
0100
0001
1000
0000
0010
0000
0100
0001
1000
0010
1000
0010
0100
0001
0100
0001
,
1000
0010
0100
0001
1000
0100
0010
0001
1000
0000
0000
0000
0000
0000
0000
0000
,
0011
0000
0000
1100
0000
0000
0100
0010
0001
0000
0000
0000
0000
0000
0000
0000
,
0000
0000
0000
0000
;

//---------------dance-double - ----------------
#NOTES:
     dance-double:
     :
     Easy:
     7:
     0.288168,0.421183,0.320324,0.173148,0.000000,233.000000,196.000000,37.000000,20.000000,0.000000,0.000000,0.288168,0.421183,0.320324,0.173148,0.000000,233.000000,196.000000,37.000000,20.000000,0.000000,0.000000:
00000000
00000000
00000000
00000000
,
00000000
00000000
00000000
00000000
,
00000000
00000000
00000000
00000000
,
00000000
00000000
00000000
00000000
,
00000000
00000000
00000000
00000000
,
00000000
00000000
00000000
00000000
,
10000000
10000000
00010000
00010000
,
00100000
00100000
00001000
00001000
,
00000010
00000110
00000100
00000110
,
00002000
00000000
00000001
00003001
,
00000001
00000100
00001000
00011000
,
00010000
00100000
10000000
00010000
,
10000000
01000000
00010000
00011000
,
00001000
00000010
00000001
00001000
,
00000001
00000100
00001010
00001010
,
00000001
00000010
00001000
00010000
,
02000000
13000000
20000000
30010000
,
00000000
10000000
01000000
00010000
,
00011000
00002000
00000000
00003010
,
00000000
00000020
00000000
00000031
,
00000000
00000002
00000000
00000000
,
00000000
00000003
00000000
00000000
,
00000000
00000002
00000000
00000103
,
00000000
00000200
00000000
00001300
,
00000000
00002000
00000000
00000000
,
00000000
00003000
00000000
00000000
,
00000000
00002000
00000000
00013000
,
00000000
00020000
00000000
00130000
,
00000000
00200000
00000000
00000000
,
00000000
00300000
00000000
00000000
,
00000000
20000000
00000000
00000000
,
30010000
00020000
00000000
00230000
,
00000000
02300000
00000000
00000000
,
00000000
03000000
00000000
00000000
,
00000000
10000000
01000000
00100000
,
00010000
00001000
00000100
00000010
,
00000000
00000001
00000100
00000010
,
00001000
00010000
01000000
00100000
,
00000000
10000000
00100000
01000000
,
00010000
00001000
00000010
00000100
,
00000000
00000001
00000010
00000100
,
00001000
00010000
00100000
01000000
,
00000000
10000000
11000000
01000000
,
01010000
00010000
00011000
00001000
,
00001010
00000010
00000011
00000001
,
00001001
00000110
00000001
00000100
,
00001000
00010000
00000010
00001000
,
00011000
01010000
00100000
10000000
,
01000000
00010000
00011000
00001000
,
00000200
00000001
00000300
00000001
,
00000010
00001000
00010000
00000010
,
00001000
00010000
01010000
01100000
,
10100000
10010000
01100000
00000000
,
00000000
00000000
10000000
11000000
,
01000000
01010000
00010000
00011000
,
00001000
00001100
00000100
00000101
,
00000001
00001001
00001000
00001010
,
00000010
00000110
00000000
00000010
,
00000100
00001000
00010000
00001000
,
00010000
01000000
10000000
11000000
,
00010000
00110000
01100000
10010000
,
01100000
00000000
10010000
10000000
,
10000000
02000000
00000000
00000000
,
03100000
00001000
00010000
00001000
,
00000100
00000002
00001000
00001000
,
00000100
00000103
00000001
00000100
,
00001000
00020000
00100000
00100000
,
00001000
00031000
00100000
01000000
,
00001000
00010000
00000100
00000010
,
00000001
00000000
00001001
00000000
,
00000000
00000000
00000000
00000000
;

//---------------dance-double - ----------------
#NOTES:
     dance-double:
     :
     Medium:
     12:
     0.401951,0.511436,0.086574,0.303009,0.000000,325.000000,315.000000,10.000000,35.000000,0.000000,0.000000,0.401951,0.511436,0.086574,0.303009,0.000000,325.000000,315.000000,10.000000,35.000000,0.000000,0.000000:
00000000
00000000
00000000
00000000
,
00000000
00000000
00000000
00000000
,
00000000
00000000
00000000
00000000
,
00000000
00000000
00000000
00000000
,
00000000
00000000
00000000
00000000
,
00000000
00000000
00000000
00000000
,
10000000
10000000
01000000
01000000
,
00010000
00000000
00010000
00000000
00001000
00000000
00001000
00001000
,
00000010
00000001
00000010
00000100
00001000
00000100
00000010
00000100
,
00002000
00000000
00000001
00003001
,
00000001
00000100
00001000
00000100
00000010
00001000
00010000
01000000
,
00010000
00100000
10000000
00100000
00010000
01000000
10000000
00000000
,
01000000
00010000
10000000
01000000
00010000
00001000
00010000
00100000
,
00010000
00001000
00000100
00000001
00000010
00000100
00001000
00000000
,
00000001
00000010
00001000
00000010
00000001
00000100
00001000
00010000
,
00000010
00001000
00010000
01000000
00100000
10000000
00010000
00000000
,
10000000
01000000
10000000
01000000
00100000
00010000
00100000
00010000
,
00000000
10000000
01000000
00010000
00001000
00000010
00000001
00000000
,
00001001
00000000
20000000
00000000
00000000
30000000
10200000
00000000
,
00000000
00000000
02300000
00000000
00000000
03000000
01002000
00000000
,
00000000
00023000
00000000
00000000
,
00000000
00030000
00000000
00002000
,
00003200
00000000
00000302
00000000
00000000
00000003
00000021
00000000
,
00000000
00000000
00000230
00000000
00000000
00000300
00002100
00000000
,
00003200
00000302
00000000
00000000
,
00000000
00000003
00000000
00000002
,
00000203
00000000
00002300
00000000
00000000
00003000
00001002
00000000
,
00000000
00000000
00000203
00000000
00000000
00000300
00002100
00000000
,
00023000
00032000
00000000
00000000
,
00000000
00003000
00000000
00002000
,
00023000
00230000
00000000
00000000
,
20300000
00000000
30020000
00000000
00130000
02000000
00000000
00000000
,
03200000
00320000
00000000
00000000
,
00000000
00030000
00000000
00000000
,
00000000
00000000
00110000
00000000
10000000
01000000
00000000
01000000
,
00200000
00000000
00000000
00300000
,
00000000
01000000
10000000
01000000
00100000
00001000
00010000
00100000
,
00020000
00000000
00000000
00030000
,
00000000
00001000
00000100
00000010
00000100
00000001
00000000
00000001
,
00000020
00000000
00000000
00000030
,
00000000
00000001
00000010
00000100
00001000
00000001
00000000
00000001
,
00000020
00000000
00000000
00000030
,
00000000
00000001
00000001
00000100
,
00000100
00001000
00010000
00000000
00010000
00000000
00100000
10000000
,
00100000
10000000
01000000
00010000
00001000
00010000
00100000
00010000
,
00001000
00000100
00000010
00000000
00000001
00000100
00000010
00001000
,
00000001
00000010
00001000
00010000
01000000
10000000
00010000
00100000
,
00001000
00010000
01000000
00000000
10000000
01000000
00010000
00001000
,
00100000
00010000
00001000
00000100
00000010
00000001
00000010
00000100
,
00002000
00000000
00000001
00000000
00003000
00000001
00000100
00001000
,
00000100
00000010
00000100
00001000
00010000
00001000
00000010
00001000
,
00010000
01000000
10000000
00000000
01000000
00100000
01000000
00100000
,
00010000
10000000
00100000
01000000
00010000
00000000
00000000
00000000
,
00000000
00000000
00000000
00000000
10000000
01000000
10000000
01000000
,
00010000
00001000
00010000
00001000
00000010
00000001
00000010
00000001
,
00001000
00000100
00000001
00000000
00000100
00001000
00000100
00001000
,
00000001
00000010
00000001
00000010
00001000
00010000
00001000
00010000
,
01000000
10000000
00010000
10000000
00000000
00000000
10000000
01000000
,
00010000
00001000
00010000
00000000
00001000
00000100
00000001
00000100
,
00000010
00001000
00000001
00000100
00000001
00000010
00000001
00000010
,
00000100
00001000
00000100
00000010
00000001
00001000
00000001
00000100
,
00000010
00000000
00000101
00000000
,
00000000
00000000
00000000
00000000
00000000
00000000
00000000
00000001
,
00000100
00001000
00010000
00001000
00010000
00100000
01000000
00010000
,
10000000
01000000
00100000
00000000
00010000
10000000
01000000
00010000
,
00001000
00000000
00000000
00010000
00001000
00000100
00000001
00000100
,
00000010
00001000
00000001
00000100
00000001
00000010
00001000
00010000
,
01000000
10000000
00010000
00100000
01000000
10000000
01000000
00010000
,
00001000
00000010
00000001
00000010
00001000
00000000
00000000
00000000
,
00000010
00000010
00000100
00000100
00001001
00000000
00000000
00000000
,
00000000
00000000
00000000
00000000
;

//---------------dance-double - ----------------
#NOTES:
     dance-double:
     :
     Hard:
     15:
     0.619623,0.812281,0.389583,0.095231,0.419884,501.000000,456.000000,45.000000,11.000000,0.000000,0.000000,0.619623,0.812281,0.389583,0.095231,0.419884,501.000000,456.000000,45.000000,11.000000,0.000000,0.000000:
00000000
00000000
00000000
00000000
,
00000000
00000000
00000000
00000000
,
00000000
00000000
00000000
00000000
,
00000000
00000000
00000000
00000000
,
00000000
00000000
00000000
00000000
,
00000000
00000000
00000000
00000000
00000000
00000000
00000000
00000000
00000000
00000000
00000000
00000000
00000000
00000000
10000000
00010000
,
10000000
11000000
01010000
01010000
,
00011000
00000000
00011000
00000000
00001010
00000000
00001010
00000010
,
00000001
00000000
00000010
00000000
00000100
00000000
00001000
00000100
00000010
00000000
00000001
00000000
00001000
00000001
00001000
00000001
,
00000010
00000000
00001001
00000110
,
00000001
00000000
00000100
00000000
00001000
00010000
00001000
00000000
00010000
00000000
01000000
10000000
00000000
01000000
00100000
00000000
,
00010000
00000000
00100000
00000000
00001000
00010000
00001000
00000000
00000100
00000000
00000010
00001000
00000000
00000001
00000100
00000000
,
00000001
00000000
00000010
00000000
00001000
00010000
00001000
00000000
00010000
00000000
01000000
10000000
00000000
01000000
00100000
00000000
,
01000000
00000000
10000000
00000000
00010000
01000000
00010000
00000000
00110000
00000000
00000000
00011000
00000000
00000000
00001100
00000000
,
00000001
00000000
00000010
00000000
00001000
00010000
00001000
00000000
00010000
00000000
01000000
10000000
00000000
00010000
00100000
00000000
,
00001000
00000000
00010000
00000000
00001000
00000100
00001000
00000000
00000100
00000000
00000001
00001000
00000000
00000010
00000100
00000000
,
00000001
00000000
00000010
00000000
00001000
00000000
00010000
00001000
00010000
00000000
00000000
01010000
00000000
00000000
11000000
00000000
,
00000000
00000000
01000000
00000000
00010000
00000000
00001000
00010000
00001000
00000000
00000000
00001100
00000000
00000000
00000110
00000000
,
00002002
00003003
00000000
00000000
00000000
00000000
00000000
00000000
00000000
00000000
00000000
00000000
00000000
00000000
00000000
00000000
00011000
00000000
00000000
00000000
00000000
00000000
00000000
00000000
00000000
00000000
00000000
00000000
00000000
00000000
00000000
00000000
00000000
00000000
00000000
00000000
00000000
00000000
00000000
00000000
00000000
00000000
00000000
00000000
00000000
00000000
00000000
00000000
01100000
00000000
00000000
00000000
00000000
00000000
00000000
00000000
00000000
00000000
00000000
00000000
00000000
00000000
00000000
00000000
,
10000000
10000000
00000000
01000000
00100000
00000000
00001000
00000000
,
00011000
00000000
00000110
00000000
00000000
00000001
00000001
00000000
,
00001000
00001000
00000000
00000010
00000010
00000000
00000100
00000001
,
00000100
00000020
00000000
00002030
,
00000001
00003001
00000200
00000010
00000000
00000000
00002300
00000000
,
00023000
00230000
00000000
10000000
,
00010000
00010000
00000000
01000000
00000000
00000000
00010000
00000000
,
10300000
00000000
10000000
01000000
01000000
01000000
00100000
01000000
,
10000000
10000000
01000000
00100000
00100000
01000000
00010000
01000000
,
00100000
01000000
00010000
00001000
00001000
00000010
00000010
00001000
,
00010000
00010000
00001000
00000100
00000100
00001000
00010000
00001000
,
00000100
00001000
00000100
00000010
00000010
00000010
00000100
00000010
,
00001000
00001000
00000010
00000001
00000010
00000010
00000100
00000010
,
00001000
00000010
00000100
00000001
00000001
00000001
00000100
00000001
,
00000010
00000010
00000001
00001000
00000001
00000001
00000100
00000001
,
00000001
00001001
00000000
00000000
,
00000000
00000000
00000000
00000000
00000000
00000000
00000000
00000000
00000000
00000000
00000001
00000010
00000001
00000000
00000000
00000101
,
00000000
00000000
00001000
00010000
00100000
00000000
00000000
00000000
00000000
00000000
00000000
00000000
00000000
00000000
00000000
00000000
,
00000000
00000000
00000000
00000000
00000000
00000000
00000000
00000000
00100000
10000000
00100000
10000000
00010000
00000000
10000000
00000000
,
01000000
00010000
00001000
00010000
01000000
00000000
00000000
00000000
00000000
00000000
00000000
00000000
00000000
00000000
00000000
00000000
,
00000000
00000000
00000000
00000000
00000000
00000000
00000000
00000000
00000000
00000000
00010000
00001000
00000010
00000000
00000000
00000001
,
00000000
00000110
00001001
00000000
00000000
00000000
00000000
00000000
,
00000000
00000000
00000000
00000000
00000000
00000000
00000000
00000000
00000000
00000000
00001000
00000001
00001000
00000001
00000000
00000010
,
00000000
00000100
00000000
00001000
00000001
00000000
00000000
00000000
00000001
00000000
00000000
00000000
00000100
00000000
00000000
00000000
,
00000100
00001000
00001000
00000000
00001000
00000000
00010000
00100000
,
10000000
00000000
00010000
00000000
10000000
01000000
10000000
01000000
00100000
00010000
00100000
00010000
00001000
00000100
00001000
00000100
,
00000010
00000000
00000000
00000000
00000001
00000000
00000000
00000000
00000010
00000000
00000000
00000000
00000002
00000000
00000000
00000000
00002000
00003003
00000000
00000000
00000000
00000000
00000000
00000000
00000000
00000000
00000000
00000000
00000000
00000000
00000000
00000000
00000001
00000000
00000000
00000000
00000000
00000000
00000000
00000000
00000100
00000000
00000000
00000000
00001000
00000000
00000000
00000000
00000000
00000000
00000000
00000000
00010000
00000000
00000000
00000000
00001000
00000000
00000000
00000000
00000000
00000000
00000000
00000000
,
00010000
00000000
01000000
00000000
10000000
00000000
01000000
00000000
00100000
00000000
00001000
00010000
00000000
00001000
00000100
00000000
,
00000010
00000100
00000010
00000100
00000010
00000000
00000000
00000000
00001000
00000000
00000001
00000100
00000000
00001000
00000100
00000000
,
00001000
00000000
00010000
00000000
00100000
00000000
10000000
00000000
00010000
00000000
00100000
01000000
00000000
00010000
00001000
00000000
,
00000020
00000000
00000001
00000000
00000001
00000000
00000000
00000000
00000030
00000000
00000001
00000010
00000001
00000000
00001000
00000000
,
00000010
00000000
00000100
00000000
00000001
00000000
00000100
00000000
00001000
00000000
00010000
00001000
00000000
00010000
01000000
00000000
,
00100000
00000000
00010000
00000000
00100000
00000000
01000000
00100000
01000000
10000000
01000000
10000000
01000000
00100000
01000000
00100000
,
00010000
10000000
00010000
10000000
00100000
00000000
01100000
00000000
10010000
00000000
00000000
00000000
00000000
00000000
00000000
00000000
,
00000000
00000000
00000000
00000000
00000000
00000000
00000000
00000000
10100000
00000000
10000000
00100000
01000000
00000000
00010000
00000000
,
00100000
00000000
00010000
00000000
00001000
00000000
00000100
00000000
00000110
00000000
00000001
00001000
00000100
00000000
00000010
00000000
,
00000011
00000000
00000100
00000000
00001100
00000000
00000000
00000000
00001001
00000000
00000001
00000100
00000010
00000000
00000100
00000000
,
00001000
00000000
00010000
00000000
00100000
00000000
00010000
00000000
00011000
00000000
00001000
00010000
01000000
00000000
00100000
00000000
,
01000000
00000000
10000000
00000000
10010000
00000000
01100000
00000000
00000000
00000000
00000000
00000000
00010000
10000000
00010000
10000000
,
00010000
00000000
01000000
00000000
00100000
00000000
10000000
00000000
10100000
00000000
00000000
01010000
00000000
00000000
00011000
00000000
,
00001000
00000000
00000100
00000000
00000001
00000000
00000100
00000000
00000010
00001000
00000010
00001000
00000001
00000100
00000001
00000100
,
00000001
00000000
00000010
00000000
00000100
00000000
00001000
00000000
00000100
00000000
00000010
00000100
00000010
00000000
00000001
00000010
,
00000100
00000000
00001001
00000000
,
00000000
00000000
00000000
00000000
00000000
00000000
00000000
00000000
00000000
00000000
00000000
00000000
00000000
00000000
00000001
00000100
,
00001000
00000000
00000000
00010000
00000000
00000000
00001000
00010000
00100000
00000000
01000000
00000000
01100000
00000000
00100000
00000000
,
01010000
10000000
10010000
00010000
10000000
01000000
00010000
01000000
,
01100000
00000000
00000000
00000000
00000000
00000000
00001000
00010000
00001000
00000000
00000100
00000000
00000001
00000000
00000100
00000000
,
00000010
00000000
00001000
00000000
00000001
00000000
00000010
00000100
00001000
00000000
00000001
00000000
00000010
00000000
00001000
00000000
,
00010000
00001000
00010000
00000000
00100000
00000000
10000000
00010000
10000000
01000000
10000000
01000000
00100000
00010000
00100000
00010000
,
00001000
00000100
00001000
00000100
00000010
00000001
00000010
00000001
00001000
00000000
00000000
00000000
00000000
00000000
00000000
00000000
,
00000101
00000000
00000000
00001100
00000000
00000000
00010000
00001000
00010000
00000000
00000000
00000000
00000000
00000000
00000000
00000000
,
00000000
00000000
00000000
00000000
;

//---------------dance-single - ----------------
#NOTES:
     dance-single:
     :
     Challenge:
     17:
     0.823691,0.962704,0.303009,0.103889,0.783495,666.000000,631.000000,35.000000,12.000000,0.000000,0.000000,0.823691,0.962704,0.303009,0.103889,0.783495,666.000000,631.000000,35.000000,12.000000,0.000000,0.000000:
// measure 0
0000
0000
0000
0000
,  // measure 1
0000
0000
0000
0000
,  // measure 2
0000
0000
0000
0000
,  // measure 3
0000
0000
0000
0000
,  // measure 4
0000
0000
0000
0000
,  // measure 5
0000
0000
0000
0000
,  // measure 6
1001
0010
1000
0100
1000
0010
0100
0001
,  // measure 7
0010
0000
0100
0000
1000
0000
0010
0000
1000
0000
0001
0100
0010
0000
1000
0000
,  // measure 8
1100
0000
0000
0000
0000
0000
1100
0000
0000
0000
0000
0000
1100
0000
0000
0000
0000
0000
1000
0000
0001
0000
1000
0000
0001
0000
0000
0000
0000
0000
0001
0000
0000
0000
0000
0000
0001
0000
0000
0010
0000
0000
0100
0000
0000
1000
0000
0000
,  // measure 9
0010
0100
0010
0100
0001
0010
0100
1000
0020
0000
0000
0000
0130
0010
1000
0001
,  // measure 10
0010
0000
0001
0000
0100
0010
1000
0010
1000
0100
0010
0001
0000
0001
0100
0000
,  // measure 11
0001
0000
0010
0000
0100
1000
0010
0000
0100
0010
1000
0001
0000
0001
0010
0000
,  // measure 12
0100
0000
1000
0000
0010
0100
0001
0010
0001
1000
0010
0100
0000
0100
0001
0000
,  // measure 13
0010
0001
0100
0000
0010
1000
0100
0000
1100
0000
0000
0110
0000
0000
0011
0000
,  // measure 14
1001
0000
0010
0000
1000
0100
0010
0000
0001
0100
0010
1000
0100
0010
0001
0000
,  // measure 15
0100
0001
0010
0000
0001
1000
0010
0000
1000
0001
1000
0010
0100
0001
0010
0000
,  // measure 16
0100
0000
1000
0010
1000
0001
0100
0000
0010
0100
0010
1000
0100
0010
0001
0000
,  // measure 17
0010
0001
0100
0000
0010
1000
0100
0000
1000
0010
0100
0001
0010
0100
1000
0000
,  // measure 18
2020
0030
0000
0000
3000
0000
0000
0000
1100
0000
0000
0000
1000
0000
0000
0000
0010
0000
0000
0000
0100
0000
0000
0000
0001
0000
0000
0000
0010
0000
0000
0000
,  // measure 19
0100
1000
0010
0100
0010
1000
0100
0010
,  // measure 20
0001
1000
0001
0010
0001
0100
0010
1000
,  // measure 21
0001
0010
0100
1000
0001
0100
0110
0000
,  // measure 22
1001
0000
0011
0010
0001
1000
0010
1000
,  // measure 23
0100
0010
0001
0100
0001
0010
0100
1000
,  // measure 24
0010
0000
0101
0001
0010
0001
1000
0010
,  // measure 25
0100
0000
0010
0000
1000
0000
0100
0010
0100
0010
0100
0010
0001
0000
0100
0000
,  // measure 26
0001
0000
1000
0000
1001
0000
0100
0000
0010
0000
1000
0100
0010
0000
0100
0000
,  // measure 27
1000
0000
0010
0100
0001
0000
0010
0000
0100
0000
1000
0001
0010
0000
0001
0000
,  // measure 28
0100
0000
0010
0000
0100
0000
0001
0000
0010
0000
0100
1000
0010
0000
0100
0000
,  // measure 29
0001
0000
1000
0010
0100
0000
0001
0000
0010
0000
0001
1000
0100
0000
0010
0000
,  // measure 30
0100
0000
1000
0000
0110
0000
0001
0000
0100
0000
0010
0100
0001
0000
0010
0000
,  // measure 31
0100
0000
1000
0010
0100
0000
0010
0000
1000
0000
0100
1000
0001
0000
1000
0000
,  // measure 32
0010
0000
0100
0000
0001
0000
0010
0000
0100
0000
1000
0010
0100
0000
0001
0000
,  // measure 33
0010
0000
0001
1000
0010
1000
0010
1000
0100
0010
0100
0010
0001
0100
0001
0100
,  // measure 34
0001
1000
0001
1000
0001
0000
0010
0000
0100
0000
1000
0000
0010
0000
0100
0000
,  // measure 35
0002
0000
0000
0000
0000
0000
0000
0000
0000
0000
0000
0000
0000
0000
0000
0000
0000
0003
0000
0000
0001
0000
0100
0000
0010
0000
1000
0000
0000
0000
1000
0000
,  // measure 36
0100
0000
0010
0100
1000
0000
0010
0000
0100
0000
0001
0000
0010
0000
0100
0000
,  // measure 37
2000
0000
0000
0000
0000
0000
0000
0000
0000
0000
0000
3000
0000
0000
0000
0000
1000
0000
0001
0000
0010
0000
0100
0000
1000
0000
0000
0000
1000
0000
0000
0000
,  // measure 38
1000
0010
0100
0001
0010
0000
0100
0000
0010
0000
0001
0000
1000
0000
0010
0000
,  // measure 39
0200
0000
0000
0000
0000
0000
0000
0000
0000
0000
0000
0000
0000
0000
0000
0000
0000
0300
0000
0000
0001
0000
0010
0000
0100
0000
1000
0000
0000
0000
1000
0000
,  // measure 40
0010
0000
0100
0001
1000
0000
0001
0000
0010
0000
0100
0000
1000
0000
0001
0000
,  // measure 41
0020
0000
0000
0000
0000
0000
0000
0000
0000
0000
0000
0000
0000
0000
0000
0000
0000
0030
0000
0000
0001
0000
0100
0000
0010
0000
1000
0000
0000
0000
1000
0000
,  // measure 42
0100
0010
0001
1000
0001
0000
0010
0000
0100
0000
1000
0000
0010
0000
0001
0000
,  // measure 43
0010
0000
1000
0100
0010
0000
0100
0000
0010
0000
0001
0000
0100
0000
1000
0000
,  // measure 44
0100
0000
0001
0010
0001
0100
0010
1000
0001
0010
0100
1000
0010
0100
0001
1000
,  // measure 45
0100
0000
0010
0000
0001
0000
1000
0000
0020
0000
0000
0030
0000
0000
0000
0000
0010
0000
0000
0000
1000
0000
0100
0000
0000
0000
0100
0000
0001
0000
0000
0000
,  // measure 46
1000
0010
0100
0000
0001
0010
0100
0000
1000
0000
0001
0100
0000
0100
0010
0000
,  // measure 47
1000
0100
0001
0100
2000
0000
0000
0000
3010
0000
0100
0001
0000
0001
1000
0000
,  // measure 48
0001
0010
0100
0000
1000
0010
0100
0000
0001
0000
1000
0010
0000
0010
0100
0000
,  // measure 49
0001
0000
0000
0010
0000
0000
0100
0000
0000
1000
0000
0000
0001
0000
0000
0100
0000
0000
0010
0000
0000
1000
0000
0000
0000
0000
0000
0000
0000
0000
1000
0000
0001
0000
1000
0000
0001
0000
0000
0000
0000
0000
0100
0000
0000
0000
0000
0000
,  // measure 50
0010
0000
1000
0001
0000
0001
0100
0000
0001
0000
0010
0100
0000
0100
1000
0000
,  // measure 51
0010
0100
0001
0010
0100
1000
0001
0000
1000
0010
0100
0010
1000
0100
0010
0100
,  // measure 52
1000
0010
0100
0010
1000
0100
0010
0100
2000
0000
0000
0000
0000
0000
0000
0000
,  // measure 53
0000
0000
0000
0000
3010
0000
0100
0000
0001
1000
0010
0100
0010
0000
1000
0100
,  // measure 54
0001
0100
1000
0000
0010
0100
0001
0000
0010
0100
1000
0000
0010
0100
0001
0000
,  // measure 55
1000
0001
0010
0000
0100
1000
0001
0000
0010
0001
1000
0010
0100
0000
0001
0010
,  // measure 56
0100
1000
0001
0000
0100
0000
0010
0000
1000
0000
0001
0000
0010
0000
0100
0000
,  // measure 57
1000
0010
0100
0001
0010
0100
1000
0001
0100
0000
0000
0000
0010
1000
0010
1000
,  // measure 58
0010
0000
0100
0000
0001
0000
0010
0100
1000
0000
0010
0100
0001
0100
0010
0000
,  // measure 59
1000
0001
0010
0000
0100
1000
0010
0000
1010
0000
1010
0000
0101
0000
0101
0000
,  // measure 60
0011
0000
0000
0011
0000
0000
1100
0000
0000
1100
0000
0000
1001
0000
0000
0001
0100
0001
0100
0000
0000
0010
1000
0010
,  // measure 61
1000
0000
0000
0000
0110
0010
0100
0001
,  // measure 62
0100
0000
0000
0000
1000
0000
0000
0000
0100
0000
0000
0000
0020
0000
0000
0000
0000
0000
0000
0000
0000
0000
0000
0000
0000
0030
0000
0000
1000
0000
0001
0000
,  // measure 63
1000
0000
0000
0010
0000
0000
0100
0001
1000
0000
0001
0000
0010
0000
0100
0000
,  // measure 64
1000
0010
0001
0000
1100
0011
0101
1010
,  // measure 65
1001
0000
0000
0000
0000
0000
0000
0000
0000
0000
0000
0000
0000
0000
0000
0000
0000
0000
0010
0000
0100
0000
0010
0000
0100
0000
0000
0001
0000
0000
0100
0000
0000
0000
0000
0000
0001
0000
0000
0010
0000
0000
0100
0000
0000
0000
0000
0000
,  // measure 66
1000
0010
0100
0000
0001
0010
0100
0000
1001
0000
1001
0000
1000
0010
0100
0000
,  // measure 67
0001
0010
0100
0000
1000
0000
0010
0100
0001
1000
0010
0100
0001
0010
0100
1000
,  // measure 68
0010
0100
0010
0100
0001
1000
0001
1000
0200
0000
0000
0000
0300
0000
0000
0000
,  // measure 69
1100
0000
0000
0101
0000
0000
0010
1000
0001
0000
0000
0000
0000
0000
0000
0000
;
