#TITLE:I'm gonna get you!;
#SUBTITLE:;
#ARTIST:Kelly Cosmo;
#TITLETRANSLIT:;
#SUBTITLETRANSLIT:;
#ARTISTTRANSLIT:;
#GENRE:;
#CREDIT:;
#BANNER:I'm gonna get you!.png;
#BACKGROUND:I'm gonna get you!-bg.png;
#LYRICSPATH:;
#CDTITLE:;
#MUSIC:I'm gonna get you!.ogg;
#OFFSET:0.000000;
#SAMPLESTART:37.506001;
#SAMPLELENGTH:20.000000;
#SELECTABLE:YES;
#DISPLAYBPM:160.000000;
#BPMS:0.000000=160.714005
,4.000000=160.000000
;
#STOPS:
;
#BGCHANGES:;
#KEYSOUNDS:;
#ATTACKS:;

//---------------dance-single - ----------------
#NOTES:
     dance-single:
     :
     Beginner:
     3:
     0.165558,0.249215,0.102558,0.000000,0.000000,113.000000,103.000000,10.000000,0.000000,0.000000,0.000000,0.165558,0.249215,0.102558,0.000000,0.000000,113.000000,103.000000,10.000000,0.000000,0.000000,0.000000:
0000
0000
0000
0000
,
0000
0000
0000
0000
,
0000
0000
0000
0000
,
0000
0000
0000
0000
,
0100
0000
0100
0000
,
0000
0001
0000
0001
,
0000
0010
0000
0010
,
0000
1000
0000
1000
,
0000
0010
0000
0000
,
0001
0000
0000
0000
,
1000
0000
0000
0000
,
0010
0000
1000
0000
,
0100
0000
0001
0000
,
1000
0000
0000
0000
,
0001
0000
0000
0000
,
0010
0000
0001
0000
,
0100
0000
1000
0000
,
1001
0000
0000
0000
,
0100
0000
0001
0000
,
1001
0000
0000
0000
,
0100
0000
1000
0000
,
1001
0000
0010
0000
,
0100
0000
0010
0000
,
1001
0000
0000
0000
,
0010
0000
0000
1001
,
0000
1000
0000
1000
,
0000
0010
0000
0010
,
0000
0001
0000
0001
,
0000
0100
0000
0100
,
0000
0000
1000
1000
,
0000
0000
0010
0010
,
0000
0000
0001
0001
,
0000
0000
0100
0100
,
0000
1000
0000
0001
,
0000
1000
0000
0001
,
0000
0010
0000
0100
,
0000
0010
0000
0100
,
0000
0000
1001
0000
,
0100
0000
1001
0000
,
0010
0000
0110
0000
,
0100
0000
0110
0000
,
0000
0001
0000
0001
,
0000
0010
0000
0010
,
0000
1000
0000
1000
,
0000
0100
0000
0100
,
0000
0010
0000
0100
,
0000
0010
0000
0000
,
1001
0000
0000
0000
,
0100
0000
0000
0100
,
0000
0010
0000
0100
,
0000
0010
0000
0100
,
0000
0001
0000
0001
,
0000
1000
0000
1000
,
0000
0010
0000
0001
,
0000
0100
0000
0001
,
0000
0010
0000
1000
,
0000
0100
0000
1000
,
0000
1000
0000
0001
,
0000
0001
0000
1000
,
0000
0001
0000
1000
,
0000
0001
0000
1000
,
0000
0000
0000
0000
;

//---------------dance-single - ----------------
#NOTES:
     dance-single:
     :
     Easy:
     4:
     0.218302,0.286136,0.123069,0.051279,0.000000,149.000000,137.000000,12.000000,5.000000,0.000000,0.000000,0.218302,0.286136,0.123069,0.051279,0.000000,149.000000,137.000000,12.000000,5.000000,0.000000,0.000000:
0000
0000
0000
0000
,
0000
0000
0000
0000
,
0000
0000
0000
0000
,
0000
0000
0000
0000
,
0100
0000
0100
0000
,
0001
0001
0001
0000
,
0010
0000
0010
0000
,
1000
1000
1000
0000
,
0010
0000
0010
0000
,
0001
0100
0001
0000
,
1000
0000
1000
0000
,
0010
0010
1000
0000
,
0100
0000
0001
0000
,
1000
0100
1000
0000
,
0001
0000
0001
0000
,
0010
0010
0001
0000
,
0100
0000
1000
0000
,
1001
0000
0100
0000
,
0001
0000
1000
0000
,
1001
0000
0100
0000
,
1000
0000
0001
0000
,
1001
0000
0010
0000
,
0100
0000
0010
0000
,
1001
0000
1001
0000
,
0020
0000
0030
1001
,
0000
1000
0000
1000
,
0000
0010
0000
0010
,
0000
0001
0000
0001
,
0000
0100
0000
0100
,
0000
1000
1000
1000
,
0000
0010
0010
0010
,
0000
0001
0001
0001
,
0000
0100
0100
0100
,
0000
1000
0000
0001
,
0000
1000
0000
0001
,
0000
0010
0000
0100
,
0000
0010
0000
0100
,
0001
0000
1001
0000
,
1000
0000
1001
0000
,
0010
0000
0110
0000
,
0100
0000
0110
0000
,
0000
0001
0000
0001
,
0000
0001
0100
0001
,
0000
1000
0000
1000
,
0000
1000
0100
1000
,
0000
0010
0000
0100
,
0000
0010
0000
0100
,
2002
0000
3003
0000
,
0100
0100
0000
0100
,
0000
0010
0000
0100
,
0000
0010
0000
0100
,
0000
0001
0000
0001
,
0000
1000
0000
1000
,
0000
0010
0001
0001
,
0000
0100
0001
0001
,
0000
0010
1000
1000
,
0000
0100
1000
1000
,
0000
1000
0010
0001
,
0000
0001
0010
1000
,
0100
0001
0100
1000
,
0100
0001
0100
1000
,
0000
0000
0000
2002
0000
0000
0000
0000
,
3003
0000
0000
0000
,
0000
0000
0000
0000
;

//---------------dance-single - ----------------
#NOTES:
     dance-single:
     :
     Medium:
     7:
     0.360417,0.418308,0.328185,0.143581,0.000000,246.000000,214.000000,32.000000,14.000000,0.000000,0.000000,0.360417,0.418308,0.328185,0.143581,0.000000,246.000000,214.000000,32.000000,14.000000,0.000000,0.000000:
0000
0000
0000
0000
,
0000
0000
0000
0000
,
0000
0000
0000
0000
,
0000
0000
0000
0000
,
0100
0100
0100
0100
,
0001
1000
0001
1000
,
0100
1000
0001
1000
,
1000
0001
1000
0001
,
0100
0001
1000
0001
,
1000
0100
0001
0100
,
0010
0000
0010
0000
,
0010
1000
0100
1000
,
0001
0000
0001
0000
,
0001
0010
1000
0010
,
0100
0000
0100
0000
,
0100
0001
0010
0001
,
1000
0000
1000
0000
,
0110
1001
0000
0100
,
0010
0001
0100
1000
0000
0000
0001
0000
,
1010
0011
0000
0100
,
0001
0100
1000
0100
0000
0000
0010
0000
,
1100
0101
0000
1000
,
0100
0010
0001
0100
0000
0000
0000
0000
,
0110
0000
1001
0000
,
0100
0100
0100
1001
,
2000
0001
0001
3001
,
0002
1000
1000
1003
,
0010
1001
0100
1001
,
0010
0001
1000
0101
,
2001
0010
0001
3010
,
1002
0010
1000
0013
,
1000
0100
0001
0100
,
1000
0010
0001
0010
,
0001
1000
0000
0101
,
1000
0001
0000
1100
,
0010
0001
0000
1010
,
0010
1000
0000
0011
,
0010
0010
1001
0000
,
0100
0000
1001
0000
,
0010
0010
1001
0000
,
0010
0000
0000
0000
0001
1000
0001
0000
,
2000
0001
0100
0001
,
0010
0001
0100
3001
,
0002
1000
0100
1000
,
0010
1000
0100
1003
,
1000
0001
0100
0001
,
0001
1000
0100
1000
,
2002
0000
3003
0000
,
0010
0100
0010
0100
0010
0000
1001
0000
,
0020
0100
1000
0130
,
0001
0000
1000
0000
0001
0100
0001
0000
,
1000
1100
0001
0101
,
1000
0000
0010
0000
0001
0100
0001
0000
,
0020
0100
0001
0130
,
1000
0000
0001
0000
1000
0100
1000
0000
,
0001
0101
1000
1100
,
0001
0000
0010
0000
1000
0100
1000
0000
,
2000
0001
0010
3100
,
0002
1000
0010
0103
,
0100
1001
0010
1001
,
0010
1000
0001
1100
,
0110
0000
0000
2002
0000
0000
0000
0000
,
0000
0000
0000
3003
,
0000
0000
0000
0000
;

//---------------dance-single - ----------------
#NOTES:
     dance-single:
     :
     Hard:
     9:
     0.499603,0.514840,0.287162,0.061535,0.000000,341.000000,313.000000,28.000000,6.000000,0.000000,0.000000,0.499603,0.514840,0.287162,0.061535,0.000000,341.000000,313.000000,28.000000,6.000000,0.000000,0.000000:
0000
0000
0000
0000
,
0000
0000
0000
0000
,
0000
0000
0000
0000
,
0000
0000
0000
0000
,
0010
0000
0010
0000
0100
0010
0100
0000
,
1000
0100
0001
0100
0000
0000
0000
1010
,
0000
0000
0000
0101
0000
0010
1000
0100
,
0001
0100
1000
0100
0000
0000
0000
0011
,
0000
0000
0000
1100
0000
0010
0001
0100
,
0001
0001
0200
0000
0000
0000
0300
0001
,
1000
0000
0010
1000
0000
1001
0000
0000
,
0100
0010
0100
0000
0000
0010
1000
0100
,
0001
0100
0000
0020
0000
0100
0000
0130
,
0000
0000
0200
0000
0000
0000
0300
1000
,
0001
0000
0010
0001
0000
1001
0000
0000
,
0010
0100
0010
0000
0000
0010
0001
0100
,
1000
0100
0000
0001
0000
1000
0000
0000
,
1010
0000
0101
0000
0010
0001
0100
0001
,
0000
1000
0010
0001
0000
0100
0001
0000
,
0011
0000
1100
0000
0010
1000
0100
1000
,
0001
0010
0000
1001
0000
0100
1000
0000
,
0110
0000
1001
0000
0010
0100
0001
1000
,
0000
0010
0100
0001
0000
1000
0100
0000
,
0020
0000
0001
0000
0001
0030
0001
0100
,
0000
1000
0100
1000
0100
1000
0100
0000
,
0010
1000
0100
0000
0010
0001
0010
0001
,
0000
0100
0010
0000
1000
0001
1000
0001
,
0000
0100
0001
0000
0100
0010
0100
0001
,
0000
1001
0000
1100
0000
0001
0100
0000
,
0100
0001
0010
0000
0100
1000
0100
1000
,
0000
0010
0100
0000
0001
1000
0001
1000
,
0000
0010
1000
0000
0010
0100
0010
1000
,
0000
0001
1000
0001
0100
0010
1000
0010
,
1000
1100
0001
0101
,
1000
0000
1010
0000
0001
0010
0001
1000
,
0100
0011
0100
1010
,
0010
0000
1001
0000
0000
0100
0001
0100
,
0010
0000
0010
0000
0011
0000
0000
0100
,
0010
0000
0010
0000
1010
0000
0000
0001
,
0010
0000
0010
0000
0101
0000
0000
1000
,
0010
0000
0010
0000
1000
0001
0100
0001
,
1000
0000
0010
0001
1000
0000
0100
0001
,
1000
0000
0010
1000
0001
0000
0100
0001
,
1000
0000
0010
0100
0001
0000
0010
0100
,
1000
0000
0010
1000
0100
1000
0001
0100
,
0010
0000
1000
0001
0010
0000
0001
1000
,
0100
0000
1000
0001
0100
0000
0001
1000
,
0020
1000
1000
1030
,
0001
0010
0001
0100
0010
0100
1000
0000
,
1000
0100
0001
0000
1000
0010
1000
0010
,
0000
0001
1000
0000
0100
0010
0100
0010
,
0000
1000
0001
0000
1000
0100
0010
0001
,
0000
1001
0000
0011
0000
1000
0001
0100
,
1000
0100
0001
0000
0100
0010
0100
0010
,
0000
1000
0100
0000
0001
1000
0001
1000
,
0000
1000
0010
0000
0100
0010
0100
0001
,
0000
1000
0001
1000
0100
0010
0001
0100
,
1000
0001
0010
0000
0001
0100
0010
1000
,
0000
0100
1000
0000
0001
0100
0001
0010
,
0000
0100
0010
0000
1000
0100
0001
0100
,
0000
1010
0000
1001
0000
0001
0100
0000
,
0010
1000
0100
0002
0000
0000
0000
0000
,
0000
0000
0000
0003
,
0000
0000
0000
0000
;

//---------------dance-double - ----------------
#NOTES:
     dance-double:
     :
     Easy:
     4:
     0.210976,0.317929,0.153837,0.030767,0.000000,144.000000,129.000000,15.000000,3.000000,0.000000,0.000000,0.210976,0.317929,0.153837,0.030767,0.000000,144.000000,129.000000,15.000000,3.000000,0.000000,0.000000:
00000000
00000000
00000000
00000000
,
00000000
00000000
00000000
00000000
,
00000000
00000000
00000000
00000000
,
00000000
00000000
00000000
00000000
,
00000000
00000000
00000000
00000000
,
00010000
00001000
00010000
00000000
,
00000010
00000000
00000010
00000000
,
00001000
00010000
00001000
00000000
,
00100000
00000000
00100000
00000000
,
01000000
00000000
01000000
00000000
,
10000000
00010000
00010000
00000000
,
01000000
00000000
00001000
00000000
,
00010000
00000000
00000010
00000000
,
00000100
00000000
00000100
00000000
,
00000001
00001000
00001000
00000000
,
00000100
00000000
00010000
00000000
,
00001000
00000000
00100000
00000000
,
01000000
01000000
00000000
00010000
,
00000000
10000000
00000000
00010000
,
01000000
01000000
00000000
00001000
,
00000000
00010000
00000000
00000100
,
00000010
00000010
00000000
00000001
,
00000000
00000100
00000000
00010000
,
00011000
00000000
00011000
00000000
,
00001000
00001000
00001000
00011000
,
00000000
00100000
00000000
01000000
,
00000000
00100000
00000000
01000000
,
00000000
10000000
00000000
00010000
,
00000000
01000000
00000000
00011000
,
00000000
00000010
00000000
00000100
,
00000000
00000010
00000000
00000100
,
00000000
00000001
00000000
00001000
,
00000000
00000100
00000000
00011000
,
00000000
00100000
00000000
00100000
,
00000000
10000000
00000000
10010000
,
00000000
00010000
00000000
00010000
,
00000000
00001000
00000000
00011000
,
00000010
00000000
00001001
00000000
,
00000100
00000000
00001001
00000000
,
00000010
00000000
00000110
00000000
,
00001000
00000000
00011000
00000000
,
00000000
00001000
00000000
00001000
,
00000000
00100000
00010000
01000000
,
00000000
10000000
00000000
00010000
,
00000000
01000000
00001000
00010000
,
00000000
00010000
00000000
00010000
,
00000000
00000010
00001000
00000100
,
00000002
00000000
00000003
00000000
,
00001000
00000100
00000000
00011000
,
00000000
00100000
00000000
00100000
,
00000000
10000000
00000000
10000000
,
00000000
01000000
00000000
00010000
,
00000000
01000000
00000000
00011000
,
00000000
00000010
00000000
00000010
,
00000000
00000001
00000000
00000001
,
00000000
00000100
00000000
00001000
,
00000000
00000100
00000000
00011000
,
00000000
00100000
00001000
00010000
,
00000000
00000010
00010000
00001000
,
00000000
01000000
00001000
00010000
,
00000000
00000100
00010000
00001000
,
00000000
00000000
00000000
00022000
00000000
00000000
00000000
00000000
,
00033000
00000000
00000000
00000000
,
00000000
00000000
00000000
00000000
;

//---------------dance-double - ----------------
#NOTES:
     dance-double:
     :
     Medium:
     7:
     0.350162,0.386130,0.266650,0.092302,0.000000,239.000000,213.000000,26.000000,9.000000,0.000000,0.000000,0.350162,0.386130,0.266650,0.092302,0.000000,239.000000,213.000000,26.000000,9.000000,0.000000,0.000000:
00000000
00000000
00000000
00000000
,
00000000
00000000
00000000
00000000
,
00000000
00000000
00000000
00000000
,
00000000
00000000
00000000
00000000
,
00001000
00001000
00001000
00001000
,
00000010
00010000
00000010
00010000
,
00000100
00010000
00000100
00010000
,
00100000
00001000
00100000
00001000
,
01000000
00001000
01000000
00001000
,
01000000
00100000
10000000
01000000
,
00010000
00000000
00010000
00000000
,
00001000
00000010
00000001
00000100
,
00001000
00000000
00001000
00000000
,
00010000
01000000
10000000
00010000
,
01000000
00000000
01000000
00000000
,
10000000
01000000
00010000
00001000
,
00000010
00000000
00000010
00000000
,
00000110
00001001
00000000
00000100
,
00000001
00001000
00000010
00001000
,
00001100
00011000
00000000
01000000
,
00100000
10000000
00010000
10000000
,
01100000
10010000
00000000
01000000
,
10000000
00010000
00100000
00010000
,
01010000
00000000
00011000
00000000
,
00001000
00001000
00001000
00000110
,
00000001
00000100
00001000
00000100
,
00000001
00000100
00001000
00010000
,
00100000
10100000
01000000
01010000
,
10000000
00010000
10000000
10010000
,
10000000
01000000
00010000
01000000
,
10000000
01000000
00010000
00001000
,
00000010
00000011
00000100
00001100
,
00000001
00001000
00000001
00001001
,
00000010
00000000
00010000
00000000
00000100
00000000
00010000
00002000
,
00000000
00000000
00000000
00013000
00000000
00000000
00001000
00000000
,
00100000
00000000
00001000
00000000
01000000
00000000
00001000
00020000
,
00000000
00000000
00000000
00031000
00000000
00000000
00010000
00000000
,
00000010
00000010
00001010
00000000
,
00000100
00000000
00000101
00000000
,
00001000
00001000
00001100
00000000
,
00010000
00000000
00000000
00000000
00001000
00010000
00001000
00000000
,
00200000
00010000
01000000
00310000
,
20000000
00010000
01000000
30010000
,
00200000
00001000
00010000
00301000
,
00010000
00000010
00001010
00000000
,
00000020
00001000
00000100
00001030
,
00000002
00001000
00000100
00001003
,
00000020
00010000
00001000
00010030
,
00001000
00010000
00001000
00010000
00001000
00000000
00011000
00000000
,
00100000
00010000
01000000
00010000
,
10000000
01000000
00010000
00001000
,
00000010
00001010
00000100
00000101
,
00001000
00000100
00010000
00000100
,
00000010
00001000
00000100
00001000
,
00000001
00000100
00001000
00010000
,
00100000
00110000
01000000
11000000
,
00010000
01000000
00001000
01000000
,
00010000
01000000
10000000
00100000
,
00010000
01010000
00001000
00011000
,
01000000
00010000
00100000
00001000
,
00000100
00010000
00000010
00010000
,
00001000
00000000
00100000
02000000
00000000
00000000
00000000
00000000
,
00000000
00000000
00000000
03000000
,
00000000
00000000
00000000
00000000
;

//---------------dance-double - ----------------
#NOTES:
     dance-double:
     :
     Hard:
     11:
     0.495208,0.514840,0.317929,0.041023,0.000000,338.000000,307.000000,31.000000,4.000000,0.000000,0.000000,0.495208,0.514840,0.317929,0.041023,0.000000,338.000000,307.000000,31.000000,4.000000,0.000000,0.000000:
00000000
00000000
00000000
00000000
,
00000000
00000000
00000000
00000000
,
00000000
00000000
00000000
00000000
,
00000000
00000000
00000000
00000000
,
00001000
00001000
00001000
00011000
,
00010000
00001000
00000100
00001000
00000000
00000000
00000000
00110000
,
00000000
00000000
00000000
11000000
00000000
10000000
01000000
00010000
,
00001000
00010000
01000000
00010000
00000000
00000000
00000000
00001010
,
00000000
00000000
00000000
00000101
00000000
00000001
00000100
00001000
,
00010000
00010000
00002000
00000000
00000000
00000000
00003000
00100000
,
00010000
00000000
10000000
00100000
00000000
10010000
00000000
00000000
,
00100000
00010000
10000000
00000000
00000000
00100000
10000000
01000000
,
00010000
00001000
00000000
00100000
00000000
00001000
00000000
00001000
,
00020000
00000000
00000000
00000000
00000000
00000000
00030000
00000010
,
00001000
00000000
00000001
00000010
00000000
00001001
00000000
00000000
,
00000010
00001000
00000001
00000000
00000000
00000010
00000001
00000100
,
00001000
00010000
00000000
00000100
00000000
00010000
00000000
00000000
,
00011000
00000000
01001000
00000000
00100000
00010000
01000000
00010000
,
00000000
10000000
01000000
00100000
00000000
00001000
00010000
00000000
,
00011000
00000000
00010100
00000000
00000010
00001000
00000100
00001000
,
00000001
00000010
00000000
00001100
00000000
00010000
00001000
00000000
,
00011000
00000000
01100000
00000000
10000000
01000000
00010000
00001000
,
00000000
00010000
01000000
00010000
00000000
00001000
00000100
00000000
,
00000001
00000000
00000000
00000000
00011000
00000000
00000000
01000000
,
00000000
00001000
00010000
00001000
00010000
00001000
00010000
00000000
,
00000010
00001000
00000100
00000000
00000010
00000001
00001000
00000100
,
00000000
00000001
00000100
00000000
00010000
00000100
00010000
00001000
,
00000000
01000000
00010000
00000000
00010000
01000000
10000000
01000000
,
00000000
01100000
00000000
01010000
00000000
10000000
01000000
00000000
,
00010000
00001000
00000010
00000000
00000001
00000100
00000010
00001000
,
00000000
00000001
00001000
00000000
00000010
00000100
00001000
00010000
,
00000000
00100000
01000000
00000000
01000000
00010000
10000000
01000000
,
00000000
00010000
01000000
00010000
00001000
00000100
00000010
00000000
,
00001000
00001010
00000001
00000101
,
00000010
00001100
00000100
00011000
,
00100000
00110000
01000000
11000000
,
00100000
00000000
10010000
00000000
00000000
01000000
00010000
00001000
,
00010000
00000000
00010000
00000000
00011000
00000000
00000000
00000010
,
00000100
00000000
00000100
00000000
00001100
00000000
00000000
00010000
,
00001000
00000000
00001000
00000000
00011000
00000000
00000000
01000000
,
00100000
00000000
00100000
00000000
01000000
00001000
00010000
00001000
,
00010000
00000000
00000010
00000100
00000001
00000000
00001000
00000100
,
00000010
00000000
00000001
00000100
00001000
00000000
00010000
01000000
,
10000000
00000000
00100000
01000000
00010000
00000000
10000000
01000000
,
00100000
00000000
00010000
10000000
01000000
00010000
00001000
00010000
,
00001000
00000000
00000010
00000001
00001000
00000000
00000010
00000100
,
00001000
00000000
00000100
00000001
00000100
00000000
00001000
00010000
,
00200000
01000000
01000000
01300000
,
00100000
10000000
00010000
01000000
00001000
00010000
00001000
00000000
,
00000010
00000100
00000001
00000000
00001000
00000100
00001000
00000100
,
00000000
00000001
00000100
00000000
00000001
00000010
00000001
00000100
,
00000000
00001000
00010000
00000000
01000000
00010000
00001000
00010000
,
00000000
00011000
00000000
00010100
00000000
00001000
00000001
00000100
,
00001000
00010000
00100000
00000000
01000000
00010000
01000000
00010000
,
00000000
10000000
01000000
00000000
10000000
00100000
10000000
01000000
,
00000000
00010000
00001000
00000000
00000100
00000001
00000100
00000010
,
00000000
00001000
00000010
00001000
00000001
00001000
00000100
00000001
,
00000100
00000010
00000001
00000000
00000100
00001000
00010000
00100000
,
00000000
00010000
00001000
00000000
00010000
01000000
10000000
01000000
,
00000000
00010000
01000000
00000000
00100000
00010000
01000000
00010000
,
00000000
10100000
00000000
10010000
00000000
01000000
00010000
00000000
,
00001000
00100000
00001000
00020000
00000000
00000000
00000000
00000000
,
00000000
00000000
00000000
00030000
,
00000000
00000000
00000000
00000000
;

//---------------dance-single - ----------------
#NOTES:
     dance-single:
     :
     Challenge:
     13:
     0.654905,0.707905,0.440999,0.235883,0.076918,447.000000,404.000000,43.000000,23.000000,0.000000,0.000000,0.654905,0.707905,0.440999,0.235883,0.076918,447.000000,404.000000,43.000000,23.000000,0.000000,0.000000:
// measure 0
0000
0000
0000
0000
,  // measure 1
0000
0000
0000
0000
,  // measure 2
0000
0000
0000
0000
,  // measure 3
0000
0000
0000
0000
,  // measure 4
1010
0000
0000
0000
0101
0000
0000
0000
1000
0001
1000
0001
0100
0000
0000
0000
,  // measure 5
0102
1000
1003
1100
0000
1000
0001
0011
,  // measure 6
0000
0010
0100
2100
0000
0001
3001
1000
,  // measure 7
2010
0100
3100
0110
0000
0001
1000
0101
,  // measure 8
0000
0010
0100
1020
0000
1000
1030
0001
,  // measure 9
0100
0000
0110
0010
1000
0001
0000
0100
,  // measure 10
0001
1000
0100
1100
0000
0010
0100
0001
,  // measure 11
1001
1000
0100
0020
0000
0001
0031
0000
,  // measure 12
0011
0001
0100
2000
0000
3020
0100
0000
,  // measure 13
1030
0000
1010
0001
0000
0100
0010
1000
,  // measure 14
0120
0000
1030
2010
0000
3001
1001
0000
,  // measure 15
1000
0001
0010
0200
0000
1000
1300
0100
,  // measure 16
0010
0001
0100
2000
0000
3010
0100
0000
,  // measure 17
0101
0000
0101
0000
0001
0010
0100
1000
,  // measure 18
0010
1000
0100
0010
0001
0100
1000
0000
,  // measure 19
1100
0000
1100
0000
0001
1000
0100
0010
,  // measure 20
0001
0100
1000
0010
1000
0100
0010
0000
,  // measure 21
0011
0000
0011
0000
0100
0001
0010
0100
,  // measure 22
1000
0001
0010
0100
1000
0001
0100
0000
,  // measure 23
1010
0000
1010
0000
0001
0010
0100
2000
,  // measure 24
0000
0000
3001
0000
1000
0000
0001
0000
1000
0000
0001
0100
1000
0000
0000
0000
,  // measure 25
0010
0000
2100
0000
3001
0100
0010
1000
,  // measure 26
0100
0010
0001
0000
1000
0001
0100
0010
,  // measure 27
1000
0100
0001
0000
1000
0001
0010
1100
,  // measure 28
0000
1001
0001
0101
0000
0001
0100
0010
,  // measure 29
1000
0000
0110
1000
0100
0010
0001
0100
,  // measure 30
1000
0001
0010
0000
0001
0100
0001
1000
,  // measure 31
0100
0010
0001
0000
0100
0010
1000
0102
,  // measure 32
0000
0010
0010
0010
0013
0001
1000
0001
,  // measure 33
0010
0001
0100
1000
0001
0010
0100
0000
,  // measure 34
0010
1000
0100
0010
0001
1000
0100
0000
,  // measure 35
1000
0001
0100
0010
0001
0010
1000
0000
,  // measure 36
0001
1000
0100
1000
0001
0010
0100
0000
,  // measure 37
2000
0100
0100
3100
0002
0100
0100
0103
,  // measure 38
0020
1000
1000
1030
0200
1000
1000
1300
,  // measure 39
0002
0010
0010
0013
0200
1000
1000
1300
,  // measure 40
0001
0000
0001
0000
1000
0000
1000
0000
0010
0100
0010
0100
0010
0000
0000
0000
,  // measure 41
1001
0000
0110
0000
0010
1000
0100
0010
,  // measure 42
0001
0100
0010
1000
0001
1000
0100
0010
,  // measure 43
0001
1000
0010
0001
0100
1000
0010
0100
,  // measure 44
0001
0010
1000
0010
0100
1000
0100
0001
,  // measure 45
1000
0100
0010
0100
0010
0001
1000
0001
,  // measure 46
0010
0100
1000
0010
0100
0001
1000
0001
,  // measure 47
1001
0000
0000
1000
0100
0000
0000
1000
0100
0000
0000
1000
0100
0000
0000
0000
,  // measure 48
1000
0010
1000
0010
0100
0010
0100
0010
1000
0000
0100
0010
0001
0000
0000
0000
,  // measure 49
0100
0000
1010
0010
0100
0001
0010
0100
,  // measure 50
1000
0010
0100
0000
0001
0010
0100
1000
,  // measure 51
0010
1000
0100
0000
0010
0001
0100
0011
,  // measure 52
0000
1001
1000
1100
0000
0010
0100
0001
,  // measure 53
0010
0000
1100
0010
0100
0001
1000
0100
,  // measure 54
0010
0001
1000
0000
0001
0100
0010
1000
,  // measure 55
0100
1000
0001
0000
0010
0001
0100
1002
,  // measure 56
0000
0100
0100
0103
0001
0010
0100
1000
,  // measure 57
0100
0000
1001
0010
1000
0100
0010
0100
,  // measure 58
0001
0100
1000
0000
0001
1000
0100
0010
,  // measure 59
1000
0100
0001
0000
0010
0001
0100
1000
,  // measure 60
0001
1000
0010
0100
0001
0010
0100
1000
,  // measure 61
0001
1000
0001
1000
0001
0000
0220
0000
0000
0000
0000
0000
0000
0000
0000
0000
,  // measure 62
0000
0000
0000
0330
;
