#VERSION:0.83;
#TITLE:I'M FOR REAL;
#SUBTITLE:;
#ARTIST:SLAKE feat. JP Miles;
#TITLETRANSLIT:;
#SUBTITLETRANSLIT:;
#ARTISTTRANSLIT:;
#GENRE:;
#ORIGIN:;
#CREDIT:;
#BANNER:I'M FOR REAL-bn.png;
#BACKGROUND:I'M FOR REAL-bg.png;
#PREVIEWVID:;
#JACKET:I'M FOR REAL-jacket.png;
#CDIMAGE:;
#DISCIMAGE:;
#LYRICSPATH:;
#CDTITLE:;
#MUSIC:I'M FOR REAL.ogg;
#OFFSET:-0.300000;
#SAMPLESTART:34.280003;
#SAMPLELENGTH:20.000000;
#SELECTABLE:YES;
#DISPLAYBPM:140.000000;
#BPMS:0.000=140.000;
#STOPS:;
#DELAYS:;
#WARPS:;
#TIMESIGNATURES:0.000=4=4;
#TICKCOUNTS:0.000=4;
#COMBOS:0.000=1;
#SPEEDS:0.000=1.000=0.000=0;
#SCROLLS:0.000=1.000;
#FAKES:;
#LABELS:0.000=Song Start;
#BGCHANGES:;
#KEYSOUNDS:;
#ATTACKS:
;

//---------------dance-single - ----------------
#NOTEDATA:;
#CHARTNAME:;
#STEPSTYPE:dance-single;
#DESCRIPTION:;
#CHARTSTYLE:;
#DIFFICULTY:Beginner;
#METER:2;
#RADARVALUES:0.151424,0.221630,0.085654,0.000000,0.000000,99.000000,91.000000,8.000000,0.000000,0.000000,0.000000,0.000000,0.000000,0.000000,0.151424,0.221630,0.085654,0.000000,0.000000,99.000000,91.000000,8.000000,0.000000,0.000000,0.000000,0.000000,0.000000,0.000000;
#CREDIT:;
#DISPLAYBPM:140.000000;
#NOTES:
0000
0000
0000
0000
,
0000
0000
0000
0000
,
0000
0000
0000
0000
,
0000
0000
0000
0000
,
0100
0000
0000
0000
,
0000
0000
0001
0000
,
1000
0000
0000
0000
,
0010
0000
0000
0000
,
0100
0000
0000
0000
,
0010
0000
0000
0000
,
0100
0000
0010
0000
,
0100
0000
0010
0000
,
0100
0000
1000
0000
,
0010
0000
0001
0000
,
0100
0100
0000
0000
,
1000
1000
0000
0000
,
0001
0001
0000
0000
,
0010
0010
0000
0000
,
0001
0000
1000
0000
,
0001
0000
1000
0000
,
0010
0000
0001
0000
,
0001
0000
1000
0000
,
0100
0000
1000
0000
,
0010
0000
0001
0000
,
0001
0000
1000
0000
,
1000
0000
0001
0000
,
0001
0000
1000
0000
,
0010
0000
0100
0000
,
0010
0000
1001
0000
,
0100
0000
0010
0000
,
1000
0000
0110
0000
,
0001
0000
0010
0000
,
1001
0000
0010
0000
,
1001
0000
1000
0000
,
0110
0000
0100
0000
,
0001
0001
0000
1000
,
0000
0100
0000
0100
,
0000
0010
0000
0100
,
0000
0001
0000
0001
,
0000
0000
0100
0000
,
0010
0010
0000
0100
,
0000
0100
0000
0010
,
0000
0100
0000
0010
,
0000
0000
0110
0000
,
0110
0000
1000
0000
,
1000
1000
0000
0001
,
0000
1000
0000
0100
,
0000
0010
0000
0100
,
0000
0010
0000
0010
,
0000
0100
0000
0100
,
0000
0110
0000
1000
,
0000
0001
0000
0100
;

//---------------dance-single - ----------------
#NOTEDATA:;
#CHARTNAME:;
#STEPSTYPE:dance-single;
#DESCRIPTION:;
#CHARTSTYLE:;
#DIFFICULTY:Easy;
#METER:5;
#RADARVALUES:0.250844,0.332445,0.117774,0.000000,0.000000,164.000000,153.000000,11.000000,0.000000,0.000000,0.000000,0.000000,0.000000,0.000000,0.250844,0.332445,0.117774,0.000000,0.000000,164.000000,153.000000,11.000000,0.000000,0.000000,0.000000,0.000000,0.000000,0.000000;
#CREDIT:;
#DISPLAYBPM:140.000000;
#NOTES:
0000
0000
0000
0000
,
0000
0000
0000
0000
,
0000
0000
0000
0000
,
0000
0000
0000
0000
,
0100
0000
0000
0000
,
0000
0000
0001
0000
,
1000
0000
0000
0000
,
0010
0000
0000
0000
,
0100
0000
0000
0000
,
0010
0000
0000
0000
,
0100
0000
0010
0000
,
0100
1000
0010
0001
,
0100
0000
1000
0000
,
0010
0000
0001
0000
,
0100
0100
0010
0000
,
1000
1000
0100
0000
,
0001
0001
0100
0000
,
0010
0010
0100
0000
,
0001
0100
1000
0010
,
0001
0010
1000
0110
,
0010
0100
0001
1000
,
0001
0100
1000
0000
,
0100
0010
1000
0000
,
0010
0100
0001
0010
,
0001
0100
1000
0001
,
1000
0100
0001
1000
,
0001
0100
1000
0100
,
0010
0001
0100
1000
,
0010
1000
1001
0000
,
0100
0001
0010
0000
,
1000
0001
0110
0000
,
0001
1000
0010
0100
,
1001
0100
0010
0000
,
1001
0010
1000
0000
,
0110
0010
0100
0000
,
0001
0001
1000
1000
,
0010
0100
1000
0100
,
0001
0010
1000
0100
,
0001
0001
1000
0001
,
0010
0000
0100
0000
,
0010
0010
0100
0100
,
0001
0100
1000
0010
,
0001
0100
1000
0010
,
0001
0000
0110
1001
,
0110
0001
1000
0001
,
1000
1000
0001
0001
,
0010
1000
0001
0100
,
0001
0010
1000
0100
,
0110
0010
0100
0010
,
0001
0100
1000
0100
,
0010
0110
0001
1000
,
0001
0001
1000
0100
;

//---------------dance-single - ----------------
#NOTEDATA:;
#CHARTNAME:;
#STEPSTYPE:dance-single;
#DESCRIPTION:;
#CHARTSTYLE:;
#DIFFICULTY:Medium;
#METER:8;
#RADARVALUES:0.338027,0.443260,0.203428,0.535338,0.000000,221.000000,202.000000,19.000000,50.000000,0.000000,0.000000,0.000000,0.000000,0.000000,0.338027,0.443260,0.203428,0.535338,0.000000,221.000000,202.000000,19.000000,50.000000,0.000000,0.000000,0.000000,0.000000,0.000000;
#CREDIT:;
#DISPLAYBPM:140.000000;
#NOTES:
0000
0000
0000
0000
,
0000
0000
0000
0000
,
0000
0000
0000
0000
,
0000
0000
0000
0000
,
0200
0000
0000
0000
0300
0000
0000
1000
,
0100
0000
0001
1000
,
0020
0000
0030
0000
,
0001
0000
0000
0000
,
0002
0000
1003
0101
,
2000
0000
3010
1100
,
0020
0130
0200
0310
,
0001
0000
0100
0000
1000
0001
0100
0000
,
0020
0000
1030
0000
0001
0100
0010
0001
,
2000
0000
0000
3000
0000
0001
1000
0100
,
0020
0032
0203
0320
,
2030
0000
3000
0000
0000
0001
1000
0000
,
1100
0000
0001
0000
0010
0001
1000
0100
,
0020
0000
0031
0100
,
0020
2030
3002
0203
,
0320
0030
1010
0101
,
1001
0000
0001
0100
0001
0000
1001
0000
,
0010
1000
0200
0300
,
0001
1000
0001
0100
1000
0100
0001
0000
,
2000
0000
3001
0000
1000
0010
0100
0000
,
0110
0000
0001
0100
0001
0000
1001
0000
,
0010
1000
0001
0200
0000
0000
0300
0000
,
0010
1000
0001
0010
0100
1000
0010
0000
,
0200
0000
0300
0000
0010
1000
0100
0000
,
0001
0100
0202
0303
,
1000
0100
2002
3003
,
0010
1000
1010
0000
,
1000
0001
0220
0330
,
1000
0001
0100
0010
1000
0000
0000
0000
,
0001
1000
0001
0100
0010
0000
0000
0000
,
2000
0000
3001
0100
0001
0000
1000
0000
,
0002
0000
0013
0000
0100
0010
0001
0000
,
0100
0001
0010
0000
2000
0000
3002
0000
,
0023
0230
2300
3000
,
0010
0100
0001
0000
0010
0001
1000
0000
,
0100
0010
0001
0100
0000
0010
1000
0000
,
0100
0010
0001
0000
0200
0000
0320
0000
,
2030
3002
0203
0320
,
1030
0000
1000
0000
0001
1000
0001
0000
,
0100
0010
1100
0101
,
0020
0000
0130
0000
0001
1000
0100
0000
,
2000
0000
3100
0000
0010
0001
0100
0000
,
0002
0100
2000
3003
,
0020
1000
0002
0033
,
0200
0000
0301
0000
1000
0010
0100
0000
,
0002
0000
0013
0000
1000
0001
0100
0000
,
0010
0001
1000
0100
0010
0001
0100
0000
,
0011
1100
0110
1001
;

//---------------dance-single - ----------------
#NOTEDATA:;
#CHARTNAME:;
#STEPSTYPE:dance-single;
#DESCRIPTION:;
#CHARTSTYLE:;
#DIFFICULTY:Hard;
#METER:9;
#RADARVALUES:0.371677,0.443260,0.053534,0.428270,0.117774,243.000000,238.000000,5.000000,40.000000,0.000000,0.000000,0.000000,0.000000,0.000000,0.371677,0.443260,0.053534,0.428270,0.117774,243.000000,238.000000,5.000000,40.000000,0.000000,0.000000,0.000000,0.000000,0.000000;
#CREDIT:;
#DISPLAYBPM:140.000000;
#NOTES:
0000
0000
0000
0000
,
0000
0000
0000
0000
,
0000
0000
0000
0000
,
0000
0000
0000
0000
,
2000
0000
0000
0000
,
3100
0000
0000
0000
0000
0000
0000
0000
0010
0000
0000
1000
0000
0000
0010
0000
,
0200
0000
0000
0000
,
0300
0000
0110
1001
,
0020
0000
0000
0000
1030
0000
0000
0100
0000
0000
0000
0010
0100
0000
0000
0000
,
2000
0000
0000
0000
3001
0000
0000
0100
0000
0000
0000
0010
0100
0000
0000
0000
,
0020
0130
2000
3100
,
0010
1000
0100
0001
,
0200
0000
0000
0000
0301
0000
0000
1000
0000
0000
0000
0001
0100
0000
0001
0000
,
2000
0000
0000
0000
3100
0000
0000
0010
0000
0000
0001
0000
1000
0000
0000
0000
,
0200
2300
3002
0023
,
0230
0000
0000
0000
0000
0000
0300
1000
,
0020
0000
0000
0000
1030
0000
0000
0100
0000
0000
0010
0000
0001
0000
0000
0000
,
0020
0000
0000
0000
0031
0000
0000
0100
0000
0000
0010
0000
1000
0000
0100
0000
,
2000
3002
0203
0320
,
2030
0000
3000
0000
1100
0000
0010
0001
,
1000
0000
0000
0000
0001
0000
0000
0100
0000
0000
0000
0000
0010
0000
1000
0000
,
0100
0000
0000
0000
0010
0000
0000
0100
0000
0000
1000
0000
0001
0000
0100
0000
,
0002
0100
2000
3003
,
0020
1030
0200
0300
,
0001
0000
0000
0000
1000
0000
0000
0100
0000
0000
0000
0000
0010
0000
0001
0000
,
0100
0000
0000
0000
0010
0000
0000
0100
0000
0000
0001
0000
1000
0000
0100
0000
,
2000
0010
0002
3003
,
0200
0301
0020
0030
,
0001
1000
0010
1000
0001
0000
1000
0010
,
1000
0001
1000
0001
0100
0000
1000
0001
,
1000
0001
0010
0001
1000
0000
0001
0100
,
0010
1000
0001
1000
0100
0000
0001
0010
,
1000
0001
0100
0001
1000
0000
0001
0010
,
0100
1000
0001
1000
0010
0000
0001
1000
,
0001
1000
0100
1000
0001
0000
0001
0010
,
0100
1000
0001
1000
0010
0100
0001
0000
,
0020
0130
0010
2000
,
3001
0000
0000
0000
0100
0000
0000
0020
0000
0000
0000
0030
1000
0000
0000
0000
,
0002
0023
0230
2300
,
3002
0000
0000
0000
0003
1000
0100
0000
,
2000
0000
0000
0000
3001
0000
0000
0100
0000
0000
0001
0000
0100
0000
0000
0000
,
0002
0000
0000
0000
1003
0000
0000
0100
0000
0000
0010
0000
0001
0000
0010
0000
,
0001
0100
0010
1000
0010
0100
0010
1000
,
0200
0300
0011
1100
,
0010
0000
1000
0100
0010
0000
0001
0100
,
0010
0000
0001
1000
0010
0100
0010
0000
,
1000
0000
0001
0100
0001
0000
1000
0000
0001
0000
0000
0000
0100
0000
0000
0000
,
0010
0000
1000
0000
0100
1000
0000
0001
0000
0100
0000
0000
1000
0000
0000
0000
,
0100
0000
0001
0010
0100
0000
1000
0010
,
0100
0000
0100
0001
1000
0100
0010
0000
,
0000
0100
0001
1000
0001
0100
0010
1000
,
0200
0000
0000
0000
0300
0000
0000
1000
0000
0000
0001
0000
0100
0000
0000
0000
;

//---------------dance-double - ----------------
#NOTEDATA:;
#CHARTNAME:;
#STEPSTYPE:dance-double;
#DESCRIPTION:;
#CHARTSTYLE:;
#DIFFICULTY:Easy;
#METER:5;
#RADARVALUES:0.197310,0.249334,0.085654,0.000000,0.000000,129.000000,121.000000,8.000000,0.000000,0.000000,0.000000,0.000000,0.000000,0.000000,0.197310,0.249334,0.085654,0.000000,0.000000,129.000000,121.000000,8.000000,0.000000,0.000000,0.000000,0.000000,0.000000,0.000000;
#CREDIT:;
#DISPLAYBPM:140.000000;
#NOTES:
00000000
00000000
00000000
00000000
,
00000000
00000000
00000000
00000000
,
00000000
00000000
00000000
00000000
,
00000000
00000000
00000000
00000000
,
00100000
00000000
00000000
00000000
,
10000000
00000000
00000000
00000000
,
00010000
00000000
00000000
00000000
,
01000000
00000000
00000000
00000000
,
00100000
00000000
10000000
00000000
,
01000000
00010000
00001000
00000000
,
00000010
00000001
00000100
00000000
,
00000010
00001000
00000100
00000000
,
00000010
00000000
00000001
00000000
,
00000100
00000000
00001000
00000000
,
00010000
00000000
01000000
00000000
,
10000000
00010000
01000000
00100000
,
10000000
00000000
01000000
00000000
,
00010000
00000000
00000010
00000000
,
00001000
00000000
00000001
00000000
,
00000100
00000010
00001000
00000001
,
00001001
00000000
00000010
00000000
,
00000100
00000000
00001000
00000000
,
00000001
00000010
00001000
00010000
,
00100000
00000000
10000000
00000000
,
10010000
00000000
01000000
00000000
,
00100000
00000000
10000000
00000000
,
01000000
00010000
00001000
00000100
,
00000001
00000000
00001000
00000000
,
00000110
00000000
00000001
00000000
,
00000010
00000100
00001000
00000000
,
00011000
00000000
01000000
00000000
,
00100000
10000000
01000000
00000000
,
00100000
00010000
10000000
01000000
,
00010000
00001000
00010000
00000000
,
00001000
00000100
00000001
00000010
,
00000100
00001000
00000001
00000000
,
00001001
00000000
00000010
00000000
,
00000001
00000100
00001000
00000000
,
00010000
01000000
10000000
00000000
,
00100000
00000000
01000000
00000000
,
10010000
00000000
00100000
00000000
,
10000000
01000000
00010000
00000000
,
00001000
00000010
00000001
00000000
,
00000100
00000000
00000010
00000000
,
00001001
00000000
00000010
00000000
,
00000100
00000000
00000001
00000000
,
00000010
00001000
00010000
00100000
,
10000000
00000000
00010000
00000000
,
10010000
00000000
00100000
00000000
,
01000000
00000000
10000000
00000000
,
00100000
00010000
00001000
00000010
,
00000001
00001000
00000100
00000010
;

//---------------dance-double - ----------------
#NOTEDATA:;
#CHARTNAME:;
#STEPSTYPE:dance-double;
#DESCRIPTION:;
#CHARTSTYLE:;
#DIFFICULTY:Medium;
#METER:7;
#RADARVALUES:0.299789,0.387852,0.139188,0.117774,0.000000,196.000000,183.000000,13.000000,11.000000,0.000000,0.000000,0.000000,0.000000,0.000000,0.299789,0.387852,0.139188,0.117774,0.000000,196.000000,183.000000,13.000000,11.000000,0.000000,0.000000,0.000000,0.000000,0.000000;
#CREDIT:;
#DISPLAYBPM:140.000000;
#NOTES:
00000000
00000000
00000000
00000000
,
00000000
00000000
00000000
00000000
,
00000000
00000000
00000000
00000000
,
00000000
00000000
00000000
00000000
,
00002000
00000000
00000000
00003000
,
00000002
00000000
00000000
00000003
,
00000200
00000000
00000000
00000300
,
00002000
00000000
00000000
00003000
,
00020000
00030000
02000000
03000000
,
10000000
00020000
01030000
00000000
,
00100000
20000000
31000000
00000000
,
00100000
00000000
00010000
00000000
10000000
01000000
00010000
00000000
,
00001000
00010000
00000100
00000010
,
00000001
00001000
00000010
00000100
,
00000001
00000001
00000010
00001000
,
00010000
00010000
01000000
10000000
,
00010000
00100000
10000000
00100000
,
00010000
01000000
01000000
00100000
,
10000000
01000000
00010000
00001000
,
00000010
00000000
00000100
00001000
00000001
00000000
00000110
00000000
,
00001001
00000000
00000010
00000000
00001000
00000100
00000001
00000000
,
00000100
00001000
00000010
00000100
,
00000000
00001000
00010000
01000000
,
10000000
00000000
00100000
00000000
01000000
00010000
10000000
00000000
,
01100000
00010000
10000000
00100000
,
00010000
00001000
00000010
00000001
,
00001000
00000010
00000100
00000001
,
00000000
00000010
00000001
00001000
,
00000110
00000001
00001000
00000011
,
00000100
00001000
00010000
01001000
,
00100000
10000000
00010000
00100000
,
01000000
10000000
00100000
01010000
,
10000000
00000000
00100000
00010000
00001000
00000000
00001100
00000000
,
00000010
00000000
00000001
00000100
00001000
00000000
00011000
00000000
,
00100000
00000000
10000000
00010000
01000000
00000000
11000000
00000000
,
00100000
00000000
00001000
00010000
00001000
00000000
00001010
00000000
,
00000000
00000001
00000100
00000010
,
00001000
00000000
00000100
00000000
00000010
00000001
00000100
00000000
,
00000010
00001000
00100000
01000000
,
00010000
00000000
10000000
00000000
01000000
00100000
00010000
00000000
,
10000000
00100000
01000000
00010000
,
00001000
00000000
00000010
00000000
00000100
00000001
00000010
00000000
,
00000200
00000300
00002000
00003000
,
00000002
00000003
00000010
00001000
,
00011000
00100000
10000000
00010000
,
00100000
00000000
01000000
00000000
10000000
00010000
01000000
00000000
,
00000000
00001000
00010000
00000100
,
00000010
00000000
00000001
00000000
00001000
00000001
00000100
00000000
,
00001100
00010000
00100000
10000000
,
01000000
00000000
00010000
00000000
00001000
00000100
00000001
00000000
,
00000000
00000001
00000010
00001000
,
00010000
00000000
00100000
10000000
01000000
00000000
00100000
00000000
;

//---------------dance-double - ----------------
#NOTEDATA:;
#CHARTNAME:;
#STEPSTYPE:dance-double;
#DESCRIPTION:;
#CHARTSTYLE:;
#DIFFICULTY:Hard;
#METER:8;
#RADARVALUES:0.344146,0.417563,0.224842,0.171308,0.000000,225.000000,204.000000,21.000000,16.000000,0.000000,0.000000,0.000000,0.000000,0.000000,0.344146,0.417563,0.224842,0.171308,0.000000,225.000000,204.000000,21.000000,16.000000,0.000000,0.000000,0.000000,0.000000,0.000000;
#CREDIT:;
#DISPLAYBPM:140.000000;
#NOTES:
// measure 0
00000000
00000000
00000000
00000000
,  // measure 1
00000000
00000000
00000000
00000000
,  // measure 2
00000000
00000000
00000000
00000000
,  // measure 3
00000000
00000000
00000000
00000000
,  // measure 4
20000000
00000000
00000000
30000000
,  // measure 5
00020000
00000000
00000000
00030000
,  // measure 6
00002000
00000000
00000000
00003000
,  // measure 7
00000000
00000020
00000200
00000030
,  // measure 8
00000002
00000300
00001003
00000000
,  // measure 9
00000110
00000001
00001000
00000100
,  // measure 10
00000011
00001000
00010000
00100000
,  // measure 11
11000000
00010000
01000000
00100000
,  // measure 12
10010000
01000000
00100000
00010000
,  // measure 13
20000000
01000000
00010000
30100000
,  // measure 14
01000000
00010000
00001000
00000010
,  // measure 15
00000100
00000001
00000010
00000100
,  // measure 16
00001001
00000100
00000010
00001000
,  // measure 17
00000002
00000100
00001000
00000013
,  // measure 18
00000100
00001000
00010000
01000000
,  // measure 19
10000000
00010000
00100000
01000000
,  // measure 20
10000000
00010000
01000000
00100000
,  // measure 21
10010000
00000000
01000000
00000000
00100000
10000000
01000000
00000000
,  // measure 22
00100000
00010000
00001000
00000010
,  // measure 23
00000101
00001000
00000100
00000010
,  // measure 24
00000001
00001000
00000010
00000100
,  // measure 25
00001001
00000000
00000010
00000000
00000001
00000100
00001000
00000000
,  // measure 26
00010000
00100000
10000000
01000000
,  // measure 27
00100000
00010000
10000000
00010000
,  // measure 28
01100000
00000000
10000000
01000000
00010000
00000000
00011000
00000000
,  // measure 29
00001000
00000000
00010000
00000100
00000010
00000000
00001001
00000000
,  // measure 30
00000010
00000100
00001000
00100000
,  // measure 31
00010000
01000000
00100000
00000000
10000000
01000000
00100000
00000000
,  // measure 32
00011000
00000000
00000010
00001000
00000100
00000000
00000101
00000000
,  // measure 33
00000010
00000000
00001000
00010000
01000000
00000000
10010000
00000000
,  // measure 34
00100000
00000000
01000000
00000000
00100000
10000000
01000000
00000000
,  // measure 35
00110000
00001000
00001100
00000010
,  // measure 36
00000002
00000103
00002000
00003100
,  // measure 37
00000010
00000001
00000100
00000000
00000010
00001000
00000100
00000000
,  // measure 38
00010000
00001000
01000000
00100000
,  // measure 39
10000000
01000000
00010000
00000000
01000000
10000000
00010000
00000000
,  // measure 40
00100000
00000000
01000000
00000000
10000000
00010000
01000000
00000000
,  // measure 41
00100000
00000000
00010000
00000000
00001000
00000100
00000001
00000000
,  // measure 42
00000010
00000100
00001000
00000010
,  // measure 43
00000100
00000001
00002100
00003010
,  // measure 44
00001002
00000000
00000103
00000000
00000010
00001000
00000100
00000000
,  // measure 45
00020010
00000000
00031000
00000000
00100000
01000000
10000000
00000000
,  // measure 46
00100000
01000000
00010000
10000000
,  // measure 47
00100000
01000000
00010000
00100000
10000000
00100000
00010000
00000000
,  // measure 48
00102000
00000000
01003000
00000000
00100000
10000000
01000000
00000000
,  // measure 49
00210000
00000000
00301000
00000000
00000100
00000010
00001000
00000000
,  // measure 50
00000001
00000010
00001000
00010000
,  // measure 51
00100000
10000000
01000000
00100000
00010000
01000000
00200000
00000000
,  // measure 52
00300000
00000000
00000000
00000000
;

//---------------dance-single - ----------------
#NOTEDATA:;
#CHARTNAME:;
#STEPSTYPE:dance-single;
#DESCRIPTION:;
#CHARTSTYLE:;
#DIFFICULTY:Challenge;
#METER:12;
#RADARVALUES:0.616403,0.556751,0.364030,0.042827,0.460390,403.000000,369.000000,34.000000,4.000000,0.000000,0.000000,0.000000,0.000000,0.000000,0.616403,0.556751,0.364030,0.042827,0.460390,403.000000,369.000000,34.000000,4.000000,0.000000,0.000000,0.000000,0.000000,0.000000;
#CREDIT:;
#DISPLAYBPM:140.000000;
#NOTES:
0000
0000
0000
0000
,
0000
0000
0000
0000
,
0000
0000
0000
0000
,
0000
0000
0000
0000
,
2010
0000
0000
0000
0001
0000
0000
0000
0000
0000
0000
3100
1000
0000
0010
0000
,
0100
0000
0100
0000
0100
0000
0000
0000
0001
0000
0000
1000
0000
0000
0010
0000
,
0102
0000
0000
0000
1000
0000
0000
0000
0000
0000
0000
0013
0001
0000
0100
0000
,
0010
0000
0010
0000
0010
0000
0000
1000
0001
1000
0001
0000
0100
0000
0000
0000
,
0110
0000
0000
0000
0001
1000
0000
1000
0010
0000
0100
0000
0001
0000
0000
0000
,
0011
0000
0000
0000
0010
0001
0000
0001
1000
0000
0010
0000
0100
0000
0000
0000
,
0101
0000
0000
0000
0001
1000
0000
1000
0010
0000
0100
0000
0001
0000
0000
0000
,
0010
0001
0100
0010
1000
0001
1000
0100
,
1100
0000
0000
0000
1000
0010
0000
0010
0100
0000
0001
0000
1000
0000
0001
0000
,
1001
0000
0000
0000
0100
0010
0000
0010
1000
0000
0100
0000
1000
0000
0001
0000
,
0011
0000
0000
0000
0001
1000
0000
1000
0010
0000
0100
0000
0010
0000
1000
0000
,
1010
0000
0000
0000
1000
0001
0000
0010
0100
0000
1000
0000
0001
0000
0100
0000
,
0110
0000
0000
0000
0010
0100
0000
0100
0001
0000
0010
0000
0001
0000
1000
0000
,
1100
0000
0000
0000
0100
1000
0000
1000
0010
0000
0100
0000
0001
0000
1000
0000
,
1001
0000
0000
0000
0010
1000
0000
1000
0001
0000
0010
0000
0100
0000
1000
0000
,
0010
0100
0001
1000
1100
0000
0101
1000
,
1010
0000
0000
0000
0010
1000
0000
0001
0100
0000
0000
0001
0010
0000
0100
0000
,
1100
0000
0000
0000
0010
0100
0000
0001
0010
0000
0100
0000
1000
0000
0000
0000
,
0001
0000
0000
0000
1000
0010
0000
1000
0100
0000
0010
0000
0001
0000
0000
0000
,
0100
0000
0100
0000
0100
0001
0000
0010
0001
0000
1000
0000
0010
0000
0000
0000
,
0101
0000
0000
0000
1000
0001
0000
1000
0100
0000
0000
0010
0001
0000
0100
0000
,
0110
0000
0000
0000
0010
1000
0000
0001
1000
0000
0100
0000
0010
0000
0000
0000
,
0001
0000
0001
0000
1000
0000
1000
0000
0010
0100
0010
0000
0100
0000
0000
0000
,
0001
0000
1000
0000
0010
1000
0000
0100
0010
0000
0001
0000
1000
0000
0000
0000
,
1001
0000
0000
0000
0010
1000
0000
0001
1000
0000
0000
0010
0100
0000
0001
0000
,
0101
0000
0000
0000
0001
0010
0000
0001
1000
0000
0000
0010
1000
0000
0100
0000
,
1100
0000
0000
0000
0100
1000
0000
0010
0100
0000
0000
0001
0010
0000
0001
0000
,
0011
0000
0000
0000
0010
0001
0000
0100
0010
0000
0000
1000
0001
0000
1000
0000
,
0101
0000
0000
0000
0010
0100
0000
0100
0001
0000
0000
1000
0001
0000
0010
0000
,
1001
0000
0000
0000
0001
1000
0000
0010
0100
0000
0000
0010
1000
0000
0100
0000
,
1010
0000
0000
0000
0001
0010
0000
0100
0010
0000
0000
0001
1000
0000
0010
0000
,
1001
0000
0000
0000
0010
0100
0000
0010
1000
0000
0000
0100
0010
0000
0001
0000
,
0110
0000
1000
0010
1000
0001
0010
0100
,
1000
0010
0100
0010
1000
0100
0010
0001
,
0010
0100
0010
0001
0100
0010
1000
0001
,
1000
0010
0100
0010
0100
0001
0010
0100
,
1100
0000
0001
1000
0001
0100
0010
1000
,
0100
0010
0100
0010
0001
0100
0001
1000
,
0010
0100
0001
0010
0100
1000
0001
1000
,
0010
0100
0001
1000
1010
0000
0011
1000
,
0110
0000
0000
0000
1000
0001
0000
0010
0001
0000
0000
0100
0010
0000
1000
0000
,
1001
0000
0000
0000
0001
0010
0000
0100
1000
0000
0000
0010
0100
0000
0001
0000
,
0000
0000
1000
0010
1000
0000
0100
0000
0020
0000
0001
0000
0031
0000
0000
0000
,
0100
0000
0100
0000
0100
0001
0000
0010
0002
0000
1000
0000
1003
0000
0000
0000
,
1010
0000
0000
0000
0100
0010
0000
0001
0100
0000
0000
0010
1000
0000
0001
0000
,
0011
0000
0000
0000
1000
0001
0000
0010
0001
0000
0000
0100
0010
0000
1000
0000
,
0100
0000
0100
0000
1000
0000
1000
0000
0001
0010
0001
0000
0010
0000
0000
0000
,
0001
0000
1000
0000
1000
0010
0000
0010
0100
0000
0001
0000
1000
0001
1000
0001
,
0100
0000
0000
0000
;
