#TITLE:Hustler;
#SUBTITLE:;
#ARTIST:Wix Patton;
#TITLETRANSLIT:;
#SUBTITLETRANSLIT:;
#ARTISTTRANSLIT:;
#GENRE:;
#CREDIT:;
#BANNER:Hustler-bn.png;
#BACKGROUND:Hustler-bg.png;
#LYRICSPATH:;
#CDTITLE:;
#MUSIC:Hustler.ogg;
#OFFSET:0.000000;
#SAMPLESTART:48.000000;
#SAMPLELENGTH:20.000000;
#SELECTABLE:YES;
#DISPLAYBPM:140.000000;
#BPMS:0.000000=140.000000
;
#STOPS:
;
#BGCHANGES:;
#KEYSOUNDS:;
#ATTACKS:;

//---------------dance-single - ----------------
#NOTES:
     dance-single:
     :
     Hard:
     12:
     0.539871,0.539938,0.119261,0.134169,0.171438,507.000000,491.000000,16.000000,18.000000,0.000000,0.000000,0.539871,0.539938,0.119261,0.134169,0.171438,507.000000,491.000000,16.000000,18.000000,0.000000,0.000000:
0000
0000
0000
0000
,
0000
0000
0000
0000
,
0000
0000
0000
0000
,
0000
0000
0000
0000
,
0010
1000
0200
0001
0001
0000
1300
0000
,
0010
0100
0001
0010
0100
1000
0001
1000
,
0010
0100
0002
1000
1000
0000
0013
0000
,
0001
1000
0010
0100
0001
0010
0100
1000
,
0001
0010
2000
0100
0100
0000
3001
0000
,
0010
0000
1000
0000
0100
0000
0010
0000
0001
0000
0000
0001
1000
0000
0100
0000
,
0110
0000
0000
0000
0000
0000
0001
0000
0020
0000
0000
0130
0000
0000
1100
0000
,
0000
0000
0010
0000
1000
0000
0001
0000
0100
0000
0000
0100
0010
0000
1000
0000
,
0001
0010
1000
0100
0010
1000
0001
0100
,
0001
0010
0100
0000
1000
0001
0010
0000
,
1000
0001
0100
0010
0100
1000
0001
0010
,
0100
1000
0010
0000
1000
0100
0001
0000
,
0010
0001
0000
0000
1000
0000
0001
0000
0100
0000
0000
0100
0010
0000
0000
0010
,
1000
0000
0000
0001
0100
0000
0000
0000
0010
0000
0000
1000
0001
0000
0010
0000
,
0010
0000
0001
0000
0100
0000
0010
0000
1000
0000
0000
1000
0100
0000
0010
0001
,
0010
0000
0000
0001
0100
0000
0000
0000
0010
0000
1000
0000
0001
0000
1000
0000
,
0000
0001
1000
0010
1000
0100
0010
0002
,
0100
0000
0000
1000
0003
1000
0000
0000
0100
0000
0010
0001
0000
0010
0001
0000
,
0101
0000
0000
0000
1020
0000
0000
0000
0130
0000
0001
1000
0000
0001
1000
0000
,
1001
0000
0000
0000
0011
0000
0000
0000
0001
0100
0000
0010
0000
1000
0010
0000
,
1000
0000
0000
0001
0010
0000
0200
0000
0000
2300
0000
0000
3020
0000
0000
0000
,
0130
0000
0010
0000
0001
1000
0002
0000
0000
0000
0010
0000
0013
0000
0000
0000
,
1000
0001
0010
0100
0000
1001
0010
1000
,
0001
1000
0100
0010
0000
0220
0300
0000
,
0130
1000
1000
0000
0001
0010
0100
0010
,
0001
0000
0000
0001
1000
0000
0000
0000
0010
0000
1000
0000
0100
0000
0010
0000
,
0001
0000
0000
0100
0001
0000
1000
0000
0010
0000
0010
0000
1000
0000
0100
0000
,
0001
0000
0100
0000
1000
0000
0001
0000
0001
0000
0000
0000
0100
0010
0000
0000
,
1000
0000
0000
0010
1000
0000
0000
0000
0001
0000
0100
0000
0010
0000
0100
0000
,
0001
1000
1000
0000
0010
1000
0001
0010
,
1000
0010
0001
0100
0010
1000
0001
0010
,
0100
0001
0100
1000
0020
0230
0320
0230
,
0301
0010
1000
0000
0100
0010
0100
1000
,
0001
0000
0000
0100
0010
0000
0000
0000
1000
0000
0001
0000
1000
0000
0010
0000
,
0001
0010
1000
0100
0010
0001
0100
0010
,
0001
0000
0010
0000
1000
0000
0100
0000
0010
0000
0000
0000
0001
1000
0001
0000
,
0010
0000
0000
0001
1000
0000
0000
0000
0010
0000
0100
0000
0010
0000
1000
0000
,
0100
0100
1000
0000
0001
1000
0010
0001
,
0010
1000
0100
0010
0001
0100
0010
1000
,
0100
0000
0001
0000
0100
0000
1000
0000
0001
0000
0000
0000
0010
0100
0000
0000
,
0100
0000
0000
1000
0001
0000
0000
0000
0001
0000
0010
0000
0100
0000
1000
0000
,
0010
0100
0001
0000
0001
1000
0100
0010
,
0001
0000
0000
1000
0001
0000
0100
0000
0010
0000
1000
0000
0100
0000
0010
0000
,
0001
0000
0000
1000
0100
0000
0000
0000
0010
0000
0010
0000
0010
0000
0000
0000
,
0001
1000
0010
0000
1000
0100
0010
0100
,
0100
0010
0010
0000
0001
1000
0001
0100
,
0010
1000
1000
0000
0100
0010
0001
0100
,
1000
0100
0001
1000
0020
0000
0230
0000
,
0301
0010
0100
1000
0010
0100
0001
1000
,
0100
0001
1000
0000
0010
0100
0001
0000
,
1000
0010
0100
0001
0010
0100
0001
1000
,
0001
0010
1000
0000
0100
1000
0010
0000
,
1000
0001
1000
0000
0010
0000
0100
0000
0001
0000
0000
0001
0010
0000
0100
0000
,
1000
0000
0000
0001
1000
0000
0000
0000
0010
0000
0000
0100
0010
0000
1000
0000
,
1000
0000
0001
0000
0010
0000
0100
0000
0010
0000
0000
0010
0001
0000
1000
0001
,
1000
0000
0000
0010
0100
0000
0000
0000
0001
0000
0000
0010
0001
0000
0000
0000
,
1100
0000
0011
0000
1000
0001
0010
0100
,
1000
0010
0001
0000
0100
0010
0100
0001
,
1000
0000
0000
0001
0010
0000
0100
0000
0010
0000
0001
0000
0100
0000
1000
0000
,
0100
0010
1000
0001
0100
0000
0010
1000
,
0100
0010
0001
0000
1000
0001
1000
0100
,
0010
0001
0010
0000
0100
1000
0001
0100
,
0010
1000
0100
0001
1000
0100
0010
0001
,
0100
0000
0010
0000
0100
0000
0010
0000
0100
0000
0000
0000
0001
1000
0000
0000
,
1010
0000
0101
0000
1000
0000
0001
0010
,
0100
0000
0000
0000
0010
0000
0001
1000
,
0100
0000
0000
0000
1000
0000
0010
0100
,
0001
0000
0000
0000
0000
0000
0000
0000
0100
0000
0000
0000
0010
1000
0000
0000
,
0101
0000
1100
0000
0001
0000
1000
0100
,
0000
0000
0000
0000
1000
0000
0010
0100
,
0001
0000
0000
0000
0010
0000
0100
1000
,
0000
0000
0000
0000
0000
0000
0000
0000
0001
0000
0000
0000
0100
0010
0100
0000
,
1001
0110
0000
0000
;

//---------------dance-single - ----------------
#NOTES:
     dance-single:
     :
     Medium:
     10:
     0.414221,0.454684,0.178892,0.372692,0.022362,389.000000,365.000000,24.000000,50.000000,0.000000,0.000000,0.414221,0.454684,0.178892,0.372692,0.022362,389.000000,365.000000,24.000000,50.000000,0.000000,0.000000:
0000
0000
0000
0000
,
0000
0000
0000
0000
,
0000
0000
0000
0000
,
0000
0000
0000
0000
,
0010
1000
0200
0000
0000
0000
0301
0000
,
1000
0001
0100
0000
0001
1000
0100
0000
,
0010
0001
2000
0000
0000
0000
3100
0000
,
1000
0010
0100
0000
0010
1000
0100
0000
,
1000
0001
0020
0000
0000
0000
0130
0000
,
0000
0001
1000
0010
0100
0000
0001
0000
,
2002
0000
0000
0000
3000
0000
0000
0000
1000
0000
0000
1000
0000
0000
1003
0000
,
0000
0010
0100
0001
1000
0000
1100
0000
,
0001
0010
0001
0000
1000
0010
1000
0000
,
0100
0010
0100
0000
2000
0000
3002
0000
,
0013
0001
0010
0000
0100
0001
0100
0000
,
1000
0001
1000
0000
0020
0000
0230
0000
,
0310
1000
0010
0000
0001
1000
0001
0000
,
0100
1000
0100
0000
2000
0000
3020
0000
,
1030
0100
1000
0000
0001
0100
0001
0000
,
0010
0100
0010
0000
0001
0010
0100
2000
,
0000
0001
3002
0000
0010
0000
1003
0200
,
0000
0000
0000
0000
0000
0000
0000
0000
0310
0000
0000
0001
0000
0000
1000
0000
,
0020
0000
0000
0000
0230
0000
0000
0000
0301
0000
0000
1000
0000
0000
0100
0000
,
2000
0000
0000
0000
3002
0000
0000
0000
0013
0000
0000
0001
0000
0000
0100
0000
,
0020
0000
0000
2030
0000
0000
3200
0000
0000
2300
0000
0000
3020
0000
0000
0000
,
0000
1030
0001
0200
0000
0000
0310
0000
,
1000
0001
1000
0001
0000
0011
0000
0000
,
0001
1000
0001
1000
0000
1100
0000
0000
,
0002
0000
2003
0000
3010
0100
0010
0000
,
0200
0000
0320
0000
1030
0100
0001
0000
,
0020
0000
2030
0000
3001
0100
1000
0000
,
0010
1000
0100
0010
0001
0000
0101
0000
,
0002
0000
0023
0000
0130
1000
0001
0000
,
0100
0010
1000
0000
1000
0001
0100
0000
,
0001
0010
1000
0000
0100
0000
1000
0010
,
1000
0001
1000
0001
0100
0000
1010
0000
,
0002
0000
0203
0000
0301
1000
0010
0000
,
0020
0000
2030
0000
3100
0010
0001
0000
,
2000
0000
3200
0000
0310
0100
1000
0000
,
0001
0000
0010
0100
1000
0000
0110
0000
,
0002
0000
2003
0000
3010
1000
0100
0000
,
0010
0001
0100
0000
0001
0010
1000
0000
,
0100
0010
0001
0000
1000
0000
0001
0100
,
0010
1000
0010
1000
0100
0000
1001
0000
,
0011
0000
1010
0000
0001
0010
1000
0000
,
0100
0010
0100
0000
1000
0010
0001
0000
,
1010
0000
0011
0000
1000
0001
0010
0100
,
0020
0000
0032
0000
1003
0001
1000
0000
,
1000
0100
0001
0000
0010
0001
0100
0000
,
0001
0010
1000
0000
1010
0000
1001
0000
,
0010
0100
0010
0000
1000
0001
0100
0000
,
0101
0000
0010
1000
0001
0000
1100
0000
,
0001
0010
0001
0000
1000
0010
1000
0000
,
0100
0010
0100
0000
0020
0000
0230
0000
,
0310
0001
0010
0000
1000
0001
1000
0000
,
0100
0001
0100
0000
0020
0000
0230
0000
,
0301
0100
0001
0000
0010
0100
0010
0000
,
1000
0100
1000
0000
0002
0000
0023
0000
,
0031
1000
0001
0000
0100
1000
0100
0000
,
0010
1000
0010
0000
0002
0000
0203
0000
,
0310
0000
0110
0000
1000
0001
0100
0000
,
0001
0000
0011
0000
0100
1000
0010
0000
,
1000
0100
1000
0000
0001
0100
0001
0000
,
0010
0000
0001
0100
1000
0000
1000
0000
,
0100
0000
1100
0000
0001
1000
0010
0000
,
1000
0000
0101
0000
0001
0010
0100
0000
,
1000
0000
1010
0000
0010
0100
0001
0000
,
0010
0000
0001
1000
0100
0000
0011
0000
,
1000
1000
0001
0001
,
0010
0000
0100
1000
,
0010
0000
1000
0001
,
0100
0000
0001
0010
,
1000
1000
0001
0001
,
0100
0000
0001
0010
,
0100
0000
1000
0010
,
0100
0000
0001
1000
,
1001
0110
0000
0000
;

//---------------dance-single - ----------------
#NOTES:
     dance-single:
     :
     Easy:
     7:
     0.266209,0.284178,0.074538,0.000000,0.000000,250.000000,240.000000,10.000000,0.000000,0.000000,0.000000,0.266209,0.284178,0.074538,0.000000,0.000000,250.000000,240.000000,10.000000,0.000000,0.000000,0.000000:
0000
0000
0000
0000
,
0000
0000
0000
0000
,
0000
0000
0000
0000
,
0000
0000
0000
0000
,
0010
0000
1000
0001
,
0010
0000
0001
0100
,
1000
0000
0010
0100
,
0010
0000
1000
0100
,
0001
0000
1001
0000
,
0010
0000
1000
0100
,
0001
0000
0010
0001
,
0100
0000
0110
0000
,
0001
1000
0001
1000
,
0010
0010
0000
0000
,
1000
0001
1000
0001
,
0100
0100
0000
0000
,
0001
0010
0001
0010
,
0100
1000
0000
0000
,
1000
0010
1000
0010
,
0100
0001
0010
0010
,
0001
0010
0001
1000
,
0100
0000
0010
0010
,
0001
1000
0100
0100
,
1000
0010
0100
0001
,
0010
0010
0010
0001
,
1000
0010
0100
0100
,
0001
0010
1000
0000
,
0100
0010
0001
0000
,
1000
1000
0010
0100
,
0001
0001
0010
0100
,
0010
0001
0100
1000
,
0010
1000
0100
0001
,
0100
0100
0001
1000
,
0010
0010
1000
0100
,
0010
0001
0100
0010
,
1000
0100
0001
0000
,
0010
0100
0010
0001
,
0100
0010
1000
0001
,
0010
0001
0100
0010
,
1000
0100
0001
1000
,
0001
0010
0010
0100
,
1000
0001
0010
0100
,
1000
0001
1000
0001
,
1000
0010
0100
0100
,
1001
0001
0100
0010
,
1000
0001
1000
0010
,
0100
0100
0010
1000
,
0001
0100
1000
1000
,
0110
0001
0010
0001
,
0100
0010
1000
0100
,
0010
0001
1000
0001
,
1000
0010
0100
0100
,
0001
1000
0001
1000
,
0100
0100
0000
0000
,
1000
0001
1000
0001
,
0010
0010
0000
0000
,
0001
0100
0001
0100
,
0010
0010
0000
0000
,
1000
0010
1000
0010
,
0100
0100
0000
0000
,
1001
0000
0001
0100
,
0010
0000
0010
1000
,
0100
0010
0001
1000
,
0001
1000
0010
0000
,
0110
0000
0100
0010
,
1000
0000
1000
0100
,
0001
0010
0001
0100
,
0010
1000
0001
0000
,
1001
0000
0001
0000
,
0100
0000
0010
0000
,
1000
0000
0100
0000
,
0010
0000
0001
0000
,
0110
0000
1000
0000
,
0001
0000
0010
0000
,
0100
0000
0010
0000
,
0001
0000
1000
0000
,
1001
0110
0000
0000
;

//---------------dance-single - ----------------
#NOTES:
     dance-single:
     :
     Beginner:
     4:
     0.139493,0.169948,0.044723,0.000000,0.000000,131.000000,125.000000,6.000000,0.000000,0.000000,0.000000,0.139493,0.169948,0.044723,0.000000,0.000000,131.000000,125.000000,6.000000,0.000000,0.000000,0.000000:
// measure 0
0000
0000
0000
0000
,  // measure 1
0000
0000
0000
0000
,  // measure 2
0000
0000
0000
0000
,  // measure 3
0000
0000
0000
0000
,  // measure 4
0010
0010
0000
0000
,  // measure 5
1000
0000
0001
0000
,  // measure 6
0100
0100
0000
0000
,  // measure 7
0001
0000
1000
0000
,  // measure 8
0001
0001
0000
0000
,  // measure 9
0000
0000
0010
0000
,  // measure 10
1000
0000
1000
0000
,  // measure 11
1000
0000
0100
0000
,  // measure 12
0010
0000
0001
0000
,  // measure 13
1000
0000
0000
0000
,  // measure 14
0010
0000
0100
0000
,  // measure 15
0001
0000
0001
0000
,  // measure 16
0001
0000
0010
0000
,  // measure 17
1000
0000
0000
0000
,  // measure 18
0100
0000
0010
0000
,  // measure 19
0100
0000
1000
0000
,  // measure 20
0001
0000
1000
0000
,  // measure 21
1001
0000
0000
0000
,  // measure 22
0010
0010
0000
0000
,  // measure 23
0100
0100
0000
0000
,  // measure 24
0001
0000
1000
0000
,  // measure 25
1001
0000
0000
0000
,  // measure 26
0001
0001
0000
0000
,  // measure 27
1000
1000
0000
0000
,  // measure 28
0010
0010
0000
0000
,  // measure 29
0100
0100
0000
0000
,  // measure 30
0001
0000
0001
0000
,  // measure 31
0010
0000
0100
0000
,  // measure 32
1000
1000
0000
0000
,  // measure 33
0100
0100
0000
0000
,  // measure 34
1000
0000
0010
0000
,  // measure 35
0100
0000
0001
0000
,  // measure 36
0010
0010
0000
0000
,  // measure 37
0001
0001
0000
0000
,  // measure 38
0010
0000
0100
0000
,  // measure 39
0010
0000
0100
0000
,  // measure 40
0100
0100
0000
0000
,  // measure 41
1000
1000
0000
0000
,  // measure 42
0001
0000
1000
0000
,  // measure 43
0010
0000
0100
0000
,  // measure 44
0001
0001
0000
0000
,  // measure 45
0010
0010
0000
0000
,  // measure 46
1000
1000
0000
0000
,  // measure 47
0100
0000
1001
0000
,  // measure 48
1000
1000
0000
0000
,  // measure 49
0100
0100
0000
0000
,  // measure 50
0001
0001
0000
0000
,  // measure 51
0010
0000
1001
0000
,  // measure 52
0010
0000
1000
0000
,  // measure 53
0100
0000
0000
0000
,  // measure 54
0010
0000
0001
0000
,  // measure 55
0100
0000
0000
0000
,  // measure 56
0001
0000
0010
0000
,  // measure 57
1000
0000
0000
0000
,  // measure 58
0001
0000
0100
0000
,  // measure 59
1000
0000
0000
0000
,  // measure 60
0001
0001
0000
0000
,  // measure 61
0100
0100
0000
0000
,  // measure 62
0010
0000
1000
0000
,  // measure 63
0100
0000
0100
0000
,  // measure 64
1000
1000
0000
0000
,  // measure 65
0001
0001
0000
0000
,  // measure 66
0010
0000
0001
0000
,  // measure 67
0100
0000
0100
0000
,  // measure 68
1001
0000
0000
0000
,  // measure 69
0000
0000
0000
0000
,  // measure 70
0001
0000
0000
0000
,  // measure 71
1000
0000
0000
0000
,  // measure 72
0100
0000
0000
0000
,  // measure 73
0000
0000
0000
0000
,  // measure 74
0010
0000
0000
0000
,  // measure 75
0000
0000
0000
0000
,  // measure 76
1001
0000
0000
0000
;
