#TITLE:Hunting for you;
#SUBTITLE:;
#ARTIST:Togo Project feat. Megu & Scotty D.;
#TITLETRANSLIT:;
#SUBTITLETRANSLIT:;
#ARTISTTRANSLIT:;
#GENRE:;
#CREDIT:;
#BANNER:Hunting for you-bn.png;
#BACKGROUND:Hunting for you-bg.png;
#LYRICSPATH:;
#CDTITLE:;
#MUSIC:Hunting for you.ogg;
#OFFSET:-0.375;
#SAMPLESTART:1.893000;
#SAMPLELENGTH:20.000000;
#SELECTABLE:YES;
#DISPLAYBPM:105.000000;
#BPMS:0.000000=105.000000
;
#STOPS:
;
#BGCHANGES:;
#KEYSOUNDS:;
#ATTACKS:;

//---------------dance-single - ----------------
#NOTES:
     dance-single:
     :
     Beginner:
     1:
     0.075432,0.105066,0.053880,0.000000,0.000000,49.000000,44.000000,5.000000,0.000000,0.000000,0.000000,0.075432,0.105066,0.053880,0.000000,0.000000,49.000000,44.000000,5.000000,0.000000,0.000000,0.000000:
// measure 0
0000
0000
0000
0000
,  // measure 1
0000
0000
0000
0000
,  // measure 2
1000
0000
0000
0000
,  // measure 3
0001
0000
0000
0000
,  // measure 4
0100
0000
0000
0000
,  // measure 5
0010
0000
0000
0000
,  // measure 6
1000
0000
0000
0000
,  // measure 7
0001
0000
0000
0000
,  // measure 8
0100
0000
0000
0000
,  // measure 9
0010
0000
0000
0000
,  // measure 10
1001
0000
0000
0000
,  // measure 11
1000
0000
1000
0000
,  // measure 12
1000
0000
0000
0000
,  // measure 13
0001
0000
0001
0000
,  // measure 14
0001
0000
0000
0000
,  // measure 15
1000
0000
1000
0000
,  // measure 16
1000
0000
0000
0000
,  // measure 17
0001
0000
0001
0000
,  // measure 18
0001
0000
0000
0000
,  // measure 19
0110
0000
0000
0000
,  // measure 20
0110
0000
0000
0000
,  // measure 21
1000
0000
0000
0000
,  // measure 22
0100
0000
0000
0000
,  // measure 23
0001
0000
0000
0000
,  // measure 24
0010
0000
0000
0000
,  // measure 25
1000
0000
0000
0000
,  // measure 26
0100
0000
0000
0000
,  // measure 27
0001
0000
0000
0000
,  // measure 28
0010
0000
0000
0000
,  // measure 29
1001
0000
0000
0000
,  // measure 30
0010
0000
0010
0000
,  // measure 31
0010
0000
0000
0000
,  // measure 32
0100
0000
0100
0000
,  // measure 33
0100
0000
0000
0000
,  // measure 34
1000
0000
0000
0000
,  // measure 35
0001
0000
0000
0000
,  // measure 36
0100
0000
0000
0000
,  // measure 37
0010
0000
0000
0000
,  // measure 38
0100
0000
0000
0000
,  // measure 39
1001
0000
0000
0000
;

//---------------dance-single - ----------------
#NOTES:
     dance-single:
     :
     Easy:
     3:
     0.124693,0.168105,0.064656,0.096984,0.000000,81.000000,75.000000,6.000000,9.000000,0.000000,0.000000,0.124693,0.168105,0.064656,0.096984,0.000000,81.000000,75.000000,6.000000,9.000000,0.000000,0.000000:
0000
0000
0000
0000
,
0000
0000
0000
0000
,
1000
0000
0100
0000
,
0001
0000
0100
0000
,
1000
0000
0100
0000
,
0010
0000
0010
0000
,
0010
0000
0010
0000
,
1000
0100
1000
0000
,
0001
0100
0001
0000
,
2002
0000
0000
3003
,
0220
0000
0000
0330
,
1000
0000
0010
0000
,
0001
0000
0010
0000
,
1000
0000
0001
0000
,
1000
0001
1000
0001
,
1000
0000
0100
0000
,
0010
0000
0001
0000
,
0010
0000
0100
0000
,
1000
0000
1001
0000
,
0100
0000
0010
0000
,
1000
0001
1000
0001
,
1000
0000
0100
0000
,
0001
0000
0100
0000
,
2002
0000
0000
3003
,
0100
0000
0100
0000
,
0010
0000
1000
0000
,
0010
0000
0001
0000
,
0010
0000
0010
0000
,
0010
0000
0200
0000
,
0000
0000
0300
0000
,
1000
0000
0100
0000
,
0001
0000
0100
0000
,
1000
0000
0100
0000
,
0001
0000
0100
0000
,
1000
0000
1000
0000
,
0001
0000
0001
0000
,
1000
0000
0001
0000
,
1000
0000
0001
0000
,
2002
0000
0000
3003
,
1001
0000
0000
0000
,
0000
0000
0000
0000
;

//---------------dance-single - ----------------
#NOTES:
     dance-single:
     :
     Medium:
     5:
     0.235532,0.273171,0.150864,0.247847,0.005388,153.000000,139.000000,14.000000,23.000000,0.000000,0.000000,0.235532,0.273171,0.150864,0.247847,0.005388,153.000000,139.000000,14.000000,23.000000,0.000000,0.000000:
0000
0000
0000
0000
,
0000
0000
0000
0000
,
0000
1000
1000
0000
0001
0001
0000
0000
,
0100
0000
1001
0000
0000
0010
0000
0100
,
0000
1000
1000
0000
0001
0001
0000
0000
,
1000
1100
0001
0101
,
1000
1010
0001
0011
,
0100
0000
2000
0000
0010
0010
3010
0000
,
0100
0000
0002
0000
0010
0020
0033
0000
,
0002
0203
0320
2030
,
3200
0000
0000
0300
,
1000
0001
1000
0010
,
0100
0001
0020
0030
,
0001
1000
0001
0010
,
0100
1000
0020
0030
,
1000
0010
1000
0100
,
0010
0001
0200
0300
,
0001
0010
0001
0100
,
0010
1000
0200
0300
,
1001
0000
0000
1000
0001
0000
0000
1000
,
0010
0010
0100
0002
0000
0000
0003
0000
,
1000
0000
0100
0000
0000
0010
0001
0000
,
0100
0000
0001
0000
0000
1000
0100
0000
,
0000
1000
0001
0000
0110
0000
0000
0001
,
1000
0000
0100
0000
0000
1000
0010
0000
,
0100
0000
0001
0000
0000
0010
0100
0000
,
1000
0000
0001
0000
0000
0100
0001
0000
,
1000
0010
0100
0001
,
0100
0000
0000
0010
0000
0000
0200
0000
0000
0000
0000
0000
0300
0000
0000
0000
,
2002
0000
0000
3003
,
0000
0000
1001
0000
0000
0010
0000
0100
,
0000
1000
1000
0000
0001
0001
0000
0000
,
0010
0000
1001
0000
0000
0100
0000
0010
,
0000
0001
0001
0000
1000
1000
0000
0000
,
0001
0011
1000
1010
,
0001
0101
1000
1100
,
0010
0000
0002
0000
0100
0100
0103
0000
,
0010
0000
2000
0000
0100
0200
3300
0000
,
2000
3020
0230
0302
,
0013
0000
0000
0000
;

//---------------dance-single - ----------------
#NOTES:
     dance-single:
     :
     Hard:
     9:
     0.406408,0.483303,0.366383,0.140088,0.215520,264.000000,230.000000,34.000000,13.000000,0.000000,0.000000,0.406408,0.483303,0.366383,0.140088,0.215520,264.000000,230.000000,34.000000,13.000000,0.000000,0.000000:
0000
0000
0000
0000
,
0000
0000
1001
0000
0000
0010
0000
0100
,
0000
1000
1100
0000
0001
0101
0000
0000
,
0100
0000
1001
0000
1000
0100
0010
0002
,
0000
1000
2003
0000
0001
3001
0000
0000
,
1001
0000
0000
0000
1001
0000
1000
0000
0100
0000
0010
0000
0001
0000
0010
0100
,
0000
2000
0000
0000
0000
0000
0001
0000
3001
0000
0000
0000
0110
0000
0000
0000
,
1000
0000
0001
0000
0100
0001
0000
1000
0100
1000
0100
1000
0000
0000
0000
0000
,
0010
0000
0100
0000
0001
0100
0000
0010
1000
0010
1000
0000
0000
0000
0000
0000
,
0020
0230
0320
0130
,
2002
0000
0000
3003
,
0110
0000
0000
0000
0100
0000
0000
0000
1000
0000
0001
0000
0000
1001
0000
0000
,
1001
0000
1000
0000
0100
0000
0010
0001
0010
0100
0000
0000
1001
0000
0000
0000
,
0001
0000
0100
0000
0001
0000
0100
0000
0010
0000
1000
0000
0000
0000
0001
0100
,
0001
1000
0100
0000
1000
0000
0010
0000
0000
0000
0100
0001
0100
0000
0000
0000
,
1000
0000
0100
0000
1000
0000
0001
0000
0100
0000
0010
0000
0100
0000
0001
1000
,
0001
1000
0001
0000
1000
0000
0100
0000
1000
0001
0000
0000
1001
0000
0000
0000
,
1000
0000
0100
0000
1000
0000
0001
0000
0100
0000
0010
1000
0000
0001
0100
0001
,
0010
0001
0100
0000
0010
0000
1000
0200
0000
0000
0000
0000
0300
0000
0000
0000
,
1001
0000
1000
0100
1100
0000
0001
0100
,
0101
0000
1001
0000
1100
0000
1001
0000
0010
0000
1000
0001
1000
0001
1000
0000
,
0001
0000
0000
0000
1000
0000
0000
0001
1000
0000
0001
0000
0100
0000
0000
0000
,
0010
0000
0000
0000
1000
0000
0000
0001
1000
0000
0001
0000
0100
0000
0000
0000
,
0010
1000
1001
0000
1001
0100
0101
0010
,
0000
0000
1000
0000
1100
0000
0000
1000
0001
0000
0100
0000
0001
0000
0000
0000
,
1000
0000
0000
0000
1100
0000
0000
0001
0100
0000
0001
0000
0010
0000
0100
0000
,
1000
0000
0000
0000
1001
0000
0000
0010
0100
0000
0010
0000
1000
0000
0001
0000
,
1000
0100
0010
0001
0000
0000
0001
0010
,
0100
0000
0000
0010
0000
0000
0002
0000
0000
0000
0000
0000
0000
0000
0000
0000
,
0000
0000
0000
0000
0003
0000
0000
0000
1000
0001
1000
0000
0001
0100
0000
0000
,
0010
0000
1001
0000
1000
0100
1000
0001
,
0100
0010
0010
0000
0100
0100
0000
0000
,
0000
0000
1001
0000
0000
0110
0000
1001
,
0000
0100
0100
0000
0010
0010
0000
0000
,
1000
1100
0001
0101
,
1000
1010
0001
0011
,
1000
0000
0010
0000
0100
0001
0000
1000
0100
1000
0100
1000
0000
0000
0000
0000
,
0010
0000
0100
0000
0001
0100
0000
0010
1000
0010
1000
0000
0000
0000
0000
0000
,
2000
3002
2003
3001
,
1001
0000
0000
0000
;

//---------------dance-double - ----------------
#NOTES:
     dance-double:
     :
     Easy:
     3:
     0.127772,0.168105,0.043104,0.053880,0.000000,83.000000,79.000000,4.000000,5.000000,0.000000,0.000000,0.127772,0.168105,0.043104,0.053880,0.000000,83.000000,79.000000,4.000000,5.000000,0.000000,0.000000:
00000000
00000000
00000000
00000000
,
00000000
00000000
00000000
00000000
,
00000001
00000000
00000100
00000000
,
00001000
00000000
00010000
00000000
,
00001000
00000000
00010000
00000000
,
00100000
00000000
00100000
00000000
,
00100000
00000000
00100000
00000000
,
10000000
00000000
10000000
00000000
,
00010000
00000000
00010000
00000000
,
10000000
01000000
00100000
00010000
,
20020000
00000000
00000000
30030000
,
10000000
00000000
00100000
00000000
,
00010000
00000000
00001000
00000000
,
00000010
00000000
00000001
00000000
,
00001000
00000001
00001000
00000001
,
00000100
00000000
00000010
00000000
,
00000100
00000000
00000010
00000000
,
00001000
00000000
00000001
00000000
,
00000100
00000000
00001001
00000000
,
00000100
00000000
00010000
00000000
,
00001000
00010000
00001000
00010000
,
01000000
00000000
10000000
00000000
,
00010000
00000000
01000000
00000000
,
20020000
00000000
00000000
30030000
,
10000000
00000000
00010000
00000000
,
00001000
00000000
00000001
00000000
,
00001000
00000000
00010000
00000000
,
00001000
00000000
00001000
00000000
,
00001000
00000000
00000200
00000000
,
00000000
00000000
00000300
00000000
,
00000001
00000000
00000010
00000000
,
00000001
00000000
00000100
00000000
,
00001000
00000000
00010000
00000000
,
01000000
00000000
10000000
00000000
,
00100000
00000000
10000000
00000000
,
01000000
00000000
00100000
00000000
,
01000000
00000000
00100000
00000000
,
00001000
00000000
00010000
00000000
,
00001000
00000100
00000001
00000010
,
00001001
00000000
00000000
00000000
,
00000000
00000000
00000000
00000000
;

//---------------dance-double - ----------------
#NOTES:
     dance-double:
     :
     Medium:
     6:
     0.246308,0.273171,0.064656,0.193968,0.026940,160.000000,154.000000,6.000000,18.000000,0.000000,0.000000,0.246308,0.273171,0.064656,0.193968,0.026940,160.000000,154.000000,6.000000,18.000000,0.000000,0.000000:
00000000
00000000
00000000
00000000
,
00000000
00000000
00000000
00000000
,
00000000
00000001
00001000
00000000
00001000
00000001
00000000
00000000
,
00000010
00000000
00001001
00000000
00000000
00000100
00000000
00010000
,
00000000
00001000
00010000
00000000
00010000
00001000
00000000
00000000
,
00010000
01000000
10000000
00100000
,
00010000
00100000
10000000
01000000
,
10000000
00000000
00000000
00010000
00000000
00000000
02000000
00000000
00000000
00000000
00000000
00000000
03000000
00000000
00000000
00000000
,
00001000
00010000
00001000
00000000
00010000
00001000
00010000
00001000
,
00000200
00000302
00000023
00002030
,
00023000
00000000
00000000
00030000
,
00000100
00001000
00000010
00010000
,
00001000
00000000
01000000
00000000
00100000
10000000
01000000
00000000
,
10000000
00010000
01000000
00001000
,
00010000
00000000
00100000
00000000
01000000
00001000
00010000
00000000
,
00000010
00001000
00000100
00000001
,
00000100
00000000
00001000
00000000
00000010
00000100
00000001
00000000
,
00000010
00001000
00010000
00100000
,
10000000
00000000
01000000
00000000
00100000
00001000
00010000
00000000
,
00011000
00000000
00000000
00001000
00000100
00000000
00000000
00000100
,
00000001
00000001
00000010
00000100
00001000
00000001
00001000
00000002
,
00000000
00000000
00000100
00000000
00000000
00000000
00000100
00000103
,
00002000
00000000
00010000
00023000
00000000
00000000
00001000
00031000
,
00000000
00000000
00011000
00000000
00010000
00010000
00000000
01000000
,
00000000
10000000
00100000
02000000
00000000
00000000
03000000
00000000
,
00000000
00000000
00000000
00000000
00000000
00000000
00000000
00000000
00100000
00000000
00000000
00010000
00000000
00000000
00001000
00000000
,
00010000
00000000
00000000
00001000
00000000
00000000
01000000
00000000
00000000
00000000
00100000
00000000
00000000
00000000
10000000
00000000
,
01000000
10000000
00010000
01000000
00000000
00000000
00100000
10000000
,
01000000
00000000
00000000
00100000
00000000
00000000
00020000
00000000
00000000
00000000
00000000
00000000
00030000
00000000
00000000
00000000
,
20020000
00000000
00000000
30030000
,
00000000
00000000
01100000
00000000
00000000
10000000
00000000
00010000
,
00000000
10000000
00010000
00000000
00010000
01000000
00000000
00000000
,
00001000
00000000
00011000
00000000
00000000
00000100
00000000
00001000
,
00000000
00000010
00001000
00000000
00001000
00000001
00000000
00000000
,
00001000
00000100
00000010
00000001
,
00000100
00000010
00001000
00000100
,
00010000
00000000
00000000
00001000
00000000
00000000
02000000
00000000
00000000
00000000
00000000
00000000
03000000
00000000
00000000
00000000
,
00100000
10000000
01000000
00000000
00100000
00010000
10000000
01000000
,
20000000
32000000
03020000
00032000
,
00013000
00000000
00000000
00000000
,
00000000
00000000
00000000
00000000
;

//---------------dance-double - ----------------
#NOTES:
     dance-double:
     :
     Hard:
     9:
     0.392553,0.399250,0.118536,0.183192,0.215520,255.000000,244.000000,11.000000,17.000000,0.000000,0.000000,0.392553,0.399250,0.118536,0.183192,0.215520,255.000000,244.000000,11.000000,17.000000,0.000000,0.000000:
00000000
00000000
00000000
00000000
,
00000000
00000000
00000000
00000000
00000001
00000000
00000100
00000000
00000001
00000000
00000010
00000000
00000100
00000000
00010000
00002000
,
00000000
00000000
00000000
00000000
00003000
00000000
00000000
00000000
01000000
00000000
00010000
00000000
00100000
00000000
01000000
10000000
,
00000000
00000000
00000000
00000000
01000000
00000000
00010000
00000000
00001000
00000000
00000010
00000000
00001000
00010000
00000000
00001000
,
00000000
00020000
00000000
00032000
00000000
00003100
00000001
00001000
,
00001001
00000000
00000000
00000000
00001001
00000000
00000001
00000000
00000100
00000000
00000010
00000000
00001000
00000000
00000001
00001000
,
00000000
00000001
00000000
00001000
00000001
00000000
00000100
00000000
,
00000001
00000000
00000010
00000000
00000100
00001000
00000000
00000001
00000100
00000001
00000100
00000001
00000000
00000000
00000000
00000000
,
00001000
00000000
00000100
00000000
00010000
00001000
00000000
00100000
00010000
00100000
00010000
00000000
00000000
00000000
00000000
00000000
,
20010000
30020000
02030000
03100000
,
10010000
10000000
10000000
00010000
00010000
00000000
00100000
01000000
,
10000000
00000000
00010000
00100000
01000000
00000000
10000000
01000000
,
00100000
00000000
00000000
00000000
00001000
00000000
00010000
00000000
00001000
00010000
00000000
00000000
00000100
00000000
00000000
00000000
,
00001000
00000000
00000000
00000000
00000001
00000000
00000010
00000000
00000100
00000000
00000000
00000000
00000000
00000000
00001000
00000001
,
00001000
00000001
00001000
00000000
00000010
00000000
00000100
00000000
00000000
00000000
00000001
00001000
00000002
00000000
00000000
00000000
,
00001003
00000000
00000000
00000000
00000001
00000000
00000010
00000000
00000100
00000000
00010000
00000000
00000000
00000000
00001000
00010000
,
00001000
00010000
00001000
00000000
00100000
00000000
00010000
00000000
10000000
00010000
00000000
00000000
01000000
00000000
00000000
00000000
,
00100000
00000000
10000000
01000000
10000000
00100000
01000000
00001000
,
00010000
00000000
00100000
00000000
01000000
00000000
00010000
10000000
00000000
00000000
00010000
01000000
00020000
00000000
00000000
00000000
,
10030000
00000000
00000000
01000000
10000000
00000000
00000000
00000000
,
00010000
10000000
00010000
10000000
00010000
00100000
01000000
10000000
,
00010000
00000000
00000000
00000000
10000000
00000000
00000000
01000000
00100000
00000000
01000000
00000000
10000000
00000000
00000000
00000000
,
01000000
00000000
00000000
00000000
00010000
00000000
00000000
00001000
00010000
00000000
00000010
00000000
00000100
00000000
00000001
00000000
,
00001000
00000010
00000110
00000000
00001000
00001000
00000001
00000001
,
00000000
00000000
00001000
00000000
00000100
00000000
00000000
00000010
00000001
00000000
00000010
00000000
00000100
00000000
00000000
00000000
,
00010000
00000000
00000000
00000000
00001000
00000000
00000000
00100000
00010000
00000000
00100000
00000000
01000000
00000000
10000000
00000000
,
00100000
00000000
00000000
00000000
01000000
00000000
00000000
00001000
00010000
00000000
01000000
00000000
10000000
00000000
00100000
00000000
,
10000000
01000000
00010000
00001000
00000000
00000000
00010000
00001000
,
00000010
00000000
00000000
00000001
00000000
00000000
00000200
00000000
00000000
00000000
00000000
00000000
00000300
00000000
00000000
00000000
,
00002002
00000000
00000000
00000000
00003003
00000000
00000000
00000000
00000001
00000000
00000100
00000000
00000010
00001000
00000000
00000000
,
00001001
00000000
00000000
00000000
00000001
00000000
00000010
00000000
00000001
00000000
00000100
00000000
00000010
00000000
00010000
00002000
,
00000000
00000000
00000000
00000000
00003000
00000000
00000000
00000000
00100000
00000000
00010000
00000000
01000000
00000000
00100000
10000000
,
00000000
00000000
00000000
00000000
00100000
00000000
00010000
00000000
00001000
00000000
00000100
00000000
00001000
00010000
00000000
00001000
,
00000000
00020000
00000000
00032000
00000000
00003010
00000001
00001000
,
00001001
00000000
00000000
00000000
00001001
00000000
00000001
00000000
00000010
00000000
00000100
00000000
00001000
00000000
00000001
00001000
,
00000000
00000001
00000000
00001000
00000001
00000000
00000010
00000000
,
00000001
00000000
00001000
00000000
00000100
00000010
00000000
00000001
00000010
00000001
00000010
00000001
00000000
00000000
00000000
00000000
,
00001000
00000000
00000010
00000000
00010000
00001000
00000000
01000000
00010000
01000000
00010000
00000000
00000000
00000000
00000000
00000000
,
20010000
30020000
00230000
01300000
,
10010000
00000000
00000000
00000000
,
00000000
00000000
00000000
00000000
;

//---------------dance-single - ----------------
#NOTES:
     dance-single:
     :
     Challenge:
     12:
     0.598836,0.619147,0.603455,0.215520,0.409487,389.000000,333.000000,56.000000,20.000000,0.000000,0.000000,0.598836,0.619147,0.603455,0.215520,0.409487,389.000000,333.000000,56.000000,20.000000,0.000000,0.000000:
0000
0000
0000
0000
,
0101
0000
0000
0000
1001
0000
0010
0000
1000
0000
0001
0000
1000
0000
0010
0100
,
0000
0001
1000
0000
0100
0000
0000
1000
0010
0000
0010
0000
0100
0001
0100
0000
,
0110
0000
0000
0000
1010
0000
1000
0000
0100
0000
0010
0000
0001
1000
0000
0002
,
0000
0000
0103
0000
0010
0000
1020
0000
0000
0000
1000
0000
1030
0001
0100
0000
,
0101
0000
0000
0000
1100
0000
1000
0000
1000
0000
0001
0000
0001
0000
0100
0010
,
0000
0010
1000
0000
0001
0000
0100
0000
0110
0000
0000
0000
1001
0000
0000
0000
,
1010
0000
0000
1100
0000
0000
0011
0000
1000
0001
1000
0100
0000
0100
0010
0001
,
0100
0000
0010
0000
0010
1000
0100
0010
0002
0000
2003
0000
3020
0000
0230
0000
,
1000
0001
1000
0301
,
1001
0000
1000
0100
0010
0000
0100
0010
0001
0000
0000
0000
1100
0000
1100
0000
,
1001
0000
0000
0001
0010
0000
0100
0000
1000
0000
0010
0000
1000
0001
0100
0000
,
0010
1000
0000
1000
0010
0000
0100
0001
1000
0001
0010
0000
0100
1000
0001
0000
,
0010
0000
0011
0000
1100
0000
0001
0000
0101
0000
1010
0000
0100
0000
0010
1000
,
0100
0010
0001
0010
0001
1000
0100
0000
1000
0010
0100
0000
1001
0000
0011
0000
,
1000
0000
1100
0000
0011
0000
0100
0000
1010
0000
0101
0000
0001
0000
0010
0100
,
1000
0010
0100
0010
1000
0100
0010
0000
0001
1000
0001
0000
0011
0000
1010
0000
,
1000
0010
0100
0010
1000
0000
0001
0000
0010
0001
1000
0001
0000
0100
0001
0100
,
0010
0100
0001
1000
0001
0010
0100
1000
0000
0010
0100
0001
1000
0001
0010
0000
,
0011
0001
1000
1100
1010
0010
0100
0101
,
0011
1100
1010
1001
0002
0023
0230
2300
,
0010
0000
0100
0000
3100
0000
0000
0001
1000
0000
0001
0000
0010
0000
0100
0000
,
1000
0010
0100
0001
0010
0100
1000
0001
,
0010
0000
1001
0000
0100
0000
0000
0001
1000
0000
1000
0000
0010
0000
0210
0000
,
0000
0000
0301
0000
0100
0000
1000
0000
0010
0100
0010
0000
2000
0000
0000
0000
,
3001
0000
1000
0000
1000
0000
0000
0100
0010
0000
0001
0000
0100
0000
0010
0000
,
1000
0001
0010
0100
1000
0010
0100
0001
,
0011
0001
0100
1000
0000
0010
0100
0001
,
1001
0000
0000
0110
0000
0000
2020
0000
0000
0000
0000
0000
0030
0000
0000
0000
,
3001
0010
0001
0010
0001
0010
0001
0010
1000
0000
1000
0000
1000
0001
0100
0000
,
0101
0000
0000
0000
1001
0000
1000
0000
1000
0000
0010
0000
0100
0000
0001
0010
,
0000
0010
0001
0000
1001
0000
0000
1000
0010
0000
0010
0000
0010
0100
0001
0000
,
0011
0000
0000
0000
1100
0000
0001
0000
0001
0000
1000
0000
0010
1000
0000
0200
,
0000
0000
1300
0000
0010
0000
0210
0000
0000
0000
0001
0000
0301
1000
0010
0000
,
1010
0000
0000
0000
0101
0000
0001
0000
0001
0000
1000
0000
1000
0000
0010
0100
,
0000
0100
0010
0000
1000
0000
0001
0000
0011
0000
0000
0000
1100
0000
0000
0000
,
0110
0000
0000
0011
0000
0000
1001
0000
0001
0010
0001
1000
0000
1000
0010
0100
,
0010
0000
1000
0000
1000
0001
0100
0010
2000
0000
3002
0000
0203
0000
0320
0000
,
0001
1000
0001
1030
,
0110
0000
0001
1000
0100
0000
1000
0001
0010
0000
0010
0000
0000
0000
0000
0000
;
