#TITLE:How Far I'll Go;
#SUBTITLE:;
#ARTIST:Auli'i Cravalho;
#TITLETRANSLIT:;
#SUBTITLETRANSLIT:;
#ARTISTTRANSLIT:;
#GENRE:;
#CREDIT:;
#BANNER:How Far I'll Go-bn.png;
#BACKGROUND:How Far I'll Go-bg.png;
#LYRICSPATH:;
#CDTITLE:;
#MUSIC:How Far I'll Go.ogg;
#OFFSET:-0.100000;
#SAMPLESTART:35.415001;
#SAMPLELENGTH:20.000000;
#SELECTABLE:YES;
#DISPLAYBPM:79.000000:86.000000;
#BPMS:0.000000=80.000000
,16.000000=81.000000
,20.000000=80.000000
,28.000000=79.000000
,30.000000=81.000000
,32.000000=81.500000
,40.000000=82.000000
,46.000000=83.989998
,48.000000=85.000000
,56.000000=84.000000
,80.000000=83.750000
,90.000000=84.000000
,112.000000=83.666664
,131.000000=86.000000
,140.000000=84.000000
;
#STOPS:
;
#BGCHANGES:;
#KEYSOUNDS:;
#ATTACKS:;

//---------------dance-single - ----------------
#NOTES:
     dance-single:
     :
     Hard:
     11:
     0.443477,0.507983,0.435414,0.370908,0.387034,385.000000,331.000000,54.000000,46.000000,0.000000,0.000000,0.443477,0.507983,0.435414,0.370908,0.387034,385.000000,331.000000,54.000000,46.000000,0.000000,0.000000:
// measure 0
0000
0000
0000
0000
,  // measure 1
0000
0000
0000
0000
,  // measure 2
0000
0000
0000
0000
,  // measure 3
0000
0000
0000
0000
,  // measure 4
0020
0000
0000
0130
0000
0000
0000
0000
0000
0000
0001
0010
0001
1000
0010
0100
,  // measure 5
0002
0000
0000
1003
0000
0000
0000
0000
1000
0010
0100
0000
0100
0000
0001
0010
,  // measure 6
0200
0000
0000
1300
0000
0000
0000
1000
0010
0100
0001
0000
0001
0000
0010
0000
,  // measure 7
0002
0000
0000
0000
2000
0000
0000
0000
0000
0000
3003
0000
0000
0000
1000
0100
,  // measure 8
1000
0000
1100
0000
1100
0000
0001
0100
0001
0000
0101
0000
0101
0000
0100
0010
,  // measure 9
0100
0000
0000
0000
1010
0000
0000
0000
1010
0000
0000
0000
0010
0000
0100
0000
0010
0000
0000
0000
0101
0000
0000
0000
0101
0000
0000
0000
0000
0000
0001
1000
,  // measure 10
0001
0000
1001
0000
1001
0000
1000
0001
1000
0000
0110
0000
0110
0000
0010
0100
,  // measure 11
0020
0000
0000
0000
2030
0000
0000
0000
3200
0000
0000
0000
0300
0000
1000
0001
,  // measure 12
0200
0000
0310
1000
0020
0000
0130
0001
2000
0000
0000
0000
3010
0000
0102
0000
,  // measure 13
2003
0000
3020
0000
0001
0000
0000
0000
0130
0000
0000
0010
1000
0001
0000
0000
,  // measure 14
0012
0000
0100
0000
0010
0000
1003
0000
0001
0000
0000
0100
0001
1000
0000
0000
,  // measure 15
1200
0000
0001
0000
1000
0000
0310
0000
0100
0000
0000
0000
1000
0000
0001
1000
,  // measure 16
0002
0000
0103
0010
2000
0000
3100
1000
0020
0000
0130
0000
0001
0000
1020
0000
,  // measure 17
0230
0000
0302
0000
1000
0000
0000
0000
0103
0000
0001
0000
1000
0010
0000
0000
,  // measure 18
0210
0000
1000
0000
0010
0000
0301
0000
2000
0000
0000
0000
3100
0000
0010
0001
,  // measure 19
0100
0000
0100
0000
0010
0000
0010
0000
1000
0100
1000
0000
0001
0000
0001
0000
,  // measure 20
1001
0000
0000
0010
0100
0000
1001
0000
0000
0000
1000
0100
0010
0001
0100
0010
,  // measure 21
1000
0100
0000
0100
1000
0000
0011
0000
0000
1100
0000
0010
0100
0001
0010
0001
,  // measure 22
1000
0100
0000
0100
1000
0000
0000
0000
1000
0010
0100
0001
0010
0000
0001
0010
,  // measure 23
0001
0000
1000
0100
1000
0000
0001
0100
0001
0000
1000
0000
0010
0010
0010
0010
,  // measure 24
1000
0000
0000
1000
0100
0000
1010
0000
0000
0101
0000
0001
1000
0001
0100
0010
,  // measure 25
1000
0001
0000
0001
1000
0000
0110
0000
0000
0100
0000
0010
1000
0100
0010
0001
,  // measure 26
0100
0010
0000
0010
0100
0000
0000
0001
1000
0001
0010
0100
1000
0000
1000
0001
,  // measure 27
1000
0000
0001
0100
0000
1000
0100
0000
0020
0000
0000
0000
0130
0000
0001
1000
,  // measure 28
0010
0000
1010
0000
1010
0000
1000
0100
0010
0000
0011
0000
0011
0000
0001
1000
,  // measure 29
0100
0000
1100
0000
1100
0000
0010
0100
0001
0000
0101
0000
0101
0000
0010
0100
,  // measure 30
1000
0000
0000
0000
1001
0000
0000
0000
1001
0000
0000
0000
0001
0000
1000
0000
0010
0000
0000
0000
0110
0000
0000
0000
0110
0000
0000
0000
0000
0000
0001
1000
,  // measure 31
0002
2003
3200
0300
,  // measure 32
1000
0100
1000
0100
0010
0001
0010
0001
0100
0010
0100
0010
1000
0001
1000
0001
,  // measure 33
0020
0000
0031
0100
2000
0000
3010
0100
0002
0000
0000
0000
1003
0000
0120
0000
,  // measure 34
1030
0000
0210
0000
1000
0000
0000
0000
0301
0000
0000
0001
0100
0010
0100
0000
,  // measure 35
0201
0000
1000
0000
0301
0000
1010
0000
0100
0000
0000
0001
1000
0010
0100
0000
,  // measure 36
0012
0000
0100
0000
1003
0000
2100
0000
0010
0000
0001
0000
3001
0000
1000
0100
,  // measure 37
0020
0000
0031
1000
0200
0000
1300
0001
2000
0000
3001
0000
0101
0000
1002
0000
,  // measure 38
0013
0000
2001
0000
0010
0000
0000
0000
3100
0000
1000
0000
1000
0001
0100
0000
,  // measure 39
0102
0000
0010
0000
1003
0000
1010
0000
0000
0000
1100
0000
1000
0010
0100
0000
,  // measure 40
0220
0000
0330
1010
0011
0000
1100
0000
,  // measure 41
2002
0000
0000
3003
,  // measure 42
0011
0000
0000
0000
;

//---------------dance-single - ----------------
#NOTES:
     dance-single:
     :
     Medium:
     8:
     0.277605,0.304790,0.145138,0.322529,0.149169,241.000000,223.000000,18.000000,40.000000,0.000000,0.000000,0.277605,0.304790,0.145138,0.322529,0.149169,241.000000,223.000000,18.000000,40.000000,0.000000,0.000000:
0000
0000
0000
0000
,
0000
0000
0000
0000
,
0000
0000
0000
0000
,
0000
0000
0000
0000
,
0020
0000
0000
0130
0000
0000
0000
0000
0000
0000
0001
0000
1000
0000
0000
0000
,
2000
0000
0000
3100
0000
0000
0000
0000
1000
0000
0001
0000
0100
0000
0000
0000
,
0002
0000
0000
0013
0000
0000
0000
0000
0100
0000
1000
0000
0001
0000
1000
0000
,
0200
0000
0000
0000
0000
0000
0000
0000
0300
0000
0000
0000
0000
0000
1000
0100
,
1000
0001
0001
0000
0100
0010
0010
0000
,
1000
0100
0100
0000
0010
0001
0001
0000
,
0100
0001
0001
0000
0010
1000
1000
0100
,
2000
0000
0000
0000
3020
0000
0000
0000
0230
0000
0000
0000
0300
0000
0001
1000
,
0001
0100
0010
0100
0001
0000
1000
1001
,
0000
0000
0002
0000
0100
0000
0000
0000
0013
0000
0000
0000
1000
0001
0000
0000
,
2100
0000
0000
0000
0001
0000
0002
0000
0000
3003
0000
0000
0100
0010
0000
0000
,
0201
0000
0000
0000
0010
0000
0020
0000
0000
0330
0000
0000
0000
0000
1000
0001
,
1000
0010
0100
0010
1000
0000
0001
0012
,
0000
0000
2003
0000
0001
0000
0000
0000
3100
0000
1000
0000
0001
1000
0000
0000
,
1020
0000
0000
0000
0100
0000
0200
0000
0000
0330
0000
0000
0000
0000
0001
0010
,
0001
0100
0001
0100
0010
1000
0010
1000
,
0110
0000
0000
2000
0000
0000
3001
0000
0000
0000
0100
0010
0100
0000
0001
0000
,
0200
0000
0000
0310
0000
0000
0020
0000
0000
1030
0000
0000
1000
0001
1000
0000
,
0001
0000
0000
0010
0001
0000
0000
0000
0100
0000
0010
0000
1000
0000
0001
1000
,
0002
0000
0000
0000
0100
0000
0000
0000
0100
0000
0000
0000
1003
0001
1000
0001
,
2000
0000
0000
3010
0000
0000
0200
0000
0000
0301
0000
0000
0100
0010
0100
0000
,
0002
0000
0000
1003
0000
0000
0020
0000
0000
0130
0000
0000
0001
0000
1000
0100
,
1000
0000
0000
0100
1000
0000
0000
0000
0010
0000
0100
0000
0001
0000
0010
0001
,
0100
0000
0000
0100
0000
0000
0100
0000
0002
0000
0000
0000
2003
0000
0000
0000
,
3010
0100
0010
0000
0000
0000
1010
0000
0000
0000
0000
0000
0000
0000
0000
0000
,
0001
1000
0001
0000
0000
0000
0101
0000
0000
0000
0000
0000
0000
0000
0000
0000
,
1000
0100
1000
0000
0000
0000
0110
0000
0000
0000
0000
0000
0000
0000
0000
0000
,
1001
1100
0011
0000
,
1000
0000
1000
0000
0001
0000
0001
0000
0100
0000
0100
0000
0010
0000
0010
0100
,
0010
1000
0001
1000
0100
0000
0001
0201
,
0000
0000
0320
0000
0100
0000
0000
0000
1030
0000
0000
0000
0001
1000
0001
0000
,
2100
0000
0001
0000
0100
0000
0200
0000
0000
3300
0000
0000
1000
0010
1000
0000
,
1002
0000
1000
0000
0010
0000
0020
0000
0000
0000
0000
0033
0000
0000
0001
1000
,
0001
1000
0001
0100
0010
0000
0010
1020
,
0000
0000
0230
0000
0010
0000
0000
0000
0001
0000
0301
0000
1000
0100
1000
0000
,
0012
0000
0100
0000
1000
0000
2000
0000
0003
0000
0010
0000
3010
0100
0000
0000
,
0020
0000
0000
1000
2030
0000
3002
0000
,
0200
0000
0000
0303
,
0110
0000
0000
0000
;

//---------------dance-single - ----------------
#NOTES:
     dance-single:
     :
     Easy:
     5:
     0.169328,0.203193,0.072569,0.129011,0.000000,147.000000,138.000000,9.000000,16.000000,0.000000,0.000000,0.169328,0.203193,0.072569,0.129011,0.000000,147.000000,138.000000,9.000000,16.000000,0.000000,0.000000:
0000
0000
0000
0000
,
0000
0000
0000
0000
,
0000
0000
0000
0000
,
0000
0000
0000
0000
,
0020
0000
0030
0010
,
2000
3000
0001
0100
,
0002
0003
1000
0010
,
0200
0000
0300
0000
,
0001
0001
1000
1000
,
0010
0010
0100
0100
,
0001
0010
0100
1000
,
0010
0010
0010
0000
,
1000
0100
0001
1000
,
0010
0100
0010
0001
,
2000
0000
0000
3001
0000
0000
1001
0000
,
0200
0000
0000
0310
0000
0000
0110
0000
,
0001
1000
0010
1000
,
0100
0010
0001
0100
,
0020
0000
0000
0130
0000
0000
0000
0000
,
0002
1000
0010
0103
,
1001
0000
0100
0000
0010
0000
1000
0001
,
1000
0000
0100
0000
1000
0000
0010
0100
,
0010
0100
0001
1000
,
0001
0000
0100
0000
0001
0000
1000
1000
,
1000
0000
0100
0000
0010
0000
0001
1000
,
0001
0000
0010
0000
0001
0000
1000
0100
,
1000
0010
0100
0001
,
0100
0010
1000
0001
,
1000
1000
0100
0100
,
0001
0001
0010
0010
,
0001
1000
0010
0000
,
0120
2030
0002
3003
,
0100
0100
0100
0100
,
0001
0010
0001
1000
,
0100
0010
0100
1000
,
0002
0000
0000
0103
0000
0000
0110
0000
,
0020
0000
0000
1030
0000
0000
1001
0000
,
1000
0001
0010
0001
,
0100
0010
1000
0100
,
2000
0000
0000
3001
0000
0100
0010
0000
,
0200
0300
0110
1001
,
0200
0000
0000
0300
,
1001
0000
0000
0000
;

//---------------dance-single - ----------------
#NOTES:
     dance-single:
     :
     Beginner:
     2:
     0.077176,0.101597,0.016126,0.064506,0.000000,67.000000,65.000000,2.000000,8.000000,0.000000,0.000000,0.077176,0.101597,0.016126,0.064506,0.000000,67.000000,65.000000,2.000000,8.000000,0.000000,0.000000:
0000
0000
0000
0000
,
0000
0000
0000
0000
,
0000
0000
0000
0000
,
0000
0000
0000
0000
,
0010
0000
0000
0000
,
1000
0000
0000
0000
,
0001
0000
0000
0000
,
0100
0000
0000
0000
,
0001
0000
0001
0000
,
0010
0000
0010
0000
,
0100
0000
0100
0000
,
1000
0000
1000
0000
,
0010
0010
0010
0000
,
1000
0000
0000
0001
,
0002
0000
0003
0000
,
2000
0000
3000
0000
,
0100
0100
0100
0000
,
1000
0000
0000
0010
,
0020
0000
0030
0000
,
0100
0000
0100
0000
,
1001
0000
0100
0000
,
0001
0000
1000
0000
,
0010
0000
1000
0000
,
0200
0000
0300
0000
,
0001
0000
0001
0000
,
0100
0000
0100
0000
,
1000
0000
1000
0000
,
0010
0000
0010
0000
,
0100
0000
0000
0000
,
0010
0000
0000
0000
,
1000
0000
0000
0000
,
0001
0001
0001
0000
,
0000
0000
0000
0000
,
1000
1000
1000
0000
,
0010
0000
0000
0100
,
0200
0000
0300
0000
,
0020
0000
0030
0000
,
0010
0010
0010
0000
,
1000
0000
0000
1000
,
2000
0000
3000
0000
,
0001
0000
1000
0000
,
0002
0000
0003
0000
,
1001
0000
0000
0000
;
