#TITLE:Holic;
#SUBTITLE:;
#ARTIST:TaQ;
#TITLETRANSLIT:;
#SUBTITLETRANSLIT:;
#ARTISTTRANSLIT:;
#GENRE:;
#CREDIT:;
#BANNER:Holic-bn.png;
#BACKGROUND:Holic-bg.png;
#LYRICSPATH:;
#CDTITLE:;
#MUSIC:Holic.ogg;
#OFFSET:0.000000;
#SAMPLESTART:61.536999;
#SAMPLELENGTH:20.000000;
#SELECTABLE:YES;
#DISPLAYBPM:155.000000;
#BPMS:0.000000=155.171997
,4.000000=155.029007
;
#STOPS:
;
#BGCHANGES:;
#KEYSOUNDS:;
#ATTACKS:;

//---------------dance-single - ----------------
#NOTES:
     dance-single:
     :
     Beginner:
     4:
     0.173004,0.280267,0.023067,0.000000,0.000000,105.000000,103.000000,2.000000,0.000000,0.000000,0.000000,0.173004,0.280267,0.023067,0.000000,0.000000,105.000000,103.000000,2.000000,0.000000,0.000000,0.000000:
0000
0000
0000
0000
,
0000
0000
0000
0000
,
0000
0000
0000
0000
,
0000
0000
0000
0000
,
0000
0000
1000
0000
,
0000
0000
0000
0000
,
0000
0100
0000
0000
,
0000
0000
0000
0000
,
0001
0000
0000
0000
,
0000
0000
0000
0010
,
0000
0000
0000
0000
,
0000
0000
0000
0000
,
0000
0000
0000
0000
,
0100
0100
0100
0100
,
0100
0000
0000
0000
,
1000
1000
0000
0000
,
0000
0000
0000
0010
,
0010
0000
0000
0000
,
0000
0000
1000
1000
,
0000
0000
0000
0000
,
0000
0100
0100
0000
,
0000
0000
0000
0000
,
1000
1000
0000
0000
,
0000
0000
0000
1000
,
1000
0000
0000
0000
,
0000
0000
1000
1000
,
1000
1000
1000
1000
,
0000
0100
0100
0100
,
0100
0100
0100
0000
,
0001
0001
0001
0001
,
0001
0001
0000
0010
,
0010
0010
0010
0010
,
0010
0000
1000
1000
,
1000
1000
1000
1000
,
0000
0001
0001
0001
,
0001
0001
0001
0000
,
0100
0100
0100
0100
,
0100
0100
0100
0000
,
0000
0000
0000
0001
,
0000
0000
1000
1000
,
1000
1000
1000
1000
,
1000
1000
0000
0001
,
0001
0001
0001
0001
,
0001
0001
0000
0100
,
0100
0100
0100
0100
,
0100
0100
0000
0010
,
0010
0010
0010
0010
,
0010
0010
0010
0010
,
0000
0000
0000
1000
,
1000
0000
0000
0000
,
0001
0000
0000
0000
,
0001
0000
0000
0010
,
0000
0000
0000
0000
,
1001
0000
0000
0000
,
1001
0000
0000
0000
,
0000
0000
0000
0000
;

//---------------dance-single - ----------------
#NOTES:
     dance-single:
     :
     Easy:
     7:
     0.317999,0.378880,0.046135,0.000000,0.000000,193.000000,189.000000,4.000000,0.000000,0.000000,0.000000,0.317999,0.378880,0.046135,0.000000,0.000000,193.000000,189.000000,4.000000,0.000000,0.000000,0.000000:
0000
0000
0000
0000
,
0000
0000
0000
0000
,
0000
0000
0000
0000
,
0000
0000
0000
0000
,
0000
0000
1000
1000
,
1000
0000
1000
0001
0000
0001
0000
0001
,
0000
0001
0100
0000
0100
0000
0100
0000
,
0100
0010
0000
0010
0000
0010
0000
0010
,
1000
0000
1000
0000
1000
0000
1000
0100
,
0000
0100
0000
0100
0000
0100
0010
0000
,
0010
0000
0010
0000
0010
0001
0000
0001
,
0000
0001
0000
0001
0000
1000
0000
0100
,
0000
0010
0000
0001
0000
1000
0000
0010
,
0000
0100
0000
0001
0000
0010
0000
0100
,
0000
1000
0000
0001
0000
0100
0000
0010
,
1000
0000
1000
0000
1000
0000
1000
0001
,
0000
0001
0000
0001
0000
0001
0010
0000
,
0010
0000
0010
0000
0010
0100
0000
0100
,
0000
0100
0000
0100
1000
0000
1000
0000
,
1000
0000
1000
0010
0000
0010
0000
0010
,
0000
0010
0100
0000
0100
0000
0100
0000
,
0100
0001
0000
0001
0000
0000
0000
0000
,
1000
0000
0000
0000
0000
0000
0000
0001
,
0000
0000
0000
1000
,
0000
0000
0000
0000
0000
0001
0000
0000
,
0000
0000
1000
1000
,
1000
1000
0100
0100
,
0100
0001
0001
0001
,
0001
0100
0100
0100
,
0010
1000
0100
0010
,
0001
0001
0001
0100
,
0010
1000
0100
0010
,
0010
0010
0001
0100
,
1000
0100
0010
0010
,
0010
0001
1000
0100
,
0010
0001
0001
0001
,
1000
0010
0100
0001
,
0010
0010
0010
0100
,
0000
1000
0000
0000
0001
0000
0100
0000
,
0000
0010
0000
0000
1000
0000
0100
0000
,
0010
0001
0100
0010
,
0010
0010
0000
1000
,
0100
0001
0100
0010
,
0010
0010
0000
1000
,
0001
0010
0100
1000
,
1000
1000
0000
0001
,
0100
0010
1000
0100
,
0100
0100
0000
0010
,
0001
0100
0100
0010
,
1000
0100
0100
0010
,
0001
1000
0010
0100
,
0001
0000
0000
0010
,
1001
0100
0100
0010
,
1001
0100
0010
1000
,
1001
0000
0010
1001
,
0000
0000
0000
0000
;

//---------------dance-single - ----------------
#NOTES:
     dance-single:
     :
     Medium:
     9:
     0.382257,0.409516,0.046135,0.000000,0.000000,232.000000,228.000000,4.000000,0.000000,0.000000,0.000000,0.382257,0.409516,0.046135,0.000000,0.000000,232.000000,228.000000,4.000000,0.000000,0.000000,0.000000:
0000
0000
0000
0000
,
0000
0000
0000
0000
,
0000
0000
0000
0000
,
0000
0000
0000
0000
,
0000
0000
0010
0001
,
0100
0000
0010
1000
0000
0100
0000
0010
,
0000
0001
1000
0000
0010
0000
0100
0000
,
0001
0010
0000
0100
0000
1000
0000
0010
,
0100
0000
0001
0000
1000
0000
0100
0010
,
0000
0001
0000
0100
0000
0010
1000
0000
,
0100
0000
0010
0000
0001
0100
0000
0010
,
0000
1000
0000
0100
0010
0000
0010
0000
,
0000
0001
0100
0010
0000
0000
0000
0000
,
1000
0100
0010
0000
0000
0000
0000
0001
,
0100
0010
0000
0000
0000
0000
1000
0001
,
0010
0000
0000
0000
0000
0100
1000
0010
,
0000
0100
0000
0000
0001
1000
0100
0000
,
0010
0000
0000
0001
0100
0010
0000
1000
,
0000
0000
0001
0010
0100
0000
1000
0000
,
0000
0010
0100
0001
0000
0010
0000
0000
,
0100
1000
0010
0000
0100
0000
0000
0001
,
1000
0100
0000
0010
0000
0000
0001
0000
,
0001
0000
0001
0000
0000
1000
0000
1000
,
0000
1000
0000
0000
0010
0000
0010
0000
,
0010
0000
0000
0100
0000
0100
0000
0100
,
0000
0000
0000
0000
0001
0010
0100
0000
,
1000
0010
0100
0000
0001
0000
0010
0000
,
0100
0000
1000
0010
0100
0000
0001
0010
,
0100
1000
0001
0100
,
0010
1000
0100
0000
0010
0001
0100
0000
,
0010
0000
1000
0000
0100
0000
0010
0001
,
1000
0000
0010
0100
0001
0000
1000
0000
,
0100
0000
0010
0000
0001
1000
0010
0000
,
0100
0001
1000
0000
0100
0000
0010
0000
,
0001
0000
0100
0010
1000
0000
0100
0010
,
0001
1000
0010
0100
,
0001
1000
0100
0000
0010
0001
1000
0000
,
0010
0100
0001
0010
,
0000
0100
0000
0000
1000
0000
0010
0000
,
0000
0100
0000
0000
0001
0000
0010
0100
,
1000
0000
0010
0100
0001
0000
0010
0000
,
0010
0000
0000
0100
0100
0000
1000
0001
,
0100
0000
1000
0001
0100
0000
0010
0000
,
0010
0000
0000
1000
1000
0000
0001
0100
,
0010
0000
1000
0100
0010
0000
0001
0000
,
0001
0000
0000
1000
1000
0000
0100
0010
,
0001
0000
0100
0010
1000
0000
0001
0000
,
0001
0000
0000
0010
0010
0000
0100
0000
,
1000
0000
0001
0100
0001
0000
1000
0000
,
0010
0000
0100
0001
0100
0000
0010
0000
,
1000
0000
0100
0010
0100
0000
1000
0000
,
0001
0000
0100
0010
0100
0000
1001
0000
,
0110
0000
0000
0001
1000
0100
0000
0000
,
0101
0000
0000
1000
0010
0100
0000
0000
,
1001
0000
0000
0010
0100
0001
0000
0000
,
0000
0000
0000
0000
;

//---------------dance-single - ----------------
#NOTES:
     dance-single:
     :
     Hard:
     11:
     0.556909,0.567022,0.288341,0.000000,0.000000,338.000000,313.000000,25.000000,0.000000,0.000000,0.000000,0.556909,0.567022,0.288341,0.000000,0.000000,338.000000,313.000000,25.000000,0.000000,0.000000,0.000000:
0000
0000
0000
0000
,
0000
0000
0000
0000
,
0000
0000
0000
0000
,
0000
0000
0000
0000
,
0000
0000
0000
0000
1001
0000
0010
0100
,
1000
0010
0100
0101
0000
1000
0100
0010
,
0001
0100
0110
0000
1000
0001
0010
0100
,
1000
1010
0000
0100
0001
0010
0100
1000
,
1001
0000
0100
0010
1000
0100
0010
0011
,
0000
1000
0010
0100
0001
0010
0110
0000
,
1000
0010
0100
0001
0010
0110
0000
1000
,
0001
0100
0010
1000
0100
0000
0010
0000
,
0000
0001
1000
0010
0000
0100
0000
0000
,
0001
0010
0100
0000
1000
0000
0000
0010
,
0100
0001
0000
1000
0000
0000
0100
0010
,
0001
0100
0010
1000
0100
0010
0001
0000
,
0000
1000
0000
1000
0000
1000
0100
0010
,
0001
0100
0010
1000
0100
0000
0000
0010
,
0000
0010
0000
0010
0001
1000
0010
0100
,
0001
1000
0100
0000
0000
0010
0000
0010
,
0000
0010
0001
0100
0010
1000
0100
0010
,
0001
0100
0000
0010
0000
0000
1000
0100
,
0010
0000
0001
0000
0000
1000
0010
0100
,
0000
0001
0000
0000
0010
0100
1000
0000
,
0010
0000
0000
0100
0001
0010
0000
0100
,
0000
0000
0000
0000
1000
0010
0100
0001
,
0010
0100
1000
0001
0100
0010
1000
0100
,
0010
0000
0010
0001
1000
0010
0100
0001
,
0010
0100
1000
0001
0100
0010
1000
0000
,
1000
0100
0010
0001
0100
0010
1000
0100
,
0010
0001
1000
0010
0100
0000
0100
0001
,
0010
0100
1000
0001
0100
0010
1000
0100
,
0010
0001
1000
0000
1000
0010
0100
0001
,
0010
0100
1000
0001
0100
0010
1000
0100
,
0010
0000
0010
0001
0100
0010
1000
0001
,
0010
0100
1000
0001
0100
0010
1000
0000
,
1000
0001
0010
0100
1000
0010
0100
0001
,
1000
0100
0010
0001
1000
0000
1100
0000
,
0000
0011
0000
0000
0101
0000
1010
0000
,
0000
1100
0000
0000
0101
0000
1000
0100
,
0010
0001
0100
0010
1000
0001
0010
0100
,
1000
0001
0100
0010
0010
0000
1000
0100
,
0010
0001
1000
0010
0100
0001
1000
0100
,
0010
0001
1000
0010
0010
0010
0100
0001
,
1000
0100
0010
0001
1000
0010
0100
0001
,
0010
0100
1000
0001
0001
0000
0100
0010
,
1000
0100
0010
0001
1000
0100
0010
0001
,
0100
0010
1000
0001
0000
0001
0010
0000
,
1100
0000
0001
0100
0010
1000
0000
0000
,
0101
0000
0010
1000
0100
0010
0000
0000
,
1001
0000
0010
1000
0100
0010
0000
0000
,
1001
0000
0010
0100
0001
0000
1100
0000
,
0101
0000
0010
1000
0100
0110
0000
0000
,
1001
0000
0010
0100
0001
1001
0000
0000
,
0110
0000
1000
0100
0010
1001
0000
0000
,
0000
0000
0000
0000
;

//---------------dance-double - ----------------
#NOTES:
     dance-double:
     :
     Easy:
     7:
     0.326237,0.315733,0.000000,0.000000,0.000000,198.000000,198.000000,0.000000,0.000000,0.000000,0.000000,0.326237,0.315733,0.000000,0.000000,0.000000,198.000000,198.000000,0.000000,0.000000,0.000000,0.000000:
00000000
00000000
00000000
00000000
,
00000000
00000000
00000000
00000000
,
00000000
00000000
00000000
00000000
,
00000000
00000000
00000000
00000000
,
00000000
00000000
10000000
10000000
,
10000000
00000000
10000000
00010000
00000000
00010000
00000000
00010000
,
00000000
00010000
01000000
00000000
01000000
00000000
01000000
00000000
,
01000000
00001000
00000000
00001000
00000000
00001000
00000000
00001000
,
00010000
00000000
00010000
00000000
00010000
00000000
00010000
00000100
,
00000000
00000100
00000000
00000100
00000000
00000100
00000010
00000000
,
00000010
00000000
00000010
00000000
00000010
00000001
00000000
00000001
,
00000000
00000001
00000000
00000001
00000000
00001000
00000000
00000010
,
00000000
00000100
00000000
00000001
00000000
00001000
00000000
00000100
,
00000000
00010000
00000000
00001000
00000000
00100000
00000000
00010000
,
00000000
10000000
00000000
00100000
00000000
01000000
00000000
00001000
,
00010000
00000000
00010000
00000000
00010000
00000000
00010000
00000100
,
00000000
00000100
00000000
00000100
00000000
00000100
00000010
00000000
,
00000010
00000000
00000010
00000000
00000010
00000001
00000000
00000001
,
00000000
00000001
00000000
00000001
00001000
00000000
00001000
00000000
,
00001000
00000000
00001000
00000100
00000000
00000100
00000000
00000100
,
00000000
00000100
00010000
00000000
00010000
00000000
00010000
00000000
,
00010000
00001000
00000000
00001000
00000000
00000000
00000000
00000000
,
00000000
00000000
00000000
00000000
00000000
00100000
00000000
00000000
,
00000000
00000000
00000000
00000000
00000000
01000000
00000000
00000000
,
00000000
00000000
00000000
00000000
00000000
10000000
00000000
00000000
,
00000000
00000000
00010000
00010000
,
00010000
00010000
01000000
01000000
,
00001000
00010000
00000000
00010000
00000000
00010000
00000000
00010000
,
00000010
00000010
00000100
00000100
,
00000001
00000001
00000001
00000001
,
00001000
00000000
00001000
00000000
00000100
00010000
00000000
00010000
,
00000000
00010000
00000000
00010000
00001000
00000000
00001000
00000000
,
00100000
00100000
00010000
00010000
,
00010000
00010000
10000000
10000000
,
00100000
01000000
00000000
01000000
00000000
01000000
00000000
01000000
,
00001000
00001000
00010000
00010000
,
00000100
00000100
00000100
00000100
,
00000010
00000010
00000001
00001000
,
00000000
00001000
00000000
00000000
00001000
00000000
00000100
00000000
,
00000000
00000100
00000000
00000000
00000100
00000000
00010000
00000000
,
00001000
00100000
01000000
10000000
,
10000000
00010000
00010000
01000000
,
00001000
00010000
00000010
00000100
,
00000100
00000001
00000001
00001000
,
00000100
00010000
00001000
00100000
,
00100000
01000000
01000000
10000000
,
00010000
01000000
00001000
00010000
,
00010000
00000010
00000010
00001000
,
00001000
00001000
00001000
00000100
,
00000100
00000100
00000100
00010000
,
00010000
00010000
00010000
00001000
,
00001000
00001000
00001000
01000000
,
00100000
10000000
10000000
00010000
,
01000000
00001000
00001000
00010000
,
00000010
00001000
00000001
00000010
,
00000000
00000000
00000000
00000000
;

//---------------dance-double - ----------------
#NOTES:
     dance-double:
     :
     Medium:
     8:
     0.392143,0.504019,0.069202,0.000000,0.000000,238.000000,232.000000,6.000000,0.000000,0.000000,0.000000,0.392143,0.504019,0.069202,0.000000,0.000000,238.000000,232.000000,6.000000,0.000000,0.000000,0.000000:
00000000
00000000
00000000
00000000
,
00000000
00000000
00000000
00000000
,
00000000
00000000
00000000
00000000
,
00000000
00000000
00000000
00000000
,
00000000
00000000
00000010
00000001
,
00001000
00000000
00000100
00010000
00000000
00001000
00000000
00100000
,
00000000
00010000
10000000
00000000
01000000
00000000
00100000
00000000
,
00010000
01000000
00000000
00001000
00000000
00010000
00000000
00000010
,
00001000
00000000
00000001
00000000
00000010
00000000
00000100
00010000
,
00000000
00001000
00000000
00100000
00000000
01000000
10000000
00000000
,
00010000
00000000
01000000
00000000
00001000
00010000
00000000
00000100
,
00000000
00000010
00000000
00000001
00001000
00000000
00001000
00000000
,
00000000
00000100
00000000
00010000
00000000
00001000
00000000
00000000
,
00100000
00000000
00010000
00000000
10000000
00000000
00000000
00100000
,
00000000
01000000
00000000
00010000
00000000
00000000
00100000
00000000
,
00001000
00000000
00010000
00000000
00000000
00000100
00001000
00000001
,
00000000
00000100
00000000
00000000
00000010
00001000
00000100
00000000
,
00010000
00000000
00000000
00001000
00100000
00010000
00000000
10000000
,
00000000
00000000
00100000
01000000
00010000
00000000
00100000
00000000
,
00000000
00001000
00010000
00000100
00000000
00000010
00000000
00000000
,
00000001
00001000
00000010
00000000
00000100
00000000
00000000
00000001
,
00001000
00000100
00000000
00010000
00000000
00000000
00001000
00000000
,
00001000
00000000
00001000
00000000
00000000
00100000
00000000
00100000
,
00000000
00100000
00000000
00000000
01000000
00000000
01000000
00000000
,
01000000
00000000
00000000
10000000
00000000
10000000
00000000
10000000
,
00000000
00000000
00000000
00000000
00010000
01000000
00001000
00000000
,
00010000
00000010
00001000
00000000
00000001
00000000
00000001
00000000
,
00000010
00000100
00001000
00000000
00000010
00010000
00001000
00000000
,
00100000
00100000
00010000
00010000
,
10000000
00100000
01000000
00000000
00010000
00100000
00001000
00000000
,
00010000
00000000
00010000
00000000
00000100
00000010
00000001
00000000
,
00001000
00000010
00010000
00000000
00001000
00000000
00001000
00000000
,
01000000
00000000
01000000
00000000
00010000
10000000
00010000
00000000
,
00100000
01000000
00100000
00000000
00010000
00000000
00010000
00000000
,
01000000
00001000
00010000
00000000
00000100
00000010
00000001
00000000
,
00000100
00000100
00000010
00000010
,
00001000
00000100
00010000
00000000
00001000
00100000
00010000
00000000
,
10000000
00000000
10000000
00000000
00100000
01000000
00100000
00000000
,
00000000
10000000
00000000
00000000
00010000
00000000
01000000
00000000
,
00000000
00001000
00000000
00000000
00010000
00000000
00000100
00000010
,
00000001
00000000
00000100
00000010
00001000
00000000
00000100
00000000
,
00000100
00000000
00000000
00010000
00010000
00000000
00001000
00100000
,
00010000
00000000
10000000
00100000
01000000
00000000
00001000
00000000
,
00001000
00000000
00000000
00010000
00010000
00000000
00000100
00000010
,
00000001
00000000
00000100
00000010
00001000
00000000
00000100
00000000
,
00000100
00000000
00000000
00010000
00010000
00000000
00001000
01000000
,
00010000
00000000
10000000
01000000
00100000
00000000
00001000
00000000
,
00001000
00000000
00000000
00010000
00010000
00000000
00000100
00000000
,
00000010
00000000
00000001
00000100
00000001
00000000
00001000
00000000
,
00000100
00000000
00010000
00001000
00100000
00000000
00010000
00000000
,
10000000
00000000
00100000
01000000
00100000
00000000
10000000
00000000
,
00010000
00000000
00100000
00001000
00100000
00000000
00010100
00000000
,
00001001
00000000
00000010
00000100
00000010
00000000
00001001
00000000
,
00010100
00000000
00001000
00100000
00001000
00000000
10010000
00000000
,
01001000
00000000
00010000
00000010
00001000
00000100
00000000
00000000
,
00000000
00000000
00000000
00000000
;

//---------------dance-double - ----------------
#NOTES:
     dance-double:
     :
     Hard:
     11:
     0.565148,0.535521,0.080735,0.000000,0.000000,343.000000,336.000000,7.000000,0.000000,0.000000,0.000000,0.565148,0.535521,0.080735,0.000000,0.000000,343.000000,336.000000,7.000000,0.000000,0.000000,0.000000:
00000000
00000000
00000000
00000000
,
00000000
00000000
00000000
00000000
,
00000000
00000000
00000000
00000000
,
00000000
00000000
00000000
00000000
,
00000000
00000000
00000000
00000000
10010000
00000000
01000000
00001000
,
00010000
00000100
00000010
00000001
00000000
00001000
00000100
00010000
,
00001000
00100000
00010000
00000000
10000000
00100000
01000000
00001000
,
00010000
00000010
00000000
00001000
00000001
00000010
00000100
00010000
,
00001000
00000000
00100000
00010000
10000000
00100000
01000000
00010000
,
00000000
00100000
00001000
00010000
00000100
00001000
00000001
00000000
,
00000010
00000100
00001000
00000010
00010000
00001000
00000000
00100000
,
00010000
10000000
00100000
01000000
00010000
00000000
00010000
00000000
,
00000000
10000000
01000000
00100000
00000000
00010000
00000000
00000000
,
01000000
00001000
00010000
00000000
00000100
00000000
00000000
00000010
,
00000001
00001000
00000000
00000100
00000000
00000000
00010000
00001000
,
00100000
00010000
10000000
00100000
01000000
00001000
00010000
00000000
,
00000000
00000100
00000000
00000100
00000000
00000100
00000010
00000001
,
00000100
00000010
00001000
00000100
00010000
00000000
00000000
00001000
,
00000000
00001000
00000000
00001000
00100000
00010000
10000000
01000000
,
00100000
00001000
00010000
00000000
00000000
00000010
00000000
00000010
,
00000000
00000010
00001000
00000001
00000010
00000100
00010000
00001000
,
00100000
00010000
00000000
10000000
00000000
00000000
01000000
00100000
,
00010000
00000000
01000000
00000000
00000000
00001000
00010000
00000100
,
00000000
00000010
00000000
00000000
00000001
00000100
00000010
00000000
,
00001000
00000000
00000000
00000100
00010000
00001000
00000000
00100000
,
00000000
00000000
00000000
00000000
00010000
10000000
00100000
01000000
,
00001000
00010000
00000100
00001000
00000001
00000100
00000010
00001000
,
00000100
00000000
00000100
00010000
00001000
00100000
00010000
10000000
,
00100000
01000000
00010000
00100000
00001000
00010000
00000100
00000000
,
00000100
00001000
00000001
00000100
00000010
00010000
00001000
00100000
,
00010000
10000000
00100000
01000000
00001000
00000000
00001000
00010000
,
00000100
00001000
00000001
00000010
00000100
00010000
00001000
00100000
,
00010000
10000000
00100000
00000000
00100000
01000000
00001000
00010000
,
00000100
00000010
00000001
00001000
00000100
00010000
00001000
00100000
,
00010000
00000000
00010000
10000000
00100000
01000000
00001000
00010000
,
00000100
00001000
00000001
00000010
00000100
00001000
00000010
00000000
,
00000010
00010000
00001000
01000000
00010000
10000000
01000000
00100000
,
00001000
00010000
00000100
00001000
00000001
00000000
00000110
00000000
,
00000000
00001001
00000000
00000000
00011000
00000000
00110000
00000000
,
00000000
11000000
00000000
00000000
01010000
00000000
00001000
00010000
,
00000100
00001000
00000001
00000100
00000010
00001000
00000100
00010000
,
00001000
00100000
00010000
10000000
10000000
10000000
00100000
01000000
,
00001000
00010000
00000100
00001000
00000010
00000100
00000001
00001000
,
00000100
00010000
00001000
00100000
00100000
00100000
00010000
10000000
,
00100000
01000000
00001000
00010000
00000100
00001000
00000001
00000100
,
00000010
00001000
00000100
00010000
00010000
00010000
00001000
00100000
,
00010000
10000000
00100000
01000000
00001000
00010000
00000100
00001000
,
00000010
00000100
00000001
00001000
00001000
00001000
00000100
00000100
,
00010000
00010000
00001000
00001000
00100000
00010000
10000000
10000000
,
01000000
01000000
00100000
00100000
00010000
01000000
00001000
00001000
,
00010000
00010000
00000100
00000100
00001000
00000001
00000100
00000100
,
00000010
00000010
00001000
00001000
00000100
00000100
00010000
00001000
,
00100000
00010000
10000000
00100000
01000000
00010000
10000000
01000000
,
00100000
00001000
00010000
00000100
00001000
00000001
00000100
00000010
,
00001000
00000100
00010000
00001000
00100000
00010000
00000000
00000000
,
00000000
00000000
00000000
00000000
;

//---------------dance-couple - ----------------
#NOTES:
     dance-couple:
     :
     Medium:
     8:
     0.275159,0.535521,0.069202,0.000000,0.000000,167.000000,161.000000,6.000000,0.000000,0.000000,0.000000,0.275159,0.535521,0.069202,0.000000,0.000000,167.000000,161.000000,6.000000,0.000000,0.000000,0.000000:
00000000
00000000
00000000
00000000
,
00000000
00000000
00000000
00000000
,
00000000
00000000
00000000
00000000
,
00000000
00000000
00000000
00000000
,
00000000
00000000
00100001
00010000
,
01000000
00000000
00100000
10000001
00000000
01000000
00000000
00100000
,
00000000
00010000
10000001
00000000
00100000
00000000
01000000
00000000
,
00010000
00100001
00000000
01000000
00000000
10000000
00000000
00100000
,
10000100
00000000
00000001
00000000
00001000
00000000
00000100
10000010
,
00000000
00000001
00000000
00000100
00000000
00000010
10001000
00000000
,
00000100
00000000
00000010
00000000
00000001
10000100
00000000
00000010
,
00000000
00001000
00000000
00000100
00000000
00010001
00000000
01000100
,
00000000
00100010
00000000
10001000
00000000
00010001
00000000
00100010
,
00000000
01000100
00000000
10001000
00000000
00100010
00000000
01000100
,
00000000
00010001
00000000
10001000
00000000
01000100
00000000
00100010
,
00010000
01000000
00100000
10000000
01000000
00100000
00010000
00000000
,
00000000
10000000
00000000
10000000
00000000
10000000
00000100
00000010
,
00000001
00000100
00000010
00001000
00000100
00000000
00000000
00000010
,
00000000
00000010
00000000
00000010
00010000
10000000
00100000
01000000
,
00010000
10000000
01000000
00000000
00000000
00100010
00000000
00100010
,
00000000
00100010
00000001
00000100
00000010
00001000
00000100
00100010
,
00010001
01000000
00000000
00100000
00000000
00000000
10000000
01000000
,
00100000
00000000
00010000
00000000
00000000
00001000
00000010
00000100
,
00000000
00000001
00000000
00000000
00000010
00000100
00001000
00000000
,
00000010
00000000
00000000
01000100
00010001
00100010
00000000
01000100
,
00000000
00000000
00010001
00010000
,
00010000
00010000
01000001
01000000
,
00100000
10000001
00000000
10000000
00000000
10000000
00000000
10000000
,
01000001
01000000
00100000
00100000
,
10000001
00000001
00000001
00000001
,
10001000
00000000
00001000
00000000
00000010
10000100
00000000
00000100
,
00000000
00000100
00000000
00000100
10000001
00000000
00000001
00000000
,
00000010
00000010
01000000
01000000
,
01000000
01000000
10000000
10000000
,
00010000
01000100
00000000
01000100
00000000
01000100
00000000
01000100
,
00100010
00100010
10001000
10001000
,
00000100
00000100
00000100
00000100
,
00000010
00000010
00000001
11000000
,
00000000
00110000
00000000
00000000
01010000
00000000
00001010
00000000
,
00000000
00001100
00000000
00000000
00000101
00000000
10000001
01000000
,
00100000
00010000
01000000
00100000
10000000
00010000
00100001
01000000
,
10000000
00010000
01000000
00100000
00100000
00100000
10000001
01000000
,
00100000
00010000
10000000
00100000
01000000
00010000
10000001
01000000
,
00100000
00010000
10000000
00100000
00100000
00100000
10000100
00000001
,
00001000
00000100
00000010
00000001
00001000
00000010
10000100
00000001
,
00000010
00000100
00001000
00000001
00000001
00000001
10000100
00000010
,
00001000
00000100
00000010
00000001
00001000
00000100
10000010
00000001
,
00000100
00000010
00001000
00000001
00000001
00000001
00100100
00000000
,
01000000
00000000
10000000
00100000
10000000
00000000
00010100
00000000
,
00100000
00000000
01000000
10000000
01000000
00000000
00100010
00000000
,
00000001
00000000
00000100
00000010
00000100
00000000
00100001
00000000
,
00001000
00000000
00000100
00000010
00000100
00000000
10010000
00000000
,
01100000
00000000
10000000
01000000
10000000
00000000
00001001
00000000
,
00000110
00000000
00001000
00000100
00001000
00000000
01010000
00000000
,
00000011
00000000
00100100
01000010
00100100
01000010
00000000
00000000
;

//---------------dance-solo - ----------------
#NOTES:
     dance-solo:
     :
     Easy:
     7:
     0.326237,0.315733,0.000000,0.000000,0.000000,198.000000,198.000000,0.000000,0.000000,0.000000,0.000000,0.326237,0.315733,0.000000,0.000000,0.000000,198.000000,198.000000,0.000000,0.000000,0.000000,0.000000:
000000
000000
000000
000000
,
000000
000000
000000
000000
,
000000
000000
000000
000000
,
000000
000000
000000
000000
,
000000
000000
010000
010000
,
010000
000000
010000
000001
000000
000001
000000
000001
,
000000
000001
001000
000000
001000
000000
001000
000000
,
001000
000010
000000
000010
000000
000010
000000
000010
,
100000
000000
100000
000000
100000
000000
100000
001000
,
000000
001000
000000
001000
000000
001000
000100
000000
,
000100
000000
000100
000000
000100
000001
000000
000001
,
000000
000001
000000
000001
000000
010000
000000
000010
,
000000
001000
000000
000100
000000
100000
000000
000001
,
000000
000100
000000
001000
000000
010000
000000
000001
,
000000
100000
000000
000010
000000
001000
000000
000100
,
100000
000000
100000
000000
100000
000000
100000
000010
,
000000
000010
000000
000010
000000
000010
010000
000000
,
010000
000000
010000
000000
010000
000001
000000
000001
,
000000
000001
000000
000001
000100
000000
000100
000000
,
000100
000000
000100
001000
000000
001000
000000
001000
,
000000
001000
010000
000000
010000
000000
010000
000000
,
010000
000001
000000
000001
000000
000000
000000
000000
,
000000
000000
000000
000000
000000
100000
000000
000000
,
000000
000000
000000
000000
000000
000010
000000
000000
,
000000
000000
000000
000000
000000
001000
000000
000000
,
000000
000000
000100
000100
,
000100
000100
100000
100000
,
000010
010000
000000
010000
000000
010000
000000
010000
,
001000
001000
000100
000100
,
000001
000001
000001
000001
,
010000
000000
010000
000000
000010
000100
000000
000100
,
000000
000100
000000
000100
000001
000000
000001
000000
,
010000
010000
001000
001000
,
001000
001000
000100
000100
,
000001
001000
000000
001000
000000
001000
000000
001000
,
000100
000100
100000
100000
,
000010
000010
000010
000010
,
010000
010000
000001
100000
,
000000
000010
000000
000000
000100
000000
000001
000000
,
000000
010000
000000
000000
000100
000000
001000
000000
,
000001
100000
001000
010000
,
010000
000001
000001
000100
,
000010
010000
000100
100000
,
100000
000010
000010
001000
,
000100
100000
000001
010000
,
010000
001000
001000
000100
,
000001
010000
000010
100000
,
100000
000100
000100
001000
,
001000
001000
001000
000010
,
000010
000010
000010
010000
,
010000
010000
010000
000001
,
000001
000001
000001
000100
,
001000
010000
010000
000100
,
001000
000010
000010
100000
,
000001
000100
001000
000100
;

//---------------dance-solo - ----------------
#NOTES:
     dance-solo:
     :
     Medium:
     9:
     0.392143,0.504019,0.069202,0.000000,0.000000,238.000000,232.000000,6.000000,0.000000,0.000000,0.000000,0.392143,0.504019,0.069202,0.000000,0.000000,238.000000,232.000000,6.000000,0.000000,0.000000,0.000000:
000000
000000
000000
000000
,
000000
000000
000000
000000
,
000000
000000
000000
000000
,
000000
000000
000000
000000
,
000000
000000
000100
000001
,
010000
000000
000010
100000
000000
000100
000000
001000
,
000000
000010
100000
000000
001000
000000
010000
000000
,
000001
100000
000000
000010
000000
001000
000000
000100
,
100000
000000
000001
000000
010000
000000
000010
000100
,
000000
000001
000000
010000
000000
000010
100000
000000
,
000100
000000
001000
000000
000010
100000
000000
000001
,
000000
010000
000000
001000
000100
000000
000100
000000
,
000000
000001
000000
001000
000000
000010
000000
000000
,
100000
000000
001000
000000
010000
000000
000000
000001
,
000000
000100
000000
000010
000000
000000
010000
000000
,
000100
000000
001000
000000
000000
000010
100000
000001
,
000000
000100
000000
000000
001000
010000
000001
000000
,
100000
000000
000000
000100
001000
000010
000000
100000
,
000000
000000
000001
000100
001000
000000
010000
000000
,
000000
000001
100000
000010
000000
001000
000000
000000
,
000100
100000
001000
000000
010000
000000
000000
000001
,
001000
000010
000000
100000
000000
000000
001000
000000
,
001000
000000
001000
000000
000000
010000
000000
010000
,
000000
010000
000000
000000
000001
000000
000001
000000
,
000001
000000
000000
000100
000000
000100
000000
000100
,
000000
000000
000000
000000
001000
010000
000001
000000
,
100000
000010
001000
000000
000100
000000
000100
000000
,
100000
001000
010000
000000
000001
001000
000010
000000
,
100000
100000
001000
001000
,
000100
000001
010000
000000
000100
100000
000010
000000
,
010000
000000
010000
000000
001000
000100
000001
000000
,
001000
000100
100000
000000
000010
000000
000010
000000
,
010000
000000
010000
000000
000001
000100
000001
000000
,
001000
000100
001000
000000
000010
000000
000010
000000
,
100000
001000
000100
000000
000001
001000
000100
000000
,
100000
100000
000010
000010
,
010000
000001
000100
000000
001000
010000
000001
000000
,
100000
000000
100000
000000
000010
001000
000010
000000
,
000000
100000
000000
000000
001000
000000
010000
000000
,
000000
000001
000000
000000
000100
000000
001000
010000
,
000001
000000
001000
000100
100000
000000
000010
000000
,
000010
000000
000000
010000
010000
000000
000001
000100
,
001000
000000
010000
000001
001000
000000
000100
000000
,
000100
000000
000000
100000
100000
000000
000010
010000
,
001000
000000
000100
000001
010000
000000
000010
000000
,
000010
000000
000000
100000
100000
000000
000100
001000
,
000010
000000
000100
001000
010000
000000
000001
000000
,
000001
000000
000000
100000
100000
000000
000100
000000
,
001000
000000
000010
100000
000010
000000
010000
000000
,
001000
000000
000100
000001
000100
000000
000010
000000
,
010000
000000
000100
001000
000100
000000
100000
000000
,
001000
000000
000100
000001
000100
000000
010010
000000
,
100100
000000
001000
010000
001000
000000
000101
000000
,
010010
000000
100000
000100
100000
000000
011000
000000
,
100001
000000
001000
000010
100000
000001
000000
000000
;

//---------------dance-solo - ----------------
#NOTES:
     dance-solo:
     :
     Hard:
     11:
     0.570091,0.567022,0.161471,0.000000,0.000000,346.000000,332.000000,14.000000,0.000000,0.000000,0.000000,0.570091,0.567022,0.161471,0.000000,0.000000,346.000000,332.000000,14.000000,0.000000,0.000000,0.000000:
000000
000000
000000
000000
,
000000
000000
000000
000000
,
000000
000000
000000
000000
,
000000
000000
000000
000000
,
000000
000000
000000
000000
010010
000000
000100
000001
,
100000
000100
001000
001010
000000
100000
000001
010000
,
001000
000100
000101
000000
010000
000010
100000
000100
,
001000
001010
000000
100000
001000
000100
000001
010000
,
010010
000000
100000
000100
001000
000010
100000
100001
,
000000
010000
001000
000100
000001
001000
001100
000000
,
100000
000010
010000
000001
000100
001100
000000
010000
,
000001
100000
000010
001000
000100
000000
100000
000000
,
000000
000010
010000
000100
000000
001000
000000
000000
,
000010
100000
000001
000000
010000
000000
000000
001000
,
000100
000001
000000
010000
000000
000000
001000
000100
,
000001
001000
000100
100000
000010
010000
000001
000000
,
000000
000100
000000
000100
000000
000100
001000
010000
,
000001
001000
000010
100000
001000
000000
000000
000100
,
000000
000100
000000
000100
000001
100000
001000
000100
,
000001
010000
000010
000000
000000
000100
000000
000100
,
000000
000100
000001
001000
000010
100000
001000
010000
,
000001
000100
000000
001000
000000
000000
100000
000100
,
001000
000000
000010
000000
000000
100000
000001
000100
,
000000
000010
000000
000000
001000
000100
100000
000000
,
001000
000000
000000
010000
000001
000100
000000
000010
,
000000
000000
000000
000000
100000
000001
001000
000010
,
100000
001000
000100
000001
010000
000010
100000
001000
,
000100
000000
000100
000001
010000
000010
001000
000100
,
100000
001000
010000
000001
000100
000010
010000
000000
,
010000
000001
000100
001000
100000
000001
001000
000010
,
100000
001000
010000
000001
000100
000000
001000
010000
,
000001
001000
000100
100000
000001
000100
001000
010000
,
000001
100000
000100
000000
000100
001000
000001
100000
,
001000
010000
000001
000100
000010
001000
000001
100000
,
001000
000000
001000
000100
000001
010000
000010
001000
,
000100
100000
000001
010000
001000
000100
000001
000000
,
000001
010000
000010
001000
000100
100000
000001
000100
,
001000
010000
000001
100000
000100
000000
011000
000000
,
000000
100001
000000
000000
001010
000000
100100
000000
,
000000
000101
000000
000000
011000
000000
100000
000001
,
001000
000010
100000
000100
001000
000001
000100
001000
,
010000
000001
001000
000010
000010
000010
100000
001000
,
010000
000001
000100
000010
001000
000100
100000
001000
,
010000
000001
100000
000010
000010
000010
001000
000100
,
100000
001000
010000
000001
000100
001000
010000
000001
,
001000
000100
100000
000010
000010
000010
010000
000001
,
000100
001000
100000
000001
001000
000100
100000
000010
,
010000
001000
000100
000001
000001
000001
010000
000010
,
100000
000100
001000
000001
000100
000000
000010
010000
,
000001
100000
000100
001000
000001
000000
100000
001000
,
000100
000001
010000
000010
100000
000000
000100
001000
,
000010
100000
000001
010000
001000
000000
100000
000100
,
001000
000010
100000
001000
000100
000001
010000
000100
,
001000
000010
100000
001000
010000
000001
000100
000010
,
010000
001000
000100
000001
001000
000100
000000
000000
;

//---------------dance-solo - ----------------
#NOTES:
     dance-solo:
     :
     Beginner:
     4:
     0.176300,0.189440,0.011534,0.000000,0.000000,107.000000,106.000000,1.000000,0.000000,0.000000,0.000000,0.176300,0.189440,0.011534,0.000000,0.000000,107.000000,106.000000,1.000000,0.000000,0.000000,0.000000:
000000
000000
000000
000000
,
000000
000000
000000
000000
,
000000
000000
000000
000000
,
000000
000000
000000
000000
,
000000
000000
010000
010000
,
000000
000000
000000
000010
000000
000010
000000
000000
,
000000
001000
001000
000000
,
000000
001000
000000
001000
000000
000000
000000
000000
,
000010
000000
000010
000000
000000
000000
000000
010000
,
000000
010000
000000
000000
000000
000000
000010
000000
,
000010
000000
000000
000000
000000
010000
000000
010000
,
000000
000000
001000
000000
,
000000
000000
000000
010000
000000
000000
000000
000000
,
000000
000010
000000
000000
,
000000
001000
000000
000000
000000
000000
000000
000000
,
000010
000000
000010
000000
000000
000000
000000
001000
,
000000
001000
000000
000000
000000
000000
000010
000000
,
000010
000000
000000
000000
000000
010000
000000
010000
,
000000
000000
001000
001000
,
000000
000000
000000
010000
000000
010000
000000
000000
,
000000
000010
000010
000000
,
000000
010000
000000
010000
000000
000000
000000
000000
,
010000
000000
000000
000000
000000
000000
000000
000010
,
000000
000000
000000
010000
,
000000
000000
000000
000000
000000
000010
000000
000000
,
000000
000000
001000
000000
,
000010
000000
001000
001000
,
001000
000000
000000
000010
,
000000
010000
010000
010000
,
000000
000000
001000
000000
,
010000
010000
010000
000000
,
000000
000010
000000
010000
,
010000
010000
000000
000000
,
001000
000000
001000
001000
,
001000
000000
000000
010000
,
000000
000010
000010
000010
,
000000
000000
000010
000000
,
001000
001000
001000
001000
,
000000
000000
000000
000010
,
000000
000000
000000
010000
,
000000
001000
000000
010000
,
000010
010000
000000
000010
,
000000
001000
000000
000010
,
010000
000010
000000
001000
,
000000
000010
000000
010000
,
001000
010000
000000
000010
,
000000
001000
000000
000010
,
001000
000010
000000
010000
,
010000
000000
000000
000010
,
000010
000000
000000
001000
,
001000
000000
000000
001000
,
001000
000000
000000
000010
,
010000
000000
000000
010000
,
001000
000000
000000
000010
,
001000
000000
000000
010010
;

//---------------dance-solo - ----------------
#NOTES:
     dance-solo:
     :
     Challenge:
     13:
     0.665655,0.693027,0.346009,0.000000,0.294107,404.000000,374.000000,30.000000,0.000000,0.000000,0.000000,0.665655,0.693027,0.346009,0.000000,0.294107,404.000000,374.000000,30.000000,0.000000,0.000000,0.000000:
000000
000000
000000
000000
,
000000
000000
000000
000000
,
000000
000000
000000
000000
,
000000
000000
000000
000000
,
000000
000000
000000
000000
000000
000000
000000
000000
000001
000000
000000
000000
010000
000000
000000
000100
,
000000
000000
100000
000000
001000
000000
010000
000000
000000
000000
000100
000000
000000
001000
000000
000000
,
000001
000000
000100
000000
001000
000000
000000
000000
100000
000000
000000
000010
000000
000000
010000
000000
,
000001
000000
000100
000000
000000
000000
001000
000000
000000
010000
000000
000000
000010
000000
001000
000000
,
000001
000000
000000
000000
000100
000000
000000
000010
000000
000000
001000
000000
000100
000000
100000
000000
,
000000
000000
000001
000000
000000
010000
000000
000000
001000
000000
000100
000000
001000
000000
000000
100000
,
000000
000001
000000
010000
000010
000100
000000
000001
,
000000
001000
000000
000000
000010
000000
010000
000000
011000
000000
000000
000000
001001
000000
000000
000000
,
000000
100000
000010
000110
000000
100100
000000
000000
,
100000
000001
010001
000000
100010
000000
000000
001000
,
010000
010010
000000
001100
000000
000000
010000
000010
,
100000
000100
001000
000010
000100
001000
010000
000001
,
100000
000010
000100
001000
010000
000001
000100
000010
,
001000
000001
000100
001000
010000
000010
100000
000100
,
100000
001000
000100
000010
010000
000001
000100
000010
,
100000
001000
010000
000001
100000
000010
000100
000010
,
010000
001000
010000
000001
000100
001000
100000
000010
,
010000
001000
010000
000001
000100
001000
100000
000001
,
000101
000000
101000
000000
000000
100000
000100
001100
,
000000
100001
000000
000000
000001
000100
000110
000000
,
011000
000000
000000
100000
000010
001010
000000
010100
,
000000
000000
000000
000000
100001
100000
000100
001000
,
000010
000000
001000
000000
000001
000000
010000
000000
000001
000100
000000
000000
000010
010000
000000
000000
,
001000
100000
000000
000000
000010
000000
000100
000000
000001
000000
001000
000000
000100
000000
010000
000000
,
000010
000000
100000
000000
000100
001000
000000
000000
000010
010000
000000
000000
000001
100000
000000
000000
,
010010
010000
000001
000100
001000
100000
000010
010000
,
001000
010000
000000
000000
000001
000100
000000
000000
000010
100000
000000
000000
001000
000000
000100
000000
,
001000
000000
010000
000000
000010
000000
100000
000000
000001
000000
010000
000000
000000
000010
001000
000000
,
000000
000100
100000
000000
000000
000001
010000
000000
000001
000000
001000
000000
000100
000000
010000
000000
,
000010
000000
000100
000000
001000
000000
100000
000000
000001
000100
000001
000000
100000
001000
100000
000000
,
000010
010000
000010
000000
001000
000000
000100
000000
100000
000000
000001
000000
000100
000000
001000
000000
,
010000
000000
000010
000000
100000
000001
100000
000000
000010
010000
000010
000000
001000
000100
001000
000000
,
000001
000100
000010
001000
000100
100000
000001
010000
,
000010
000100
000010
000000
010000
001000
010000
000000
000001
100000
000001
000000
000101
000000
000000
000000
,
000000
000000
001100
000000
000000
000000
000000
000000
100000
000000
000001
000000
100000
000100
100000
000000
,
000001
001000
000001
000000
010000
001000
010000
000000
000010
000100
000010
000000
100000
000000
000001
000000
,
000100
000000
001000
000000
010000
000000
000010
000000
001000
000000
000001
000000
100000
001000
100000
000000
,
000100
001000
000100
000000
010000
000010
010000
000000
000001
000010
000001
000000
100000
000000
000001
000000
,
000100
000000
000010
000000
001000
000000
000100
000000
010000
000000
001000
000000
100000
000001
100000
000000
,
000010
000100
000010
000000
001000
000001
001000
000000
010000
000100
010000
000000
000001
000000
100000
000000
,
001000
000000
010000
000000
000100
000000
100000
000000
000010
000000
000100
000000
001000
100000
001000
000000
,
010000
000001
010000
000000
000010
010000
000010
000000
000100
100000
000100
000000
000010
000000
001000
000000
,
000001
000000
100000
000000
001000
000000
010000
000000
000010
000000
000100
000000
000001
100000
000001
000000
,
010000
001000
010000
000000
000100
001000
000100
000000
000010
100000
000010
000000
100010
000000
000000
000000
,
011000
000000
000100
001000
000010
010000
001000
000000
,
101000
000000
010000
000001
000100
000010
100000
000000
,
100001
000000
010000
001000
100000
000010
000100
000001
,
001000
000000
000100
010000
000100
010000
000100
000000
001100
000000
000000
000000
001001
000000
000000
000000
,
010010
000000
000100
100000
000001
010000
000010
000000
,
000110
000000
000100
000001
100000
000010
010000
000000
,
010001
000000
000100
001000
000010
001100
000000
000000
;

//---------------dance-single - ----------------
#NOTES:
     dance-single:
     :
     Challenge:
     13:
     0.665655,0.693027,0.346009,0.000000,0.294107,404.000000,374.000000,30.000000,0.000000,0.000000,0.000000,0.665655,0.693027,0.346009,0.000000,0.294107,404.000000,374.000000,30.000000,0.000000,0.000000,0.000000:
// measure 0
0000
0000
0000
0000
,  // measure 1
0000
0000
0000
0000
,  // measure 2
0000
0000
0000
0000
,  // measure 3
0000
0000
0000
0000
,  // measure 4
0000
0000
0000
0000
0000
0000
0000
0000
0010
0000
0000
0000
0100
0000
0000
0001
,  // measure 5
0000
0000
0010
0000
0100
0000
1000
0000
0000
0000
0010
0000
0000
0100
0000
0000
,  // measure 6
0010
0000
1000
0000
0001
0000
0000
0000
1000
0000
0000
0100
0000
0000
0010
0000
,  // measure 7
0001
0000
1000
0000
0000
0000
0010
0000
0000
1000
0000
0000
0001
0000
0010
0000
,  // measure 8
0100
0000
0000
0000
1000
0000
0000
0001
0000
0000
1000
0000
0010
0000
0100
0000
,  // measure 9
0000
0000
0010
0000
0000
1000
0000
0000
0001
0000
1000
0000
0010
0000
0000
0000
,  // measure 10
1000
0000
0000
0100
0000
0000
1000
0000
0001
0000
0100
0000
0000
0000
0001
0000
,  // measure 11
0000
0010
0000
0000
0100
0000
1000
0000
1010
0000
0000
0000
0101
0000
0000
0000
,  // measure 12
0000
0010
0100
0110
0000
1001
0000
0000
,  // measure 13
1000
0001
0011
0000
1100
0000
0000
1000
,  // measure 14
0010
1010
0000
0011
0000
0000
0001
0100
,  // measure 15
0010
0100
0001
0010
0100
0010
0100
1000
,  // measure 16
0010
1000
0001
1000
0010
1000
0100
0010
,  // measure 17
0001
0100
0001
0010
0100
0010
0100
1000
,  // measure 18
0001
1000
0010
0100
0001
1000
0100
0010
,  // measure 19
0100
1000
0010
0100
0010
1000
0001
1000
,  // measure 20
0001
0010
0001
1000
0010
0100
0010
1000
,  // measure 21
0100
0010
0001
0100
0001
1000
0010
0100
,  // measure 22
0101
0000
1100
0000
0000
1000
0001
1001
,  // measure 23
0000
0110
0000
0000
0010
1000
1100
0000
,  // measure 24
1010
0000
0000
0100
0001
0011
0000
0101
,  // measure 25
0000
0000
0000
0000
1001
0001
1000
0010
,  // measure 26
0100
0000
0010
0000
1000
0000
0100
0000
0010
0001
0000
0000
1000
0010
0000
0000
,  // measure 27
0100
0010
0000
0000
0100
0000
0001
0000
1000
0000
0001
0000
0010
0000
0100
0000
,  // measure 28
1000
0000
0010
0000
0100
0001
0000
0000
0100
0010
0000
0000
1000
0100
0000
0000
,  // measure 29
1000
0001
0010
0001
1000
0010
0100
0001
,  // measure 30
1000
0100
0000
0000
1000
0001
0000
0000
1000
0010
0000
0000
0100
0000
0010
0000
,  // measure 31
1000
0000
0100
0000
1000
0000
0010
0000
0100
0000
0001
0000
0000
1000
0001
0000
,  // measure 32
0000
0010
0001
0000
0000
0100
0001
0000
0110
0000
1000
0000
0010
0000
0100
0000
,  // measure 33
0001
0000
0010
0000
0100
0000
0010
0000
0001
0100
0001
0000
1000
0100
1000
0000
,  // measure 34
0010
0100
0010
0000
1000
0000
0001
0000
0010
0000
0001
0000
0100
0000
0010
0000
,  // measure 35
1000
0000
0100
0000
1000
0010
1000
0000
0001
1000
0001
0000
1000
0100
1000
0000
,  // measure 36
0010
1000
0100
1000
0001
0010
0100
0010
,  // measure 37
0001
1000
0001
0000
0100
0010
0100
0000
0010
1000
0010
0000
1010
0000
0000
0000
,  // measure 38
0000
0000
0101
0000
0000
0000
0000
0000
1000
0000
0001
0000
0100
0010
0100
0000
,  // measure 39
0010
0100
0010
0000
1000
0001
1000
0000
0001
1000
0001
0000
0010
0000
0100
0000
,  // measure 40
0010
0000
0001
0000
0100
0000
0010
0000
1000
0000
0001
0000
1000
0100
1000
0000
,  // measure 41
0001
0100
0001
0000
1000
0010
1000
0000
0001
0010
0001
0000
0100
0000
0001
0000
,  // measure 42
0010
0000
0100
0000
0010
0000
0001
0000
1000
0000
0010
0000
0100
0001
0100
0000
,  // measure 43
0010
1000
0010
0000
1000
0100
1000
0000
0001
0010
0001
0000
1000
0000
0001
0000
,  // measure 44
0010
0000
0100
0000
1000
0000
0010
0000
1000
0000
0001
0000
0100
0010
0100
0000
,  // measure 45
0001
0010
0001
0000
1000
0100
1000
0000
0001
1000
0001
0000
0010
0000
0100
0000
,  // measure 46
0010
0000
0100
0000
1000
0000
0010
0000
0100
0000
0001
0000
1000
0010
1000
0000
,  // measure 47
0010
0100
0010
0000
0100
0001
0100
0000
0001
1000
0001
0000
0011
0000
0000
0000
,  // measure 48
1100
0000
1000
0010
0100
0001
0010
0000
,  // measure 49
0101
0000
1000
0001
0010
0100
1000
0000
,  // measure 50
0110
0000
0001
1000
0100
0010
0001
0100
,  // measure 51
0010
0000
1000
0001
1000
0001
1000
0000
1100
0000
0000
0000
1001
0000
0000
0000
,  // measure 52
0101
0000
0010
0100
0001
1000
0100
0000
,  // measure 53
1010
0000
0001
1000
0010
1000
0100
0000
,  // measure 54
0011
0000
1000
0001
0100
1001
0000
0000
;
