#VERSION:0.83;
#TITLE:Hideaway;
#SUBTITLE:;
#ARTIST:Kiesza;
#TITLETRANSLIT:;
#SUBTITLETRANSLIT:;
#ARTISTTRANSLIT:;
#GENRE:;
#ORIGIN:;
#CREDIT:;
#BANNER:Hideaway-bn.png;
#BACKGROUND:Hideaway-bg.png;
#PREVIEWVID:;
#JACKET:Hideaway-jacket.png;
#CDIMAGE:;
#DISCIMAGE:;
#LYRICSPATH:;
#CDTITLE:;
#MUSIC:Hideaway.ogg;
#OFFSET:0.000000;
#SAMPLESTART:46.829269;
#SAMPLELENGTH:20.000000;
#SELECTABLE:YES;
#DISPLAYBPM:123.000000;
#BPMS:0.000=123.000;
#STOPS:;
#DELAYS:;
#WARPS:;
#TIMESIGNATURES:0.000=4=4;
#TICKCOUNTS:0.000=4;
#COMBOS:0.000=1;
#SPEEDS:0.000=1.000=0.000=0;
#SCROLLS:0.000=1.000;
#FAKES:;
#LABELS:0.000=Song Start;
#BGCHANGES:;
#KEYSOUNDS:;
#ATTACKS:
;

//---------------dance-single - ----------------
#NOTEDATA:;
#CHARTNAME:;
#STEPSTYPE:dance-single;
#DESCRIPTION:;
#CHARTSTYLE:;
#DIFFICULTY:Hard;
#METER:13;
#RADARVALUES:0.544673,0.644054,0.406890,0.271260,0.406890,506.000000,452.000000,54.000000,36.000000,0.000000,0.000000,0.000000,0.000000,0.000000,0.544673,0.644054,0.406890,0.271260,0.406890,506.000000,452.000000,54.000000,36.000000,0.000000,0.000000,0.000000,0.000000,0.000000;
#CREDIT:;
#NOTES:
0000
0000
0000
0000
,
0000
0000
0000
0000
,
0000
0000
0000
0000
,
0000
0000
0000
0000
0000
0000
0000
0000
0000
0000
0000
0000
0001
0010
0001
0020
,
0000
0000
0100
0000
0130
0000
1000
0002
0000
0000
1000
0000
1003
0000
0010
0200
,
0000
0000
0000
0000
0000
0000
0000
0000
0000
0000
0310
0000
1000
0100
1000
0200
,
0000
0000
0010
0000
0310
0000
0001
2000
0000
0000
0100
0000
3100
0000
1000
0002
,
0000
0000
0000
0003
,
1000
0000
0001
0000
0001
0000
0010
0000
0200
0000
0000
2300
0000
0000
3002
0000
,
0000
0000
0010
0000
0013
0000
0001
0000
2000
0000
0000
3010
0000
0000
0000
0000
,
0100
0000
1000
0000
1000
0000
0010
0000
0200
0000
0000
0302
0000
0000
0023
0000
,
0000
0000
0100
0000
0130
0000
0010
0000
0001
0000
1000
0000
0001
0100
0001
0200
,
0000
0000
0010
0000
0310
0000
1000
0200
0000
0000
1000
0000
1300
0000
0001
0020
,
0000
0000
0000
0000
0000
0000
0000
0000
0000
0000
0031
0000
1000
0010
1000
0020
,
0000
0000
0100
0000
0130
0000
0001
2000
0000
0000
0010
0000
3010
0000
0100
0002
,
0000
0000
0000
0000
0000
0000
0000
0013
,
0001
0000
0100
0000
0100
0000
0010
0000
1010
0000
0000
1001
0000
0000
0101
0000
,
0000
0000
0001
0000
0001
0000
1000
0000
0010
0000
0000
1000
0100
0000
0000
0000
,
1000
0000
0010
0000
0010
0000
1000
0000
1100
0000
0000
0110
0000
0000
0011
0000
,
0000
0000
1000
0000
1000
0000
0010
0000
0100
0000
0000
0001
0010
0000
0000
0000
,
1001
0100
0010
1000
1100
0001
0100
0120
,
0000
2030
0000
3001
0100
0100
0101
0000
,
1010
0100
1000
0001
0011
0010
0100
2100
,
0000
0001
3001
1000
0010
0010
0110
0000
,
1001
0000
0000
0000
0010
0000
1000
0100
0000
0000
1000
0000
0000
0001
0000
0000
,
0010
0000
0010
0000
0010
0001
0000
1000
0000
0000
0100
0000
0000
0100
0000
0000
,
0110
0000
0000
0000
0001
0000
0100
0010
0000
0000
1000
0000
0000
0001
0000
0000
,
1000
0000
1000
0000
1000
0001
0000
0100
0000
0000
0010
0000
0000
0010
0000
0000
,
0100
0000
0100
0000
0001
1000
0000
0000
0010
0000
0010
0000
1000
0001
0000
0000
,
1000
0000
1000
0000
0010
0100
0000
0000
0001
0000
0001
0000
0010
0100
0000
0000
,
1000
0000
1000
0000
0001
0100
0001
0000
0010
0000
0010
0000
0100
1000
0100
0000
,
1000
0010
1000
0010
1000
0010
1000
0010
1000
0010
1000
0010
1000
0000
0001
0000
,
1001
0000
0000
0000
0010
0000
1000
0100
0000
0100
0010
0000
0001
1000
0000
0000
,
0010
0000
0010
0000
0010
1000
0000
1000
0100
0000
1000
0001
0000
0001
0100
0000
,
0110
0000
0000
0000
0010
0000
1000
0001
0000
0001
0010
0000
0100
1000
0000
0000
,
0001
0000
0001
0000
0001
0010
0000
0010
0100
0000
1000
0100
0000
1000
0010
0000
,
1010
0000
0000
0000
0001
0000
1000
0010
0000
1000
0001
0000
0010
0100
0000
0000
,
1000
0000
1000
0000
1000
0001
0000
0001
0100
0000
0010
0100
0000
0001
0010
0000
,
0011
0000
0000
0000
1000
0000
0001
1000
0000
0010
0100
0000
0001
0010
0000
0000
,
0100
0000
0100
0000
0100
1000
0000
0001
1000
0000
0010
0000
1000
0001
1000
0002
,
0000
0000
1000
0000
1003
0000
0010
0200
0000
0000
0010
0000
0310
0000
0100
0001
,
1000
0000
1000
0000
0010
0100
0000
0100
0001
0000
0001
0000
0010
0100
0010
0200
,
0000
0000
1000
0000
1300
0000
0010
0200
0000
0000
0001
0000
0301
0000
0100
0010
,
1000
0000
1000
0000
0001
0010
0000
0010
0100
0000
1100
0000
1100
0000
0001
0000
,
1000
0000
0010
0000
0100
0000
0001
0000
0011
0000
0000
0101
0000
0000
1001
0000
,
0000
0000
0100
0000
0010
0000
1000
0000
0001
0010
0000
0001
0100
0000
0000
0000
,
0010
0000
1000
0000
0001
0000
0100
0000
0110
0000
0000
1010
0000
0000
1100
0000
,
0000
0000
1000
0000
0010
0000
1000
0000
0100
0000
0010
0000
0001
1000
0001
2000
,
0000
0000
0100
0000
3100
0000
1000
0020
0000
0000
1000
0000
1030
0000
0001
0100
,
0010
0000
1010
0000
0000
0101
0000
0000
1100
0000
0001
0000
1000
0100
1000
0200
,
0000
0000
0010
0000
0310
0000
0100
0000
1000
0000
0001
0000
0010
0000
0001
1000
,
0100
0000
0110
0000
0000
0011
0000
0000
1001
0000
0101
0000
0101
0000
1000
0000
,
0001
0000
0010
0000
0100
0000
1000
0000
1010
0000
0000
1100
0000
0000
0011
0000
,
0000
0000
0001
0000
1000
0000
0010
0000
1000
0100
0000
0010
0001
0000
0000
0000
,
0100
0000
0001
0000
1000
0000
0010
0000
0110
0000
0000
1010
0000
0000
1002
0000
,
0000
0100
0100
0103
0001
1000
0010
0000
,
1010
1000
0100
0010
0011
0001
0100
0210
,
0000
0302
0000
1003
0010
0010
0110
0000
,
0101
0001
0100
0010
1010
1000
0100
1200
,
0000
1000
1300
0001
0100
0100
1001
0000
,
0011
0000
0000
0000
0001
0100
0001
0000
1000
0100
1000
0000
0010
0100
0010
0000
,
1000
0000
1000
0000
1000
0001
0000
0010
0000
0000
0001
0000
0000
0100
0000
0000
,
0110
0000
0000
0000
0010
1000
0010
0000
1000
0100
1000
0000
0001
0000
0201
0000
,
0000
0001
0301
1000
0100
0100
2100
0000
,
0002
0000
0000
0000
,
0000
0000
0000
3003
;

//---------------dance-single - ----------------
#NOTEDATA:;
#CHARTNAME:;
#STEPSTYPE:dance-single;
#DESCRIPTION:;
#CHARTSTYLE:;
#DIFFICULTY:Medium;
#METER:10;
#RADARVALUES:0.388591,0.421112,0.195910,0.165770,0.052745,361.000000,335.000000,26.000000,22.000000,0.000000,0.000000,0.000000,0.000000,0.000000,0.388591,0.421112,0.195910,0.165770,0.052745,361.000000,335.000000,26.000000,22.000000,0.000000,0.000000,0.000000,0.000000,0.000000;
#CREDIT:;
#DISPLAYBPM:123.000000;
#NOTES:
0000
0000
0000
0000
,
0000
0000
0000
0000
,
0000
0000
0000
0000
,
0000
0000
0000
0000
0000
0000
0001
0010
,
0100
0000
1000
0001
0100
0000
0010
1000
,
0100
0000
0000
0000
0000
0000
1000
0001
,
0010
0000
0001
0100
0010
0000
1000
0100
,
0010
0000
0000
0000
,
0001
0100
0200
0000
1000
0000
0301
0000
,
1000
0010
0010
0000
0110
0000
0000
0000
,
0001
1000
2000
0000
0010
0000
3100
0000
,
0010
0001
0001
0000
1001
0000
1000
0001
,
0100
0000
0010
0100
0001
0000
0010
0001
,
1000
0000
0000
0000
0000
0000
1000
0100
,
0010
0000
0001
1000
0010
0000
0100
0001
,
1000
0000
0000
0000
,
1000
0001
0002
0000
0010
0000
0103
0000
,
1000
0100
0100
0000
1001
0000
0001
0000
,
0100
0010
0020
0000
0001
0000
1030
0000
,
0010
1000
1000
0000
0110
0000
0100
0000
,
1000
0001
0000
0100
0001
1000
0000
1100
,
0000
0011
0000
0001
0100
0010
0100
0000
,
0010
1000
0000
0100
0010
0001
0000
1000
,
0000
0001
1000
0000
0010
0100
0010
0000
,
1001
0010
1000
0100
,
0001
0001
0001
0000
0010
0100
1000
0000
,
0110
0001
0010
1000
,
0100
0100
0100
0000
1000
0001
0010
0000
,
0001
0100
0001
0000
1000
0100
1000
0000
,
0001
0010
0001
0000
1000
0010
1000
0000
,
0010
0100
0010
0000
1000
0001
1000
0000
,
0010
0100
0001
1000
0001
0010
0100
1000
,
1001
0000
0000
0000
0010
0000
0000
0100
0000
0000
0001
0000
0000
1000
0000
0000
,
0010
1000
0010
0100
0001
0010
0100
0000
,
0110
0000
0000
0000
0001
0000
0000
0100
0000
0000
0010
0000
0000
1000
0000
0000
,
0100
1000
0010
0100
0001
1000
0010
0000
,
0101
0000
0000
0000
0100
0000
0000
0010
0000
0000
1000
0000
0000
0001
0000
0000
,
0010
0001
1000
0001
1000
0010
0100
0000
,
1010
0000
0000
0000
1000
0000
0000
0100
0000
0000
0010
0000
0000
0001
0000
0000
,
0100
0001
0010
0100
1000
0010
1000
0000
,
0001
0010
0100
1000
0010
0100
0001
1000
,
0100
0000
1100
0000
0001
1000
0010
0000
,
1000
0010
0100
0001
0010
0100
1000
0001
,
0100
0000
0101
0000
0010
1000
0001
0000
,
0010
0000
0001
0000
0100
0000
0000
0000
0020
0000
0000
2030
0000
0000
3002
0000
,
0000
0000
0013
0000
0001
0000
1000
0000
0200
0000
0000
1300
0000
0000
0000
0000
,
0010
0000
0100
0000
0010
0000
1000
0000
0002
0000
0000
2003
0000
0000
3200
0000
,
0000
1300
0010
0100
0020
1000
1030
0000
,
0001
1000
0010
1000
0100
0010
0001
0100
,
0001
0000
0011
0000
1000
0100
0010
0000
,
0001
1000
0010
0100
0001
0010
0100
1000
,
0010
0000
1010
0000
0100
0001
1000
0000
,
0001
0000
1000
0000
0100
0000
1000
0000
0020
0000
0000
0230
0000
0000
0302
0000
,
0000
0000
1003
0000
0001
0000
0010
0000
0002
0000
0000
1003
0000
0000
0000
0000
,
0010
0000
1000
0000
0001
0000
1000
0000
0200
0000
0000
2300
0000
0000
3020
0000
,
0000
1000
1030
0001
2000
0000
3100
0000
,
1000
0010
0000
0100
0001
1000
0000
1100
,
0000
0011
0000
0100
0001
1000
0001
0000
,
0010
0100
0000
1000
0010
0100
0000
0001
,
0000
1000
0001
0000
1000
0100
0010
0000
,
0011
0101
1100
1010
,
1000
0001
0010
0001
1000
0100
0010
0000
,
0011
0101
1100
1010
,
1000
0010
0100
0001
0010
0100
2000
0000
,
0002
0000
0000
0000
,
0000
0000
0000
3003
;

//---------------dance-single - ----------------
#NOTEDATA:;
#CHARTNAME:;
#STEPSTYPE:dance-single;
#DESCRIPTION:;
#CHARTSTYLE:;
#DIFFICULTY:Easy;
#METER:6;
#RADARVALUES:0.231432,0.297256,0.135630,0.060280,0.000000,215.000000,197.000000,18.000000,8.000000,0.000000,0.000000,0.000000,0.000000,0.000000,0.231432,0.297256,0.135630,0.060280,0.000000,215.000000,197.000000,18.000000,8.000000,0.000000,0.000000,0.000000,0.000000,0.000000;
#CREDIT:;
#DISPLAYBPM:123.000000;
#NOTES:
0000
0000
0000
0000
,
0000
0000
0000
0000
,
0000
0000
0000
0000
,
0000
0000
0000
0000
,
0001
0010
0001
1000
,
0100
0000
0000
0000
,
1000
0010
1000
0001
,
0100
0000
0000
0000
,
0010
0100
0001
0000
,
0010
0100
1000
0000
,
0001
1000
0010
0000
,
1000
0001
0100
0000
,
0010
0100
0001
1000
,
0010
0000
0000
0000
,
0100
0001
0010
0100
,
1000
0000
0000
0000
,
0001
0010
0100
0000
,
1000
0001
0100
0000
,
0010
1000
0001
0000
,
0010
0100
1000
0000
,
1001
0000
0110
0000
,
1000
0001
0010
0100
,
0110
0000
1001
0000
,
0010
1000
0100
0010
,
1001
0001
1000
0000
,
0010
0010
0010
0000
,
0110
0010
0100
0000
,
0001
0001
0001
0000
,
1000
1000
0001
0001
,
0100
0100
0010
0010
,
1000
0100
0010
0001
,
0100
0100
0100
0100
,
1001
0010
1000
0001
,
0110
0100
0010
1000
,
0110
0010
1000
0001
,
1001
0010
0001
0100
,
1001
0001
1000
0100
,
0110
0010
0100
1000
,
0110
0001
1000
0010
,
1001
0100
0010
1000
,
0001
1000
0010
1000
,
0001
0000
0100
0000
,
0010
1000
0100
0010
,
0001
0000
1000
0000
,
0010
1000
0100
0100
,
0010
0001
1000
0000
,
0001
1000
0010
0010
,
0100
0001
1000
0000
,
0100
1000
0010
0100
,
0001
0000
1000
0000
,
0010
0100
0010
1000
,
0001
0000
0100
0000
,
0001
1000
0100
0010
,
0100
1000
0010
0000
,
0100
0001
0010
0010
,
0001
0100
1000
1000
,
1001
0000
0110
0000
,
1000
0001
0010
0100
,
0110
0000
1001
0000
,
0010
1000
0100
0010
,
0001
2000
3020
0230
,
0301
0001
0001
0000
,
0010
0002
0203
0320
,
0130
0010
0001
2000
,
0002
0000
0000
0000
,
0000
0000
0000
3003
;

//---------------dance-single - ----------------
#NOTEDATA:;
#CHARTNAME:;
#STEPSTYPE:dance-single;
#DESCRIPTION:;
#CHARTSTYLE:;
#DIFFICULTY:Beginner;
#METER:2;
#RADARVALUES:0.105490,0.148628,0.075350,0.007535,0.000000,98.000000,88.000000,10.000000,1.000000,0.000000,0.000000,0.000000,0.000000,0.000000,0.105490,0.148628,0.075350,0.007535,0.000000,98.000000,88.000000,10.000000,1.000000,0.000000,0.000000,0.000000,0.000000,0.000000;
#CREDIT:;
#DISPLAYBPM:123.000000;
#NOTES:
// measure 0
0000
0000
0000
0000
,  // measure 1
0000
0000
0000
0000
,  // measure 2
0000
0000
0000
0000
,  // measure 3
0000
0000
0000
0000
,  // measure 4
0001
0000
0001
0000
,  // measure 5
0001
0000
0000
0000
,  // measure 6
1000
0000
1000
0000
,  // measure 7
1000
0000
0000
0000
,  // measure 8
0010
0000
0000
0000
,  // measure 9
0100
0000
0000
0000
,  // measure 10
0001
0000
0000
0000
,  // measure 11
1000
0000
0000
0000
,  // measure 12
0010
0000
0010
0000
,  // measure 13
0010
0000
0000
0000
,  // measure 14
0100
0000
0100
0000
,  // measure 15
0100
0000
0000
0000
,  // measure 16
0001
0000
0000
0000
,  // measure 17
0010
0000
0000
0000
,  // measure 18
0100
0000
0000
0000
,  // measure 19
1000
0000
0000
0000
,  // measure 20
0001
0000
0100
0000
,  // measure 21
0001
0000
0000
0000
,  // measure 22
1000
0000
0010
0000
,  // measure 23
1000
0000
0000
0000
,  // measure 24
1001
0000
0000
0000
,  // measure 25
0000
0000
0000
0000
,  // measure 26
0110
0000
0000
0000
,  // measure 27
0000
0000
0000
0000
,  // measure 28
0001
0000
0100
0000
,  // measure 29
0010
0000
1000
0000
,  // measure 30
0001
0000
0010
0000
,  // measure 31
0100
0000
1000
0000
,  // measure 32
1001
0000
0000
0000
,  // measure 33
0110
0000
0000
0000
,  // measure 34
0110
0000
0000
0000
,  // measure 35
1001
0000
0000
0000
,  // measure 36
1001
0000
0000
0000
,  // measure 37
0110
0000
0000
0000
,  // measure 38
0110
0000
0000
0000
,  // measure 39
1001
0000
0000
0000
,  // measure 40
1000
0000
0010
0000
,  // measure 41
0100
0000
0000
0000
,  // measure 42
0001
0000
1000
0000
,  // measure 43
0010
0000
0000
0000
,  // measure 44
1000
0000
0100
0000
,  // measure 45
1000
0000
0100
0000
,  // measure 46
0010
0000
0001
0000
,  // measure 47
0010
0000
0001
0000
,  // measure 48
0100
0000
0001
0000
,  // measure 49
1000
0000
0000
0000
,  // measure 50
0100
0000
0010
0000
,  // measure 51
0001
0000
0000
0000
,  // measure 52
0100
0000
0010
0000
,  // measure 53
0100
0000
0010
0000
,  // measure 54
1000
0000
0001
0000
,  // measure 55
1000
0000
0001
0000
,  // measure 56
0010
0000
0001
0000
,  // measure 57
0010
0000
0000
0000
,  // measure 58
0100
0000
1000
0000
,  // measure 59
0100
0000
0000
0000
,  // measure 60
1000
1000
1000
0000
,  // measure 61
0010
0000
0000
0000
,  // measure 62
0100
0100
0100
0000
,  // measure 63
0001
0000
1000
0000
,  // measure 64
0002
0000
0000
0000
,  // measure 65
0000
0000
0000
0003
;
