#TITLE:Heatwave;
#SUBTITLE:(Radio Edit);
#ARTIST:TNT & Zany;
#TITLETRANSLIT:;
#SUBTITLETRANSLIT:;
#ARTISTTRANSLIT:;
#GENRE:;
#CREDIT:;
#BANNER:Heatwave (Radio Edit)-bn.png;
#BACKGROUND:Heatwave (Radio Edit)-bg.png;
#LYRICSPATH:;
#CDTITLE:;
#MUSIC:Heatwave (Radio Edit).ogg;
#OFFSET:-0.655000;
#SAMPLESTART:77.419998;
#SAMPLELENGTH:20.000000;
#SELECTABLE:YES;
#DISPLAYBPM:150.000000;
#BPMS:0.000000=150.000000
;
#STOPS:
;
#BGCHANGES:;
#KEYSOUNDS:;
#ATTACKS:;

//---------------dance-single - ----------------
#NOTES:
     dance-single:
     :
     Beginner:
     3:
     0.146029,0.237032,0.044443,0.125923,0.000000,138.000000,132.000000,6.000000,17.000000,0.000000,0.000000,0.146029,0.237032,0.044443,0.125923,0.000000,138.000000,132.000000,6.000000,17.000000,0.000000,0.000000:
0000
0000
0000
0000
,
0000
0000
0000
0000
,
0000
0000
0000
0000
,
0000
0000
0000
0000
,
0100
0000
0000
0000
,
0100
0000
0000
0000
,
0100
0000
0000
0000
,
0200
0000
0300
0000
,
1000
0000
1000
0000
,
1000
0000
1000
0000
,
0001
0000
0001
0000
,
0001
0000
0001
0000
,
1000
0000
1000
0000
,
1000
0000
1000
0000
,
0001
0000
0001
0000
,
0002
0000
0003
0000
,
0100
0000
0100
0000
,
0100
0000
0100
0000
,
0010
0000
0010
0000
,
0010
0000
0010
0000
,
0100
0000
0100
0000
,
0100
0000
0100
0000
,
0010
0000
0010
0000
,
0020
0000
0030
0000
,
2002
0000
0000
0000
,
0000
0000
0000
0000
,
3003
0000
0000
0000
,
0000
0000
0000
0000
,
2002
0000
0000
0000
,
0000
0000
0000
0000
,
3003
0000
0000
0000
,
0000
0000
0000
0000
,
0100
0000
0100
0000
,
0200
0000
0300
0000
,
0001
0000
0001
0000
,
0002
0000
0003
0000
,
1000
0000
1000
0000
,
2000
0000
3000
0000
,
0010
0000
0010
0000
,
0020
0000
0030
0000
,
1000
0000
1000
0000
,
0001
0000
0001
0000
,
1000
0000
1000
0000
,
0001
0000
0001
0000
,
0010
0000
0010
0000
,
0100
0000
0100
0000
,
0010
0000
0010
0000
,
0220
0000
0330
0000
,
1000
1000
1000
0000
,
0001
0000
1000
0000
,
0001
0001
0001
0000
,
0100
0000
0001
0000
,
0100
0100
0100
0000
,
0010
0000
0100
0000
,
0010
0010
0010
0000
,
1000
0000
1001
0000
,
0001
0001
0001
0000
,
1000
0000
0010
0000
,
1000
1000
1000
0000
,
0100
0000
1000
0000
,
0100
0100
0100
0000
,
0010
0000
0001
0000
,
0010
0010
0010
0000
,
0100
0000
0110
0000
,
2000
0000
0000
0000
,
3000
0000
0000
0000
,
0002
0000
0000
0000
,
0003
0000
0000
0000
,
0200
0000
0000
0000
,
0300
0000
0000
0000
,
0020
0000
0000
0000
,
0030
0000
0000
0000
,
0100
0100
0100
0000
,
0100
0100
0100
0000
,
1000
1000
1000
0000
,
1000
1000
1000
0000
,
0010
0010
0010
0000
,
0010
0010
0010
0000
,
0001
0001
0001
0000
,
0001
0001
0001
0000
,
1001
0000
0000
0000
;

//---------------dance-single - ----------------
#NOTES:
     dance-single:
     :
     Easy:
     4:
     0.211636,0.273327,0.022222,0.118516,0.000000,200.000000,197.000000,3.000000,16.000000,0.000000,0.000000,0.211636,0.273327,0.022222,0.118516,0.000000,200.000000,197.000000,3.000000,16.000000,0.000000,0.000000:
0000
0000
0000
0000
,
0000
0000
0000
0000
,
0000
0000
0000
0000
,
0000
0000
0000
0000
,
0010
1000
0100
0000
,
0010
0001
0100
0000
,
0001
1000
0010
0100
,
0002
0003
2000
3000
,
0010
0100
0001
0000
,
1000
0100
1000
0000
,
1000
0001
0100
0000
,
0001
0010
0001
0000
,
0100
0010
1000
0000
,
0100
0001
0100
0000
,
0010
0001
1000
0000
,
0010
1000
0010
0000
,
1000
0100
0001
0000
,
1000
0001
1000
0000
,
0010
0100
1000
0000
,
0001
1000
0001
0000
,
0100
0001
0010
0000
,
0010
0100
0010
0000
,
0010
0001
1000
0000
,
0100
0010
0100
0000
,
2002
0000
0000
0000
,
0000
0000
0000
0000
,
0000
0000
0000
0000
,
0000
0000
0000
3003
,
0200
0000
0000
0000
,
0000
0000
0000
0300
,
0020
0000
0000
0000
,
0000
0000
0000
0030
,
1000
0000
1000
0000
,
1000
0000
1000
0000
,
0001
0000
0001
0000
,
0001
0000
0001
0000
,
0100
0000
0100
0000
,
0100
0000
0100
0000
,
0010
0000
0010
0000
,
0010
0000
0010
0000
,
1000
1000
1000
0000
,
0100
0100
0100
0000
,
0010
0010
0010
0000
,
0001
0001
0001
0000
,
0010
0010
0100
0100
,
1000
0001
1000
0001
,
1000
0100
0010
0001
,
0200
0300
0020
0030
,
1000
0100
1000
0000
,
0010
0010
0010
0000
,
0001
0010
0001
0000
,
0100
0100
0100
0000
,
1000
0001
1000
0000
,
0010
0010
0010
0000
,
0100
1000
0100
0000
,
0001
0001
0001
0000
,
0100
0010
1000
0000
,
1000
0010
0100
0000
,
0001
0010
0100
0000
,
0100
0010
0001
0000
,
1000
0100
0010
0000
,
0010
0100
1000
0000
,
0010
1000
0100
0000
,
0100
1000
0010
0000
,
2000
0000
3000
0000
,
0020
0000
0030
0000
,
0200
0000
0300
0000
,
0002
0000
0003
0000
,
0010
0001
1000
0000
,
0100
1000
0001
0000
,
1000
1000
0001
0001
,
2002
0000
0000
3003
,
0010
0100
1000
0100
,
0001
0001
0001
0000
,
1000
0010
0001
0010
,
0100
0100
0100
0000
,
0001
0001
1000
1000
,
0010
0100
0010
0000
,
1000
0100
1000
0001
,
0010
0010
0010
0000
,
2002
0000
0000
0000
,
0000
0000
0000
0000
,
3003
0000
0000
0000
;

//---------------dance-single - ----------------
#NOTES:
     dance-single:
     :
     Medium:
     8:
     0.321686,0.414806,0.185181,0.155552,0.133330,304.000000,279.000000,25.000000,21.000000,0.000000,0.000000,0.321686,0.414806,0.185181,0.155552,0.133330,304.000000,279.000000,25.000000,21.000000,0.000000,0.000000:
0000
0000
0000
0000
,
0000
0000
0000
0000
,
0000
0000
0000
0000
,
0000
0000
0000
0000
,
0001
0001
1000
1000
,
0010
0010
0100
0100
,
0010
1000
0001
0100
,
0001
0000
0001
0000
0001
0000
1000
0000
0001
0000
0100
0000
,
0110
0010
1000
0100
,
0010
0000
0010
0001
0000
0001
0100
0000
0000
0010
0000
0000
,
1000
0001
0100
0001
,
1000
0000
1000
0010
0000
0010
0100
0000
0000
0110
0000
0000
,
1000
0001
0100
0010
,
1000
0000
1000
0100
0000
0100
1000
0000
0000
0001
0000
0000
,
0100
0010
1000
0010
,
1000
0000
1000
0000
1000
0000
0100
0000
0010
0000
0001
0000
,
1000
0001
0100
0110
,
0010
0000
1000
0010
0000
0100
0010
0000
0000
1010
0000
0000
,
1000
0001
0010
0011
,
0100
0000
0010
1000
0000
0010
0100
0000
0001
0000
1000
0000
,
0001
1000
0100
0110
,
0001
0000
1000
0001
0000
0100
0001
0000
0000
1001
0000
0000
,
0010
0100
0010
1010
,
0100
0000
0100
0000
0100
0000
0001
0000
0010
0000
0100
0000
,
2002
0000
0000
0000
0000
0000
0000
0000
0000
0000
0000
0000
0000
0000
0000
0000
0000
0000
0000
0000
0000
0000
0000
3003
,
0000
0000
0000
0000
,
0220
0000
0000
0000
,
0330
0000
0000
0000
,
2200
0000
0000
0000
,
3300
0000
0000
0000
,
0202
0000
0000
0000
,
0303
0000
0000
0000
,
1000
0100
2000
0000
,
3010
0000
0010
0000
,
0100
0010
0200
0000
,
0301
0000
0001
0000
,
1000
0001
2000
0000
,
3100
0000
0100
0000
,
0010
0001
0020
0000
,
0130
0000
0100
0000
,
2001
0100
0100
0100
,
0001
0001
0010
0010
,
3200
1000
1000
1000
,
0010
0010
0001
0001
,
0310
1000
0100
0010
,
0001
0100
0010
1000
,
0100
0000
0100
1000
0000
1000
0001
0000
0001
0010
0000
0010
,
0002
0000
0003
1001
,
0001
1000
0001
0100
,
0010
1000
0001
0101
,
0100
0010
1000
0001
,
1000
0000
0000
0100
0000
0000
0010
0000
0000
0011
0000
0001
,
1000
0100
0010
0100
,
1000
0001
0100
0101
,
0001
1000
0100
1000
,
0010
0000
0000
1000
0000
0000
0100
0000
0100
0010
0000
0010
,
0100
1000
0001
1000
,
0010
0100
0010
1010
,
1000
0001
0100
0010
,
0100
0001
1001
1001
,
1000
0010
0100
0001
,
0010
0100
1000
1100
,
0001
1000
0010
0100
,
0001
0001
0001
1001
,
2000
0000
0001
0000
,
3002
0000
0010
0000
,
0023
0000
0100
0000
,
0230
0000
1000
0000
,
1300
0001
0100
0000
,
0010
1000
0100
0000
,
1000
0010
0100
0001
,
0220
0000
0000
0330
,
1000
1000
0001
0001
,
0100
0000
0000
0010
0000
0000
1000
0000
0000
0010
0000
0010
,
0100
0100
0001
0001
,
1000
0000
0000
0001
0000
0000
0100
0000
0000
0001
0000
0001
,
0010
0010
0100
0100
,
0010
0000
0000
0100
0000
0000
1000
0000
0000
0100
0000
0100
,
1000
1000
0001
0001
,
0010
0100
1000
1001
,
0110
0000
0000
0000
;

//---------------dance-single - ----------------
#NOTES:
     dance-single:
     :
     Hard:
     9:
     0.349199,0.455545,0.311104,0.311104,0.162959,330.000000,288.000000,42.000000,42.000000,0.000000,0.000000,0.349199,0.455545,0.311104,0.311104,0.162959,330.000000,288.000000,42.000000,42.000000,0.000000,0.000000:
0000
0000
0000
0000
,
0000
0000
0000
0000
,
0000
0000
0000
0000
,
0000
0000
0000
0000
,
0100
0100
0010
0010
,
1000
1000
0001
0001
,
1000
0001
0100
0010
,
2000
3200
0320
0032
,
1003
0001
1001
0000
,
0100
0000
0100
0001
0000
0001
1000
0000
0000
0000
0000
0000
,
0010
0100
0110
0000
,
0001
0000
0001
0010
0000
0010
0100
0000
0000
1100
0000
0000
,
0001
0100
0101
0000
,
1000
0000
1000
0010
0000
0010
0100
0000
0000
0000
0000
0000
,
0010
1000
1010
0000
,
1000
0000
0100
0000
0010
0000
0001
0000
0000
0011
0000
0000
,
0110
1010
0102
1003
,
0010
0000
0010
0100
0000
0100
0002
0000
0000
0013
0000
0000
,
0011
1100
2001
3010
,
0010
0000
0010
0001
0000
0001
2000
0000
0000
3100
0000
0000
,
1010
1001
0201
0310
,
0001
0000
0001
1000
0000
1000
0200
0000
0000
0310
0000
0000
,
1100
0110
0021
0031
,
0100
0000
0001
0000
1000
0000
0020
0000
0000
0130
0000
0000
,
2002
0000
0000
0000
,
0000
0000
0000
0003
,
0020
0000
0000
0000
,
0000
0000
0000
3000
,
0200
0000
0000
0000
,
0000
0000
0000
0030
,
0002
0000
0000
0000
,
0000
0000
0000
0303
,
1000
0000
1000
0000
,
0001
0010
0001
0000
,
0100
0000
0100
0000
,
0010
1000
0010
0000
,
0001
0000
0001
0000
,
0100
0010
0100
0000
,
0100
0000
0100
0000
,
1000
0001
1000
0000
,
0200
0001
0001
0001
,
2300
0100
3200
0010
,
0320
0001
0001
0001
,
2030
0010
3020
0130
,
0001
0000
0100
0001
0000
0000
1000
0000
0100
1000
0000
0000
,
0001
0000
0010
0001
0000
0000
1000
0000
0010
1000
0000
0000
,
0100
0000
0100
0010
0000
0010
1000
0000
1000
0001
0000
0001
,
1000
0010
0002
0003
,
0101
0010
1000
0001
,
1000
0000
0000
0100
0000
0000
0010
0000
0000
0001
0000
1000
,
0001
0001
1000
1000
,
0010
0010
0100
0100
,
1010
1000
0010
0001
,
1000
0000
0000
0001
0000
0000
0100
0000
0000
0010
0000
0100
,
0010
0010
0100
0100
,
0001
1000
1100
0011
,
0110
0010
0100
0010
,
0001
0000
0000
0001
0000
0000
1000
0000
0000
1000
0000
0100
,
1000
0010
0100
0001
,
0010
0010
1001
1001
,
0110
0010
1000
0010
,
0001
0000
0000
0100
0000
0000
0001
0000
0000
1000
0000
0100
,
1000
0010
0001
0110
,
0001
0000
0000
0100
0000
0000
0010
0000
0100
0000
0001
0000
,
0202
0000
0000
0003
0000
0000
0000
0000
0010
0000
0310
0000
,
2020
0000
0000
0030
0000
0000
0000
0000
0001
0000
3001
0000
,
0022
0000
0000
0030
0000
0000
0000
0000
1000
0000
1003
0000
,
2200
0300
0000
3001
,
0200
0302
2003
3020
,
1030
0000
0010
0100
0000
0000
0001
0000
0010
0100
0000
0000
,
0001
0000
0001
1000
0000
1000
0010
0000
0010
0100
0000
0100
,
0002
0023
0230
2300
,
3010
1010
0100
0101
,
0001
0000
0000
0001
0000
0000
1000
0000
0000
1000
0000
0001
,
0010
0011
0100
1100
,
1000
1000
0001
0001
,
0100
0011
0100
1010
,
0001
0000
0000
1000
0000
0000
0110
0000
0000
0010
0000
1000
,
0001
0101
1000
1100
,
0010
0010
0100
0100
,
2002
0000
0000
0000
,
0000
0000
0000
0000
,
3003
0000
0000
0000
;

//---------------dance-single - ----------------
#NOTES:
     dance-single:
     :
     Challenge:
     12:
     0.458191,0.668133,0.177774,0.192588,0.562950,433.000000,409.000000,24.000000,26.000000,0.000000,0.000000,0.458191,0.668133,0.177774,0.192588,0.562950,433.000000,409.000000,24.000000,26.000000,0.000000,0.000000:
// measure 0
0000
0000
0000
0000
,  // measure 1
0000
0000
0000
0000
,  // measure 2
0000
0000
0000
0000
,  // measure 3
0000
0000
0000
0000
,  // measure 4
0010
0000
0010
0000
0010
0000
0100
0000
0100
0000
0100
0000
,  // measure 5
0001
0000
0001
0000
0001
0000
1000
0000
1000
0000
1000
0000
,  // measure 6
0001
0100
0001
1000
0100
1000
0001
0010
0001
1000
0010
1000
,  // measure 7
0002
0000
0203
0000
0320
0000
2030
0000
3002
0000
0203
0000
,  // measure 8
0310
0000
0000
0010
0100
0001
1000
0000
1000
0100
0000
0000
,  // measure 9
0010
0000
0001
0100
0000
0010
1000
0000
0100
1000
0000
0000
,  // measure 10
0001
0000
0000
0001
0100
0010
1000
0000
1000
0001
0000
0000
,  // measure 11
0010
0000
0010
0001
0100
0001
1000
0000
0100
0000
1000
0000
,  // measure 12
1001
0000
0000
0010
1000
0001
0100
0000
0100
0010
0000
0000
,  // measure 13
1000
0000
0001
0100
0000
0010
0100
0000
0001
1000
0000
0000
,  // measure 14
0101
0000
0000
0001
1000
0100
0010
0000
0010
0001
0000
0000
,  // measure 15
1100
0000
1010
0000
1001
0000
0101
0000
0011
0000
0110
0000
,  // measure 16
0101
0000
0000
0001
1000
0100
1000
0000
0010
0100
0000
0000
,  // measure 17
0010
0000
1000
0100
0000
0001
0100
0000
0010
0001
0000
0000
,  // measure 18
0110
0000
0000
1000
0100
0010
0001
0000
0001
1000
0000
0000
,  // measure 19
0010
0000
0010
1000
0100
1000
0001
0000
0100
0000
0001
0000
,  // measure 20
0110
0000
0000
1000
0001
0010
0100
0000
0100
1000
0000
0000
,  // measure 21
0001
0000
0010
0100
0000
1000
0001
0000
0100
0001
0000
0000
,  // measure 22
1001
0000
0000
1000
0010
0100
0001
0000
1000
0100
0000
0000
,  // measure 23
1100
0000
1001
0000
0101
0000
0011
0000
0110
0000
1010
0000
,  // measure 24
2002
0000
0000
0000
,  // measure 25
0000
0000
0000
3000
,  // measure 26
0200
0000
0000
0000
,  // measure 27
0000
0000
0000
0003
,  // measure 28
0020
0000
0000
0000
,  // measure 29
0000
0000
0000
0300
,  // measure 30
2000
0000
0000
0000
,  // measure 31
0000
0000
0000
3030
,  // measure 32
0001
0001
0100
0100
,  // measure 33
0001
1000
0010
0100
,  // measure 34
0010
0010
1000
1000
,  // measure 35
0010
0100
0001
1000
,  // measure 36
0100
0100
0010
0010
,  // measure 37
0100
0010
0001
1000
,  // measure 38
0001
0001
0010
0010
,  // measure 39
0001
1000
0010
0100
,  // measure 40
0020
1000
1000
1000
,  // measure 41
0032
0010
0023
0100
,  // measure 42
0230
1000
1000
1000
,  // measure 43
0302
0100
0203
0310
,  // measure 44
1000
0000
1000
0001
0000
0001
0100
0000
0100
0010
0000
0010
,  // measure 45
0100
0000
0100
0001
0000
0001
0010
0000
0010
0100
0000
0100
,  // measure 46
1000
0001
1000
0001
0100
0001
0100
0010
0100
0001
1000
0010
,  // measure 47
0100
0100
0200
0300
,  // measure 48
1001
1000
0001
0001
,  // measure 49
0100
0000
0000
0100
0000
0000
0010
0000
0000
0010
0000
2000
,  // measure 50
0001
3001
0100
0100
,  // measure 51
0010
0000
0000
0010
0000
0000
1000
0000
0000
1100
0000
1000
,  // measure 52
0001
0001
0010
0010
,  // measure 53
0100
0000
0000
0100
0000
0000
1000
0000
0000
1000
0000
0020
,  // measure 54
0100
0130
0001
0001
,  // measure 55
1000
0000
0000
1000
0000
0000
0010
0000
0010
0100
0000
0100
,  // measure 56
0001
0010
0100
0010
,  // measure 57
0001
0000
0000
1000
0000
0000
0010
0000
0000
0100
0000
0020
,  // measure 58
1000
1030
0001
1000
,  // measure 59
0100
0010
0101
1100
,  // measure 60
1000
0010
1000
0001
,  // measure 61
0100
0000
0000
0001
0000
0000
0010
0000
0000
0001
0000
0200
,  // measure 62
0010
0310
1000
0010
,  // measure 63
0100
0000
0000
0001
0000
0000
0010
0000
0010
0100
0000
0100
,  // measure 64
1000
0000
0000
1000
0000
0000
1000
0000
0001
0000
1000
0000
,  // measure 65
0001
0000
0000
0001
0000
0000
0001
0000
0100
0000
0001
0000
,  // measure 66
0100
0000
0000
0100
0000
0000
0100
0000
0010
0000
0100
0000
,  // measure 67
0010
0000
0000
0010
0000
0000
0010
0000
0000
1000
0100
1000
,  // measure 68
0001
0000
0001
0000
0001
0000
0010
0000
0010
0000
0010
0100
,  // measure 69
1000
0000
1000
0000
1000
0001
0100
0000
0100
0000
0100
0010
,  // measure 70
1000
0001
0010
0001
0100
0010
0100
0001
1000
0010
1000
0001
,  // measure 71
0010
0010
0001
0011
,  // measure 72
1000
0000
0000
1000
0000
0001
0100
0000
0000
0100
0000
0010
,  // measure 73
1000
0000
1000
0001
0000
0001
0100
0000
0010
1000
0000
0020
,  // measure 74
0100
0000
0000
0130
0000
0001
1000
0000
0000
1000
0000
0100
,  // measure 75
0010
0000
0010
0001
0000
0001
0100
0000
0100
0010
1000
0010
,  // measure 76
0100
0000
0000
0100
0000
0001
0010
0000
0000
0010
0000
0100
,  // measure 77
1000
0000
1000
0001
0000
0001
0010
0000
0100
0010
0000
0002
,  // measure 78
0100
0000
0000
0103
0000
0010
1000
0000
0000
1000
0000
0001
,  // measure 79
0010
0000
0010
0100
0000
0000
0010
0001
0010
0001
0100
0020
,  // measure 80
2000
0000
0000
0000
,  // measure 81
0000
0000
0000
0000
,  // measure 82
3030
0000
0000
0000
;
