#TITLE:Happy-hopper;
#SUBTITLE:;
#ARTIST:ES44;
#TITLETRANSLIT:;
#SUBTITLETRANSLIT:;
#ARTISTTRANSLIT:;
#GENRE:;
#CREDIT:;
#BANNER:Happy-hopper-bn.png;
#BACKGROUND:Happy-hopper-bg.png;
#LYRICSPATH:;
#CDTITLE:;
#MUSIC:Happy-hopper.ogg;
#OFFSET:-0.062500;
#SAMPLESTART:21.661501;
#SAMPLELENGTH:20.000000;
#SELECTABLE:YES;
#DISPLAYBPM:190.000000;
#BPMS:0.000000=190.000000
;
#STOPS:
;
#BGCHANGES:;
#KEYSOUNDS:;
#ATTACKS:;

//---------------dance-single - x scale 13----------------
#NOTES:
     dance-single:
     :
     Hard:
     13:
     0.756002,0.698833,0.489780,0.334484,0.000000,443.000000,402.000000,41.000000,28.000000,0.000000,0.000000,0.756002,0.698833,0.489780,0.334484,0.000000,443.000000,402.000000,41.000000,28.000000,0.000000,0.000000:
// measure 0
0000
0000
0000
0000
,  // measure 1
0010
0000
1000
0100
1000
0000
1000
0000
,  // measure 2
0010
0000
0001
0100
0001
0000
0001
0000
,  // measure 3
0000
1000
0000
0001
0000
1000
0000
0001
,  // measure 4
0010
0001
0010
0100
0010
1000
0010
0000
,  // measure 5
0010
1000
0010
0100
0010
0001
0010
0000
,  // measure 6
1000
0100
0001
0100
1000
0010
0001
0010
,  // measure 7
1000
1000
0001
0001
0100
0010
0100
0000
,  // measure 8
0001
0010
0001
0100
0001
1000
0001
0000
,  // measure 9
1000
0010
1000
0001
1000
0100
1000
0000
,  // measure 10
0001
0100
1000
0100
0001
0010
1000
0010
,  // measure 11
0001
0001
0010
0010
0100
0100
1000
1000
,  // measure 12
1002
0200
0000
0303
,  // measure 13
0010
1000
0010
1000
0010
1000
0010
1000
,  // measure 14
2001
0020
0000
3030
,  // measure 15
0001
0100
0001
0100
0001
0100
0001
0100
,  // measure 16
0010
0010
0010
0010
,  // measure 17
1001
0000
0010
1000
0100
1000
0001
0100
,  // measure 18
0010
0100
0010
0100
0001
1000
0001
1000
,  // measure 19
1001
0000
1000
0100
0010
0001
0010
0100
,  // measure 20
1000
0000
1100
0000
0101
0100
0001
0000
,  // measure 21
1001
0000
0010
0100
0001
0010
1000
0100
,  // measure 22
1000
0001
1000
0010
0100
0010
0100
0001
,  // measure 23
1001
0000
0001
0010
0100
1000
0100
0010
,  // measure 24
0001
0000
0011
0000
1010
1000
0010
0000
,  // measure 25
1000
2100
0000
3001
0001
0100
0010
1000
,  // measure 26
0010
0100
0001
1000
0100
0010
1000
0001
,  // measure 27
0011
0000
0001
0100
1000
0100
0001
0000
,  // measure 28
1010
0000
0110
0000
0101
0001
1000
0000
,  // measure 29
0010
0102
0000
1003
1000
0100
0010
0001
,  // measure 30
0100
0000
0110
0000
1100
0010
1000
0000
,  // measure 31
0020
0000
0000
2000
0030
0000
0000
0000
0000
3001
0000
0000
0001
0000
0000
0100
0000
0000
0010
0000
0000
1000
0000
0000
,  // measure 32
0101
0000
1001
0000
1100
0100
0010
0000
,  // measure 33
1010
0000
1001
0000
1100
0010
0001
0000
,  // measure 34
0100
0010
2000
0000
3100
0010
0002
0000
,  // measure 35
1003
0001
0100
0001
0010
0010
0010
0000
,  // measure 36
0001
0100
0020
0000
1030
0001
0200
0000
,  // measure 37
0301
1000
0010
1000
0100
0100
0100
0000
,  // measure 38
0010
0100
0002
1003
0001
0100
0020
1030
,  // measure 39
0010
0100
0001
0100
1000
1000
1000
0000
,  // measure 40
0100
0010
2000
3001
0010
0001
0200
1300
,  // measure 41
0010
0100
0001
0010
1000
1000
1000
0000
,  // measure 42
0001
0100
1000
0100
0010
1000
0010
0001
,  // measure 43
0100
0010
0100
0010
1000
1000
1000
0000
,  // measure 44
0001
1000
0010
0100
1000
0001
0100
0010
,  // measure 45
0001
0100
0001
0100
0010
0010
0010
0000
,  // measure 46
1000
0001
1000
0001
0100
0100
0100
0000
,  // measure 47
0010
1100
0101
1100
,  // measure 48
0101
0000
0010
0010
1000
0001
0010
0010
,  // measure 49
1000
0001
0100
0010
0100
0010
1000
0100
,  // measure 50
0001
0000
0100
0100
0001
1000
0100
0100
,  // measure 51
0001
1000
0010
1000
0100
0010
0001
0100
,  // measure 52
1000
2002
3000
0203
,  // measure 53
0320
0000
0000
0000
0000
0030
0000
0000
2020
0000
0000
0000
0000
0000
0000
0000
0030
0000
0000
0000
0000
0000
0000
0000
3002
0000
0000
0000
0000
0000
0000
0000
,  // measure 54
0203
0000
0310
1000
0100
1000
0010
0100
,  // measure 55
0001
0100
0001
0010
1000
0100
0010
1000
,  // measure 56
0001
0100
0110
0000
1001
0000
1100
0001
,  // measure 57
0100
0000
0010
1200
0000
0310
0010
1000
,  // measure 58
0001
0100
0001
0010
0100
1000
0001
0100
,  // measure 59
0010
1000
0002
0000
1003
0010
0100
0000
,  // measure 60
0110
0000
0200
0000
0301
0010
1000
0000
,  // measure 61
1001
0010
1010
0100
,  // measure 62
0101
0000
1000
0001
1000
0001
0010
0100
,  // measure 63
0010
0100
0020
0000
0000
0000
0000
0000
,  // measure 64
0000
0030
1100
0011
,  // measure 65
1001
0000
0000
0000
;

//---------------dance-single - x scale 10----------------
#NOTES:
     dance-single:
     :
     Medium:
     10:
     0.576814,0.543537,0.513672,0.645077,0.000000,338.000000,295.000000,43.000000,54.000000,0.000000,0.000000,0.576814,0.543537,0.513672,0.645077,0.000000,338.000000,295.000000,43.000000,54.000000,0.000000,0.000000:
0000
0000
0000
0000
,
0010
0000
1000
0100
1000
0000
1000
0000
,
0010
0000
0001
0100
0001
0000
0001
0000
,
0000
0000
0000
0000
,
1001
0000
0100
0000
0010
1000
0001
0000
,
1001
0000
1000
0000
0010
0100
0001
0000
,
1200
1300
0201
0301
,
1000
0001
1000
0001
2000
0000
3000
0000
,
0110
0000
0010
0000
0001
1000
0100
0000
,
0110
0000
0001
0000
0100
0010
1000
0000
,
0021
0031
1020
1030
,
0020
2030
3002
0103
,
2002
0000
0000
3003
,
0010
0000
0010
0000
0010
1000
0010
0000
,
2002
0000
0000
3003
,
0001
0000
0001
0000
0001
0100
0001
0000
,
0010
0010
0010
0000
,
1001
0000
1000
0100
1000
0000
0001
0100
,
0001
0000
0001
0010
0001
0000
1000
0010
,
1000
0000
0100
0010
0100
0000
1000
0001
,
1000
1100
0202
0303
,
1001
0000
0100
1000
0100
0000
0010
1000
,
0010
0000
0010
0001
0010
0000
0100
0001
,
0100
0000
0001
1000
0001
0000
0010
0100
,
0010
0011
2020
3030
,
1000
0001
0000
0100
0020
0000
1030
0100
,
1000
0000
0001
0100
0001
0000
0010
0100
,
0010
0000
1000
0001
1000
0000
0010
0000
,
0110
1001
0220
0330
,
1000
0100
0000
1000
0020
0000
0130
0001
,
1000
1010
0202
0303
,
0001
0010
0000
0001
2000
0000
3100
0010
,
0001
0011
2200
3300
,
1001
0110
2002
3003
,
0010
1000
0200
0000
0310
0001
0200
0000
,
0301
0000
1000
0000
0010
0100
0100
0000
,
0001
1000
0200
0000
1300
0001
0200
0000
,
0310
0000
1000
0000
0100
0001
0001
0000
,
0010
1000
0002
0000
0103
0001
2000
0000
,
3010
0000
0100
0000
0001
1000
1000
0000
,
0010
0010
0000
0000
0100
0100
0000
0000
,
0001
0001
0000
0000
1000
1000
1000
0000
,
0010
0000
0110
0000
1000
0001
0100
0000
,
0001
0010
0001
0000
0100
1000
1000
0000
,
0100
0000
1001
0000
0010
1000
0001
0000
,
0010
0100
0010
0000
0001
1000
1000
0000
,
0010
0000
0010
0000
1000
0001
1000
0000
,
0000
0002
0023
0230
,
2300
0000
3010
0010
2000
0000
3010
0010
,
0002
0000
1003
0000
1100
0000
0001
0100
,
0100
0000
0100
0100
0002
0000
0103
0100
,
2000
0000
3001
0000
1010
0000
1000
0100
,
0100
2002
3000
0100
,
0103
2002
0003
0100
,
3100
0000
1001
0000
1000
0001
1000
0000
,
0010
0100
0010
0000
1000
0100
1000
0000
,
0001
0010
0001
0000
0110
0000
0202
0000
,
0303
0000
0010
1000
0000
0100
2000
0000
,
3001
0010
0001
0000
0100
0010
1000
0000
,
1000
0001
0010
0000
1000
0100
1000
0000
,
1000
0000
0010
0000
0001
0100
0001
0000
,
0001
1020
1030
0021
,
0031
0201
0301
1200
,
1300
2002
0000
0000
,
0000
3003
1100
0101
,
1001
0000
0000
0000
;

//---------------dance-single - x scale 5----------------
#NOTES:
     dance-single:
     :
     Easy:
     5:
     0.319125,0.388240,0.203080,0.394213,0.000000,187.000000,170.000000,17.000000,33.000000,0.000000,0.000000,0.319125,0.388240,0.203080,0.394213,0.000000,187.000000,170.000000,17.000000,33.000000,0.000000,0.000000:
0000
0000
0000
0000
,
0010
0000
1000
1000
,
0010
0000
0001
0001
,
0000
0000
0000
0000
,
0002
0100
0000
0103
,
2000
0010
0000
3010
,
2000
3000
0002
0003
,
0100
0100
0200
0300
,
0020
0001
0000
0031
,
0200
1000
0000
1300
,
0002
0003
2000
3000
,
0010
0010
0100
0100
,
2002
0000
0000
3000
,
0200
0000
0000
0303
,
2002
0000
0000
0003
,
0200
0000
0000
3300
,
0000
0000
0000
0000
,
1001
0000
1000
0001
,
0100
0000
0100
0010
,
1000
0000
1000
0001
,
0100
0100
1001
0000
,
0110
0000
1000
0100
,
0010
0000
0100
1000
,
0001
0000
0010
0001
,
0100
0100
1001
0000
,
1000
0000
0001
0100
,
0010
0000
1000
0001
,
0010
0000
0001
1000
,
0010
0010
1001
0000
,
0010
0000
0100
1000
,
0001
0001
0110
0000
,
0100
0000
1000
0001
,
1000
1000
1001
0000
,
0010
0010
0110
0000
,
0200
0300
0200
0300
,
0001
1000
0001
0000
,
0020
0030
0020
0030
,
1000
0001
1000
0000
,
0200
0300
0020
0030
,
1000
0001
1000
0000
,
1001
0000
0110
0000
,
1001
0000
0110
0000
,
1000
0000
0001
0000
,
1000
0001
0100
0100
,
0010
0000
0100
0000
,
0010
1000
0001
0001
,
0100
0010
0100
0100
,
0000
0010
1000
0001
,
0100
0002
0003
2000
,
3000
0010
1000
0001
,
0100
0020
0030
0200
,
0300
0001
0100
1000
,
0010
2000
0000
0001
,
3001
0200
0000
0010
,
0310
1000
0000
0100
,
0010
0001
0000
1000
,
0100
0010
0010
0110
,
0000
0001
0000
1000
,
0100
1000
0000
0010
,
0100
0010
0000
1000
,
1000
0010
0000
0001
,
0001
0020
0030
0200
,
0300
0002
0003
2000
,
3000
2002
0000
0000
,
0000
3003
0100
0100
,
1001
0000
0000
0000
;

//---------------dance-single - x scale 2----------------
#NOTES:
     dance-single:
     :
     Beginner:
     2:
     0.141644,0.232944,0.071675,0.000000,0.000000,83.000000,77.000000,6.000000,0.000000,0.000000,0.000000,0.141644,0.232944,0.071675,0.000000,0.000000,83.000000,77.000000,6.000000,0.000000,0.000000,0.000000:
0000
0000
0000
0000
,
0000
0000
0000
0000
,
0000
0000
0000
0000
,
0000
0000
0000
0000
,
0010
0000
0000
0000
,
0010
0000
0000
0000
,
0010
0000
0010
0000
,
0000
0000
0010
0000
,
0100
0000
0000
0000
,
0100
0000
0000
0000
,
0100
0000
0100
0000
,
0100
0000
0000
0000
,
1001
0000
0000
0000
,
0100
0000
0000
0000
,
1001
0000
0000
0000
,
0100
0000
0000
0000
,
0000
0000
0000
0000
,
1001
0000
0000
0000
,
1000
0000
1000
0000
,
1000
0000
0000
0000
,
0001
0000
0001
0000
,
0100
0000
0000
0000
,
0010
0000
0010
0000
,
0010
0000
0000
0000
,
0100
0000
0100
0000
,
0000
0000
1000
0000
,
1000
0000
0000
0000
,
0010
0000
0100
0000
,
0001
0000
0001
0000
,
0000
0000
0100
0000
,
0100
0000
0100
0000
,
0000
0000
0010
0000
,
0010
0000
0010
0000
,
1000
0000
1000
0000
,
0001
0000
0000
0000
,
0001
0000
0000
0000
,
1000
0000
0000
0000
,
1000
0000
0000
0000
,
0010
0000
0000
0000
,
0100
0000
0000
0000
,
0001
0000
1000
0000
,
0001
0000
1000
0000
,
0001
0000
0000
0000
,
0000
0000
0100
0000
,
1000
0000
0000
0000
,
0000
0000
0010
0000
,
0000
0000
0000
0000
,
0000
0000
0000
0000
,
0000
1000
0000
1000
,
0000
0001
0000
0000
,
0000
0100
0000
0100
,
0000
0010
0000
0000
,
0000
1001
0000
0000
,
0000
0000
0000
0000
,
0000
0010
0000
0000
,
0000
1000
0000
0001
,
0000
0100
0000
0100
,
0000
0000
0000
0010
,
0000
0010
0000
0000
,
0000
1000
0000
0000
,
0000
0001
0000
0000
,
0000
0100
0000
0100
,
0000
0010
0000
0010
,
0000
1001
0000
0000
,
0000
0000
1000
0000
,
1001
0000
0000
0000
;
