#TITLE:HYPNØTIC CRISIS (Chris Fortier Mix);
#SUBTITLE:;
#ARTIST:BLUE DESTROYERS;
#TITLETRANSLIT:;
#SUBTITLETRANSLIT:;
#ARTISTTRANSLIT:;
#GENRE:;
#CREDIT:;
#BANNER:HYPNOTIC CRISIS (Chris Fortier Mix).png;
#BACKGROUND:HYPNOTIC CRISIS (Chris Fortier Mix)-bg.png;
#LYRICSPATH:;
#CDTITLE:;
#MUSIC:HYPNOTIC CRISIS (Chris Fortier Mix).ogg;
#OFFSET:0.000000;
#SAMPLESTART:9.236000;
#SAMPLELENGTH:20.000000;
#SELECTABLE:YES;
#DISPLAYBPM:130.000000;
#BPMS:0.000000=129.800003
,4.000000=130.000000
;
#STOPS:
;
#BGCHANGES:;
#KEYSOUNDS:;
#ATTACKS:;

//---------------dance-single - ----------------
#NOTES:
     dance-single:
     :
     Beginner:
     2:
     0.124259,0.155930,0.031822,0.063645,0.000000,82.000000,79.000000,3.000000,6.000000,0.000000,0.000000,0.124259,0.155930,0.031822,0.063645,0.000000,82.000000,79.000000,3.000000,6.000000,0.000000,0.000000:
0000
0000
0000
0000
,
0000
0000
0000
0000
,
0000
0000
0000
0000
,
0000
0000
0000
0000
,
0000
0000
0000
0000
,
0010
0010
0000
0000
,
1000
1000
0000
0000
,
0001
0001
0000
0000
,
1000
1000
0000
0000
,
0010
0010
0000
0000
,
0100
0100
0000
0000
,
0001
0001
0000
0000
,
0010
0010
0000
0000
,
0200
0000
0000
0300
,
0100
0000
0000
0000
,
0002
0000
0000
0003
,
0001
0000
0000
0000
,
1000
1000
1000
0000
,
0001
0000
0001
0000
,
0100
0100
0100
0000
,
0010
0000
0000
0000
,
0100
0100
0100
0000
,
0001
0000
0001
0000
,
1000
1000
1000
0000
,
0100
0000
0000
0000
,
1000
1000
0000
0000
,
0001
0001
0000
0000
,
0100
0000
0000
0000
,
0010
0000
0000
0000
,
0100
0000
0001
0000
,
0001
0000
0100
0000
,
0010
0000
0010
0000
,
1000
0000
1000
0000
,
0001
0000
1000
0000
,
1000
0000
0001
0000
,
0100
0000
0100
0000
,
0010
0000
0010
0000
,
2002
0000
0000
3003
,
0000
0000
0000
0000
,
0220
0000
0000
0330
,
0000
0000
0000
0000
,
1000
1000
0000
0000
,
0001
0000
1000
0000
,
0100
0100
0000
0000
,
0010
0000
0100
0000
,
1000
1000
0000
0000
,
0001
0000
1000
0000
,
0010
0010
0000
0000
,
0100
0000
0010
0000
,
0110
0000
0000
0000
;

//---------------dance-single - ----------------
#NOTES:
     dance-single:
     :
     Easy:
     5:
     0.204573,0.259884,0.031822,0.212150,0.000000,135.000000,132.000000,3.000000,20.000000,0.000000,0.000000,0.204573,0.259884,0.031822,0.212150,0.000000,135.000000,132.000000,3.000000,20.000000,0.000000,0.000000:
0000
0000
0000
0000
,
0000
0000
0000
0000
,
0000
0000
0000
0000
,
0000
0000
0000
0000
,
0000
0000
0000
0000
,
0010
1000
0010
0100
,
0001
1000
0001
0000
,
0010
0001
0010
0100
,
1000
0001
1000
0000
,
0100
1000
0100
0010
,
0001
1000
0001
0000
,
0100
0001
0100
0010
,
1000
0001
1000
0000
,
1001
0010
0000
0020
,
0000
0030
0000
0002
,
0000
0003
0000
0200
,
0000
0300
0000
0110
,
0001
0100
0001
0100
,
1000
0100
1000
0100
,
0010
0001
0010
0001
,
1000
0010
1000
0010
,
2000
3000
0010
0100
,
0002
0003
0100
0010
,
2000
3000
0010
0100
,
0002
0003
1000
0001
,
0020
0030
0001
1000
,
0200
0300
1000
0001
,
0020
0030
0001
1000
,
0100
1000
0001
0000
,
2000
0000
3200
0000
,
0302
0000
0023
0000
,
1030
0001
1000
1000
,
0001
1000
0001
0001
,
2000
0000
0000
3000
,
0002
0000
0000
0003
,
0020
0000
0000
0030
,
0200
0000
0000
0300
,
0010
0001
0010
0001
,
0100
0001
0100
0001
,
1000
0010
1000
0010
,
1000
0100
1000
0100
,
0020
0100
0000
0130
,
0200
0010
0000
0310
,
0001
0100
0010
0000
,
1000
0100
0010
0000
,
0100
1000
0001
0000
,
0100
0001
1000
0000
,
0010
0100
0001
0000
,
0010
0100
1000
0001
,
1001
0000
0000
0000
;

//---------------dance-single - ----------------
#NOTES:
     dance-single:
     :
     Medium:
     9:
     0.325802,0.389825,0.021215,0.201542,0.084860,215.000000,213.000000,2.000000,19.000000,0.000000,0.000000,0.325802,0.389825,0.021215,0.201542,0.084860,215.000000,213.000000,2.000000,19.000000,0.000000,0.000000:
0000
0000
0000
0000
,
0000
0000
0000
0000
,
0000
0000
0000
0000
,
0000
0000
0000
0000
,
0000
0000
0000
0000
,
2000
3001
0002
1003
,
0100
0000
1000
0000
0001
0100
1000
0000
,
0002
1003
2001
3000
,
0010
0000
0001
0000
1000
0010
0001
0000
,
2000
0001
3010
0002
,
1000
0000
0103
0000
0001
0100
1000
0000
,
0002
1000
0013
2000
,
0001
0000
3100
0000
1000
0100
0001
0000
,
0000
1000
0000
0001
0000
1000
0000
0001
,
0000
0100
0000
1000
0000
0010
0000
0001
,
0000
1000
0000
0100
0000
0010
0000
1000
,
0000
0001
0000
0010
0000
1000
1000
0000
,
1000
0000
0001
1000
0100
1000
0100
0000
,
0010
0000
1000
0001
1000
0001
1000
0000
,
0001
0000
0010
1000
0001
1000
0001
0000
,
0100
0000
1000
0001
1000
0001
1000
0000
,
0010
0000
0000
0100
0000
0000
0002
0000
0000
0000
1000
0000
0000
1000
0000
0000
,
1003
0000
0000
0001
0000
0000
0200
0000
0000
0000
0001
0000
0000
0001
0000
0000
,
0301
0000
0000
0010
0000
0000
0200
0000
0000
0000
1000
0000
0000
1000
0000
0000
,
1300
0000
0000
0001
0000
0000
0020
0000
0000
0000
0001
0000
0000
0001
0000
0000
,
0031
0000
0000
1000
0000
0000
0002
0000
0000
0000
0010
0000
0000
0010
0000
0000
,
0013
0000
0000
0100
0000
0000
2000
0000
0000
0000
0001
0000
0000
0001
0000
0000
,
3001
0000
0000
0100
0000
0000
0020
0000
0000
0000
1000
0000
0000
1000
0000
0000
,
1030
0000
0000
1000
0000
0000
0001
0000
0000
0010
0000
0000
0100
0000
0000
0000
,
1000
0100
0010
0000
1000
0010
0001
0000
,
1000
0010
0100
0000
1000
0100
0001
0000
,
1000
0001
0100
0001
1000
0100
0001
0000
,
1000
0001
1000
0100
0010
0001
1000
0000
,
0200
0010
0000
0301
,
2000
0010
0000
3100
,
0020
1000
0000
0031
,
0002
0100
0000
1003
,
0010
1000
0001
0100
,
0001
1000
0010
0001
,
1000
0000
0100
0000
0001
0010
0100
0000
,
0010
1000
0001
0100
,
1000
0001
0010
0100
,
1000
0000
0010
0000
0001
0010
0100
0000
,
1000
0100
1000
0000
0001
0100
0001
0000
,
0010
0100
0010
0000
1000
0001
1000
0000
,
0010
0001
0010
0000
0010
1000
0010
0000
,
0100
1000
0100
0000
0100
0001
0100
0000
,
1000
0001
0100
0010
,
1000
0000
0001
0000
0100
0010
0100
0000
,
1001
0000
0000
0000
;

//---------------dance-single - ----------------
#NOTES:
     dance-single:
     :
     Hard:
     12:
     0.495521,0.571744,0.095467,0.074252,0.360655,327.000000,318.000000,9.000000,7.000000,0.000000,0.000000,0.495521,0.571744,0.095467,0.074252,0.360655,327.000000,318.000000,9.000000,7.000000,0.000000,0.000000:
0000
0000
0000
0000
,
0000
0000
0000
0000
,
0000
0000
0000
0000
,
0000
2000
0000
3002
,
0000
0203
0000
0310
,
1100
0000
0000
0000
0001
0000
0100
0000
0000
0000
1100
0000
0000
0101
0000
0000
,
1000
0000
0000
0100
0000
0000
1000
0000
0001
0000
0010
0000
0000
0100
0000
0000
,
1000
0000
0000
0000
0010
0000
0100
0000
0000
0000
1000
0000
0000
0100
0000
0000
,
0001
0000
0000
0100
0000
0000
0010
0000
1000
0000
0100
0000
0000
0001
0000
0000
,
0010
0000
0000
0000
0001
0000
0100
0000
0000
0000
1000
0000
0000
0010
0000
0000
,
0001
0000
0000
0010
0000
0000
1000
0000
0100
0000
0001
0000
0000
1000
0000
0000
,
0010
0000
0000
0000
0000
0000
0100
0000
0000
0000
0001
0000
0000
0100
0000
0000
,
1000
0010
0100
0010
0001
0010
0100
0010
,
1000
1000
0010
0010
0100
0100
0001
0001
,
1000
1000
0010
0010
0100
0100
0001
0000
,
0010
0100
0100
1000
1000
0001
0001
0010
,
0010
0000
0100
0000
0100
0000
1000
0010
1000
0010
1000
0001
0100
0001
0100
0001
,
1000
0000
0000
0100
0000
0000
0010
0000
0000
0000
0001
0000
0001
0000
0100
0000
,
0010
0000
0000
1000
0000
0000
0100
0000
0000
0000
0001
0000
1000
0000
0000
0000
,
0100
0000
0000
0001
0000
0000
1000
0000
0000
0000
0010
0000
1000
0000
0001
0000
,
0010
0000
0000
0100
0000
0000
0001
0000
0000
0000
0100
0000
1000
0000
0000
0000
,
0001
0000
1000
0100
0000
0001
1000
0100
,
0010
0000
1000
0001
0000
0010
1000
0001
,
0100
0000
0010
1000
0000
0010
0100
0001
,
1000
0000
0000
0000
0010
0000
1000
0000
0000
0000
0001
0000
0000
0010
0001
0000
,
0100
0000
0000
0000
1000
0000
0100
0000
0000
0000
1000
0000
0010
1000
0000
0000
,
0100
0000
0000
0000
1000
0000
0100
0000
0000
0000
0010
0000
0100
0010
0000
0000
,
1000
0000
0000
0000
0001
0000
1000
0000
0000
0000
0010
0000
0000
1000
0001
0000
,
0100
0000
0010
0000
0100
0000
1000
0000
0001
0000
0100
0001
0100
0001
0100
0001
,
0100
0000
0110
0000
1000
0100
0110
0000
,
0001
0000
0000
0000
0110
0000
0000
0000
1000
0100
1000
0100
1000
0100
1000
0100
,
1000
0001
0100
0010
0100
0001
0100
0010
,
0100
0001
0010
0100
1000
0100
0010
0100
,
1001
0100
0010
0010
1000
1000
0100
0100
,
0010
0010
0001
0001
0100
0100
0010
0000
,
1001
0100
0100
0010
0010
0001
0001
0100
,
0100
0000
0010
0000
0010
0100
0000
0001
0000
0100
0000
0001
0100
0001
0100
0001
,
0100
1000
0010
0100
0001
0001
0010
0100
,
1000
1000
0010
0100
0001
0001
1000
0100
,
0010
0001
0100
0010
1000
1000
0100
0010
,
0001
0001
0100
0010
1000
1000
1000
0001
,
1002
0000
0000
0100
0000
0000
0000
0203
0000
0000
0000
0000
1000
0000
0000
0000
,
0320
0000
0000
1000
0000
0000
0000
0230
0000
0000
0000
0000
0301
0000
0000
0000
,
1000
0000
0001
0100
0000
1000
0000
0100
0000
0001
0000
1000
0100
0000
0010
0000
,
0001
0000
0010
0100
0000
1000
0000
0100
0000
0001
0000
0100
1000
0000
0000
0000
,
0001
0000
1000
0010
0000
0001
0000
0010
0000
1000
0000
0001
0010
0000
0100
0000
,
1000
0000
0010
0100
0000
0001
0000
1000
0000
0100
0000
0001
0100
0000
0000
0000
,
0010
0000
1000
0100
0000
0010
0000
0001
0000
1000
0000
0001
0100
0000
0010
0000
,
1000
0000
0100
0001
0000
0100
0000
1000
0010
0000
0100
0000
0001
0000
0010
0000
,
0100
0000
0000
0000
;

//---------------dance-double - ----------------
#NOTES:
     dance-double:
     :
     Easy:
     5:
     0.189419,0.233895,0.010607,0.233365,0.000000,125.000000,124.000000,1.000000,22.000000,0.000000,0.000000,0.189419,0.233895,0.010607,0.233365,0.000000,125.000000,124.000000,1.000000,22.000000,0.000000,0.000000:
00000000
00000000
00000000
00000000
,
00000000
00000000
00000000
00000000
,
00000000
00000000
00000000
00000000
,
00000000
00000000
00000000
00000000
,
00000000
00000000
00000000
00000000
,
00001000
00100000
00010000
00000000
,
01000000
00100000
10000000
00000000
,
00010000
01000000
00001000
00000000
,
00000100
00000010
00000001
00000000
,
00001000
00000100
00010000
00001000
,
00100000
01000000
10000000
00000000
,
00010000
01000000
00001000
00010000
,
00000010
00000100
00000001
00000000
,
00002000
00000000
00000000
00003000
,
00020000
00000000
00000000
00030000
,
00200000
00000000
00000000
00300000
,
20000000
00000000
00000000
30000000
,
01000000
00100000
01000000
00100000
,
00001000
00010000
00001000
00010000
,
00000100
00000010
00000100
00000010
,
00000001
00001000
00000001
00001000
,
00000002
00000003
00000100
00001000
,
00020000
00030000
01000000
10000000
,
00200000
00300000
00010000
00001000
,
00000020
00000030
00000001
00000100
,
00002000
00003000
00010000
01000000
,
20000000
30000000
01000000
00010000
,
00002000
00003000
00000100
00000001
,
00000020
00001030
00010000
00000000
,
00002000
00000000
00023000
00000000
,
00032000
00000000
00023000
00000000
,
00030010
00001000
00000010
00000010
,
00001000
00000001
00000100
00000100
,
00002000
00000000
00000000
00003000
,
00020000
00000000
00000000
00030000
,
00200000
00000000
00000000
00300000
,
02000000
00000000
00000000
03000000
,
00001000
00010000
00001000
00010000
,
00000010
00001000
00000010
00001000
,
00000100
00010000
00000100
00010000
,
00001000
01000000
00001000
01000000
,
20000000
00000000
00000000
30000000
,
00020000
00000000
00000000
00030000
,
10000000
00010000
01000000
00000000
,
00001000
00010000
00000010
00000000
,
00001000
00000001
00000100
00000000
,
00000010
00001000
00000100
00000000
,
00000010
00000001
00000100
00000000
,
00001000
00010000
00001000
00010000
,
00011000
00000000
00000000
00000000
;

//---------------dance-double - ----------------
#NOTES:
     dance-double:
     :
     Medium:
     9:
     0.325802,0.389825,0.021215,0.201542,0.084860,215.000000,213.000000,2.000000,19.000000,0.000000,0.000000,0.325802,0.389825,0.021215,0.201542,0.084860,215.000000,213.000000,2.000000,19.000000,0.000000,0.000000:
00000000
00000000
00000000
00000000
,
00000000
00000000
00000000
00000000
,
00000000
00000000
00000000
00000000
,
00000000
00000000
00000000
00000000
,
00000000
00000000
00000000
00000000
,
00002000
00013000
00020000
00031000
,
00000100
00000000
00001000
00000000
00000001
00000100
00001000
00000000
,
00020000
00031000
00012000
00003000
,
00100000
00000000
00010000
00000000
10000000
00100000
00010000
00000000
,
00002000
00010000
00003010
00000002
,
00001000
00000000
00000103
00000000
00000001
00000100
00001000
00000000
,
00020000
00001000
00130000
20000000
,
00010000
00000000
31000000
00000000
10000000
01000000
00010000
00000000
,
00000000
00001000
00000000
00010000
00000000
00001000
00000000
00010000
,
00000000
00000100
00000000
00001000
00000000
00000010
00000000
00000001
,
00000000
00001000
00000000
00000100
00000000
00000010
00000000
00001000
,
00000000
00010000
00000000
00100000
00000000
10000000
10000000
00000000
,
10000000
00000000
00010000
10000000
01000000
10000000
01000000
00000000
,
00100000
00000000
00001000
00010000
00001000
00010000
00001000
00000000
,
00010000
00000000
00000010
00001000
00000001
00001000
00000001
00000000
,
00000100
00000000
00001000
00010000
00001000
00010000
00001000
00000000
,
00100000
00000000
00000000
01000000
00000000
00000000
00020000
00000000
00000000
00000000
10000000
00000000
00000000
10000000
00000000
00000000
,
10030000
00000000
00000000
00010000
00000000
00000000
02000000
00000000
00000000
00000000
00001000
00000000
00000000
00001000
00000000
00000000
,
03001000
00000000
00000000
00010000
00000000
00000000
00000200
00000000
00000000
00000000
00000010
00000000
00000000
00000010
00000000
00000000
,
00000310
00000000
00000000
00000001
00000000
00000000
00000200
00000000
00000000
00000000
00000010
00000000
00000000
00000010
00000000
00000000
,
00000310
00000000
00000000
00001000
00000000
00000000
00000200
00000000
00000000
00000000
00010000
00000000
00000000
00010000
00000000
00000000
,
00010300
00000000
00000000
00001000
00000000
00000000
00200000
00000000
00000000
00000000
00010000
00000000
00000000
00010000
00000000
00000000
,
00310000
00000000
00000000
01000000
00000000
00000000
00200000
00000000
00000000
00000000
10000000
00000000
00000000
10000000
00000000
00000000
,
10300000
00000000
00000000
10000000
00000000
00000000
00010000
00000000
00000000
00100000
00000000
00000000
01000000
00000000
00000000
00000000
,
10000000
01000000
00100000
00000000
10000000
00100000
00010000
00000000
,
00100000
00001000
00010000
00000000
00001000
00000010
00000001
00000000
,
00000001
00001000
00000100
00001000
00000001
00000100
00001000
00000000
,
00010000
00001000
00010000
01000000
10000000
00010000
10000000
00000000
,
02000000
00100000
00000000
03010000
,
00002000
00010000
00000000
00003100
,
00000020
00001000
00000000
00000031
,
00002000
00000100
00000000
00003001
,
00000010
00000001
00001000
00000100
,
00010000
00001000
00100000
00010000
,
10000000
00000000
01000000
00000000
00010000
00100000
01000000
00000000
,
00100000
10000000
00010000
01000000
,
00001000
00010000
00000100
00001000
,
00000001
00000000
00000010
00000000
00001000
00000100
00000010
00000000
,
00000001
00000010
00000001
00000000
00001000
00000100
00001000
00000000
,
00001000
00010000
00001000
00000000
00010000
00001000
00010000
00000000
,
01000000
00001000
01000000
00000000
01000000
00010000
01000000
00000000
,
00100000
10000000
00100000
00000000
10000000
01000000
10000000
00000000
,
00100000
00010000
00001000
00000010
,
00000001
00000000
00001000
00000000
00000100
00000010
00000100
00000000
,
00001001
00000000
00000000
00000000
;

//---------------dance-double - ----------------
#NOTES:
     dance-double:
     :
     Hard:
     12:
     0.466730,0.545755,0.074252,0.074252,0.307617,308.000000,301.000000,7.000000,7.000000,0.000000,0.000000,0.466730,0.545755,0.074252,0.074252,0.307617,308.000000,301.000000,7.000000,7.000000,0.000000,0.000000:
00000000
00000000
00000000
00000000
,
00000000
00000000
00000000
00000000
,
00000000
00000000
00000000
00000000
,
00000000
20000000
00000000
32000000
,
00000000
03020000
00000000
00031000
,
00011000
00000000
00000000
00000000
00000010
00000000
00001000
00000000
00000000
00000000
00000001
00000000
00000000
00000100
00000000
00000000
,
00000010
00000000
00000000
00001000
00000000
00000000
00000100
00000000
00010000
00000000
00001000
00000000
00000000
01000000
00000000
00000000
,
00010000
00000000
00000000
00000000
10000000
00000000
00100000
00000000
00000000
00000000
10000000
00000000
00000000
01000000
00000000
00000000
,
00010000
00000000
00000000
00001000
00000000
00000000
00010000
00000000
00000010
00000000
00001000
00000000
00000000
00000001
00000000
00000000
,
00000100
00000000
00000000
00000000
00000001
00000000
00001000
00000000
00000000
00000000
00000100
00000000
00000000
00010000
00000000
00000000
,
00001000
00000000
00000000
00100000
00000000
00000000
00010000
00000000
10000000
00000000
01000000
00000000
00000000
00010000
00000000
00000000
,
00001000
00000000
00000000
00000000
00000100
00000000
00000001
00000000
00000000
00000000
00000100
00000000
00000000
00001000
00000000
00000000
,
00010000
00000010
00001000
00000010
00001000
00000001
00000100
00000001
,
00001000
00001000
00000100
00000100
00010000
00010000
00001000
00001000
,
00100000
00100000
00010000
00010000
01000000
01000000
00100000
00000000
,
10000000
01000000
01000000
00010000
00010000
00001000
00001000
00000010
,
00000010
00000001
00000001
00000220
00000000
00000000
00000000
00000000
,
00000330
00000000
00000000
00010000
00000000
00000000
00001000
00000000
00000000
00000000
00100000
00000000
00100000
00000000
00010000
00000000
,
01000000
00000000
00000000
00100000
00000000
00000000
10000000
00000000
00000000
00000000
01000000
00000000
00010000
00000000
00000000
00000000
,
00001000
00000000
00000000
00010000
00000000
00000000
00001000
00000000
00000000
00000000
00000010
00000000
00000010
00000000
00000001
00000000
,
00001000
00000000
00000000
00000001
00000000
00000000
00000100
00000000
00000000
00000000
00001000
00000000
00010000
00000000
00000000
00000000
,
00100000
00000000
00001000
00010000
00000000
00001000
01000000
00100000
,
01000000
00000000
00010000
10000000
00000000
01000000
00010000
00001000
,
00000100
00000000
00000010
00001000
00000000
00000001
00000100
00001000
,
00010000
00000000
00000000
00000000
00000010
00000000
00001000
00000000
00000000
00000000
00000001
00000000
00000000
00001000
00000100
00000000
,
00000010
00000000
00000000
00000000
00000001
00000000
00000100
00000000
00000000
00000000
00010000
00000000
00001000
00010000
00000000
00000000
,
00001000
00000000
00000000
00000000
00100000
00000000
00010000
00000000
00000000
00000000
01000000
00000000
00100000
10000000
00000000
00000000
,
01000000
00000000
00000000
00000000
00010000
00000000
00001000
00000000
00000000
00000000
00010000
00000000
00000000
00001000
00010000
00000000
,
00000010
00001000
00000100
00000010
00000001
00002200
00000000
00000000
,
00003300
00000000
00011000
00000000
00010000
01000000
00100000
00000000
,
10000000
00000000
00000000
00000000
01100000
00000000
00000000
00000000
10000000
01000000
10000000
00000000
00010000
01000000
00010000
00000000
,
10000000
00100000
01000000
00010000
00100000
01000000
10000000
01000000
,
00010000
00001000
00000100
00000001
00000010
00000100
00001000
00000010
,
00001001
00000100
00000010
00000010
00001000
00001000
00000100
00000100
,
00010000
00010000
00001000
00001000
00010000
00010000
00100000
00000000
,
10010000
01000000
01000000
00100000
00100000
00010000
00010000
01000000
,
01000000
00000000
00100000
00000000
00100000
10000000
00000000
01000000
00000000
00010000
00000000
00010000
00001000
00010000
00001000
00010000
,
00001000
00010000
00000010
00000100
00000001
00000001
00000100
00001000
,
00010000
00010000
00001000
00100000
00010000
00010000
10000000
01000000
,
00100000
00010000
01000000
00100000
10000000
10000000
01000000
00010000
,
00001000
00001000
00000100
00000010
00001000
00001000
00000001
00000100
,
00001000
00000000
00000000
00010000
00000000
00000000
00000000
00001000
00000000
00000000
00000000
00000000
00100000
00000000
00000000
00000000
,
00010000
00000000
00000000
10000000
00000000
00000000
00000000
01000000
00000000
00000000
00000000
00000000
00010000
00000000
00000000
00000000
,
00001000
00000000
00010000
00001000
00000000
00000100
00000000
00000001
00000000
00001000
00000000
00000100
00001000
00000000
00000010
00000000
,
00000100
00000000
00001000
00010000
00000000
00001000
00000000
00100000
00000000
00010000
00000000
10000000
01000000
00000000
00000000
00000000
,
00010000
00000000
10000000
00100000
00000000
00010000
00000000
00001000
00000000
00000100
00000000
00000001
00000010
00000000
00000100
00000000
,
00001000
00000000
00000001
00000100
00000000
00001000
00000000
00010000
00000000
01000000
00000000
10000000
01000000
00000000
00000000
00000000
,
00100000
00000000
00010000
01000000
00000000
00100000
00000000
10000000
00000000
01000000
00000000
00010000
00001000
00000000
00010000
00000000
,
00000010
00000000
00001000
00000100
00000000
00000010
00000000
00000001
00000010
00000000
00001000
00000000
00010000
00000000
01000000
00000000
,
10000000
00000000
00000000
00000000
;

//---------------dance-single - ----------------
#NOTES:
     dance-single:
     :
     Challenge:
     15:
     0.684941,0.734171,0.360655,0.042430,0.747828,452.000000,418.000000,34.000000,4.000000,0.000000,0.000000,0.684941,0.734171,0.360655,0.042430,0.747828,452.000000,418.000000,34.000000,4.000000,0.000000,0.000000:
// measure 0
0000
0000
0000
0000
,  // measure 1
0000
0000
0000
0000
,  // measure 2
0000
0000
0000
0000
,  // measure 3
1000
0010
0110
0000
0100
0001
1001
0000
,  // measure 4
0001
0010
0110
0000
0100
1000
1001
0000
,  // measure 5
1000
0010
0000
1000
0010
0000
0100
0000
0000
0000
0101
0000
0000
1100
0000
0000
,  // measure 6
0001
0100
0000
0001
0100
0000
0010
0000
0000
0000
1010
0000
0000
0011
0000
0000
,  // measure 7
1000
0001
0000
1000
0001
0000
0100
0000
0000
0000
0101
0000
0000
1100
0000
0000
,  // measure 8
0001
1000
0000
0001
1000
0000
0010
0000
0000
0000
1010
0000
0000
0011
0000
0000
,  // measure 9
0001
0100
0000
0100
0010
0000
1000
0000
0000
0000
1100
0000
0000
0011
0000
0000
,  // measure 10
1000
0001
0000
0001
0100
0000
0010
0000
0000
0000
1010
0000
0000
0101
0000
0000
,  // measure 11
0010
0001
0000
0001
1000
0000
0100
0000
0000
0000
1100
0000
0000
0011
0000
0000
,  // measure 12
1000
0100
0000
0100
0010
0000
0001
0000
0000
0000
0101
0000
0000
1010
0000
0000
,  // measure 13
0001
0001
0100
0100
0010
0010
1000
1000
,  // measure 14
0100
0100
0010
0010
0011
0101
1001
0000
,  // measure 15
1000
1000
0100
0100
0010
0010
0001
0001
,  // measure 16
1000
0000
1000
0000
0001
0000
0001
0000
1000
0010
0100
0001
0010
0100
1000
0010
,  // measure 17
0100
0001
0100
0001
0000
0000
1000
0010
0000
0100
0000
0001
1000
0000
0000
0000
,  // measure 18
0100
1000
0100
1000
0000
0000
0010
0100
0000
0001
0000
1000
0001
0000
0000
0000
,  // measure 19
0010
0001
0010
0001
0000
0000
1000
0001
0000
1000
0000
0010
0100
0000
0000
0000
,  // measure 20
0010
1000
0010
1000
0000
0000
0001
0010
0000
0001
0000
1000
0100
0000
0000
0000
,  // measure 21
1000
0001
0000
0010
0100
0000
1000
0000
0010
0000
0100
0000
0001
1000
0001
0000
,  // measure 22
0100
0010
0000
1000
0100
0000
0010
0000
0001
0000
0100
0000
0001
1000
0001
0000
,  // measure 23
0010
0100
0000
1000
0001
0000
0100
0000
0001
0000
0010
0000
0100
1000
0100
0000
,  // measure 24
0010
0100
0000
1000
0001
0000
1000
0000
0010
0000
0100
0000
0001
0010
0001
0000
,  // measure 25
1000
0010
0000
0100
0001
0000
0010
0000
0100
0000
1000
0000
0010
0100
0001
0000
,  // measure 26
0010
0001
0000
1000
0001
0000
0010
0000
0100
0000
1000
0000
0010
0100
0001
0000
,  // measure 27
1000
0001
0000
0010
0100
0000
1000
0000
0001
0000
0010
0000
0001
1000
0100
0000
,  // measure 28
0010
0100
0000
0010
0001
0000
1000
0000
0010
0000
0100
0000
0001
1000
0100
0000
,  // measure 29
0010
0010
0001
0001
0100
0100
0010
0010
,  // measure 30
1000
0000
1000
0000
0001
0000
0001
0000
0010
0100
1000
0001
0100
0010
1000
0001
,  // measure 31
0100
0010
0100
0010
0000
0000
1000
0001
0000
0010
0000
0100
1000
0000
0000
0000
,  // measure 32
0001
1000
0001
1000
0000
0000
0010
1000
0000
0010
0000
0100
0001
0000
0000
0000
,  // measure 33
0100
0010
0000
0010
1000
0000
0100
0000
0010
0000
0001
0000
1000
0000
0100
0000
,  // measure 34
0010
0001
0010
0001
1000
0010
1000
0010
0100
0000
0001
0000
1000
0000
0100
0000
,  // measure 35
0010
0001
0000
0001
1000
0000
0100
0000
1000
0000
0010
0000
0100
0000
0001
0000
,  // measure 36
0100
0001
0100
0001
1000
0100
1000
0100
0010
0000
0001
0000
1000
0000
0010
0000
,  // measure 37
0100
0100
0010
0010
1000
1000
0001
0001
,  // measure 38
0010
0010
0100
0100
1000
1000
0001
0001
,  // measure 39
0010
0010
0001
0001
1000
1000
0100
0100
,  // measure 40
1000
0010
1000
0010
1000
0010
1000
0010
0100
0001
0100
0001
0100
0001
0100
0001
,  // measure 41
1000
0100
0010
0001
0010
0100
2000
0000
0000
0000
0000
3000
1001
0000
0000
0000
,  // measure 42
0001
0010
0100
1000
0100
0010
0002
0000
0000
0000
0000
0003
1001
0000
0000
0000
,  // measure 43
1000
0001
0010
0100
0010
0001
1000
0000
0000
0000
1010
0000
0000
0101
0000
0000
,  // measure 44
1000
0010
0100
0000
0001
1000
0100
0000
0010
0100
0000
1100
0000
0011
0000
0000
,  // measure 45
0010
0001
1000
0001
0100
0010
0200
0000
0000
0000
0000
0300
0110
0000
0000
0000
,  // measure 46
0100
0001
0010
0001
1000
0100
0020
0000
0000
0000
0000
0030
0110
0000
0000
0000
,  // measure 47
0010
0001
1000
0001
0100
0010
1000
0000
0000
0000
1100
0000
0000
0101
0000
0000
,  // measure 48
0001
0010
0001
0010
0001
0010
0001
0010
0100
1000
0100
1000
0100
1000
0100
1000
,  // measure 49
0001
0000
0000
1000
0000
0000
0000
1001
0000
0000
0000
0000
0000
0000
0000
0000
;
