#VERSION:0.83;
#TITLE:HYPER EUROBEAT;
#SUBTITLE:;
#ARTIST:NAOKI feat. DDR ALL STARS;
#TITLETRANSLIT:;
#SUBTITLETRANSLIT:;
#ARTISTTRANSLIT:;
#GENRE:;
#ORIGIN:;
#CREDIT:;
#BANNER:HYPER EUROBEAT-bn.png;
#BACKGROUND:HYPER EUROBEAT-bg.png;
#PREVIEWVID:;
#JACKET:HYPER EUROBEAT-jacket.png;
#CDIMAGE:;
#DISCIMAGE:;
#LYRICSPATH:;
#CDTITLE:;
#MUSIC:HYPER EUROBEAT.ogg;
#OFFSET:0.000000;
#SAMPLESTART:38.645000;
#SAMPLELENGTH:20.000000;
#SELECTABLE:YES;
#DISPLAYBPM:152.000000;
#BPMS:0.000=152.542,
4.000=152.002;
#STOPS:;
#DELAYS:;
#WARPS:;
#TIMESIGNATURES:0.000=4=4;
#TICKCOUNTS:0.000=4;
#COMBOS:0.000=1;
#SPEEDS:0.000=1.000=0.000=0;
#SCROLLS:0.000=1.000;
#FAKES:;
#LABELS:0.000=Song Start;
#BGCHANGES:;
#KEYSOUNDS:;
#ATTACKS:
;

//---------------dance-single - ----------------
#NOTEDATA:;
#CHARTNAME:;
#STEPSTYPE:dance-single;
#DESCRIPTION:;
#CHARTSTYLE:;
#DIFFICULTY:Beginner;
#METER:3;
#RADARVALUES:0.159400,0.213736,0.160836,0.000000,0.000000,111.000000,95.000000,16.000000,0.000000,0.000000,0.000000,0.000000,0.000000,0.000000,0.159400,0.213736,0.160836,0.000000,0.000000,111.000000,95.000000,16.000000,0.000000,0.000000,0.000000,0.000000,0.000000,0.000000;
#CREDIT:;
#DISPLAYBPM:152.000000;
#NOTES:
0000
0000
0000
0000
,
0000
0000
0000
0000
,
0000
0000
0000
0000
,
0100
0000
0100
0000
,
0010
0000
0010
0000
,
0100
0000
0010
0000
,
0100
0000
0010
0000
,
1001
0000
1000
0000
,
0001
0000
1001
0000
,
0001
0000
0010
0000
,
1000
0000
1001
0000
,
0001
0000
0010
0000
,
1000
0000
1001
0000
,
0010
0000
0010
0000
,
0100
0000
0100
0000
,
0010
0000
0010
0000
,
0100
0000
1001
0000
,
0001
0000
0001
0000
,
0001
0000
0000
0000
,
1000
0000
1000
0000
,
1000
0000
0000
0000
,
0001
0000
0000
0000
,
1000
0000
0000
0000
,
0001
0000
0000
0000
,
1001
0000
0000
0000
,
0001
0000
0010
0000
,
1000
0000
1001
0000
,
0001
0000
0010
0000
,
1000
0000
1001
0000
,
0010
0000
0010
0000
,
0100
0000
0100
0000
,
0010
0000
0000
0000
,
0100
0000
0000
0000
,
1001
0000
0000
0000
,
1001
0000
0000
0000
,
1000
0000
0001
0000
,
0010
0010
0010
0010
,
0010
0000
0000
0000
,
1000
0000
0000
0000
,
0100
0000
0000
0000
,
0100
0000
0000
0000
,
0010
0000
0000
0000
,
0001
0000
0000
0000
,
0100
0000
0000
0000
,
0100
0000
0000
0000
,
0110
0000
0000
0000
,
0001
0000
1000
0000
,
0010
0000
1000
0000
,
0100
0000
1001
0000
,
0010
0000
0000
0000
,
0010
0000
0000
0000
,
0100
0000
0100
0000
,
0010
0010
0010
0000
,
0001
0000
0100
0000
,
1000
0000
0100
0000
,
1001
0000
0000
0000
,
1001
0000
0000
0000
,
1001
0000
0000
0000
,
0110
0000
0000
0000
,
0001
0000
0010
0000
,
1000
0000
0100
0100
,
0000
0000
0000
0000
;

//---------------dance-single - ----------------
#NOTEDATA:;
#CHARTNAME:;
#STEPSTYPE:dance-single;
#DESCRIPTION:;
#CHARTSTYLE:;
#DIFFICULTY:Easy;
#METER:4;
#RADARVALUES:0.261359,0.366405,0.080418,0.130680,0.000000,182.000000,174.000000,8.000000,13.000000,0.000000,0.000000,0.000000,0.000000,0.000000,0.261359,0.366405,0.080418,0.130680,0.000000,182.000000,174.000000,8.000000,13.000000,0.000000,0.000000,0.000000,0.000000,0.000000;
#CREDIT:;
#DISPLAYBPM:152.000000;
#NOTES:
0000
0000
0000
0000
,
0000
0000
0000
0000
,
0000
0000
0000
0000
,
1000
1000
0100
0010
,
0001
0000
1000
0000
,
0001
0100
1000
0000
,
1000
0100
0001
0000
,
0001
0100
1000
0010
,
0001
0100
2002
3003
,
0010
0001
0100
0000
,
0010
0001
0100
0000
,
0010
1000
0100
0100
,
0010
1000
0200
0300
,
0010
0001
0100
0010
,
0010
1000
0100
0010
,
0010
0001
0100
0010
,
0010
1000
1000
0000
,
0001
0000
0100
0000
,
0010
0000
0100
0000
,
0001
0010
1000
0100
,
0001
0010
1000
0100
,
0002
0000
0000
0000
,
0200
0000
0000
0303
,
0001
0010
1000
0100
,
0002
0000
0000
0003
,
0010
1000
1000
0100
,
0010
0001
0001
0100
,
0010
1000
0010
1000
,
0010
0001
0100
1000
,
0010
0001
0001
0100
,
0010
1000
1000
0100
,
0010
0001
0010
0001
,
0010
1000
0100
0001
,
1000
0100
0001
0000
,
1000
0100
0001
0000
,
1000
1001
0001
1001
,
0010
1000
0100
0001
,
1001
0000
0000
0000
,
0010
0000
0100
0000
,
0010
1000
0100
0001
,
0220
0000
0000
0330
,
1001
0000
0000
0000
,
0010
0000
0100
0000
,
0010
1000
0100
0001
,
0220
0000
0000
0330
,
1000
0000
0001
0000
,
1000
0100
0001
0000
,
0010
1000
1000
0100
,
0010
0001
0100
1000
,
0010
0001
0001
0100
,
0010
1000
1000
0100
,
0010
0000
0010
0000
,
0010
1000
0200
0300
,
1000
0100
0001
0000
,
1000
0100
0001
0000
,
2000
0000
0000
3000
,
0002
0000
0000
0003
,
1000
0000
0100
0000
,
0001
0000
0100
0000
,
1000
0100
0001
0010
,
1000
1001
0001
0001
,
0000
0000
0000
0000
;

//---------------dance-single - ----------------
#NOTEDATA:;
#CHARTNAME:;
#STEPSTYPE:dance-single;
#DESCRIPTION:;
#CHARTSTYLE:;
#DIFFICULTY:Medium;
#METER:6;
#RADARVALUES:0.340341,0.397756,0.140732,0.160836,0.000000,237.000000,223.000000,14.000000,16.000000,0.000000,0.000000,0.000000,0.000000,0.000000,0.340341,0.397756,0.140732,0.160836,0.000000,237.000000,223.000000,14.000000,16.000000,0.000000,0.000000,0.000000,0.000000,0.000000;
#CREDIT:;
#DISPLAYBPM:152.000000;
#NOTES:
0000
0000
0000
0000
,
0000
0000
0000
0000
,
0000
0000
0000
0000
,
1000
0000
0100
0000
,
0001
0001
0100
0100
,
0010
1000
0010
0001
,
0100
1000
0100
0001
,
0010
1000
0010
0010
,
0001
0100
2000
3000
,
0100
0010
0001
0000
1000
0000
0100
0000
,
0010
0100
1000
1000
,
0002
0000
0100
0103
,
2000
0000
0100
3100
,
0001
0000
0100
0000
0001
1000
0100
0000
,
0001
0000
0100
0000
1000
0001
0100
0000
,
0001
0010
1000
0100
,
0002
0000
2000
3003
,
0010
0001
0100
0001
,
0010
0001
0100
0001
,
0010
1000
0100
0001
,
0010
1000
0100
0001
,
0010
0001
0100
0000
0010
0000
0100
0000
,
0010
0001
0100
0000
0010
0000
0100
0000
,
0010
1000
0100
0001
,
0020
0000
0100
0130
,
1000
0001
0100
0000
0101
0000
0001
0000
,
0001
1000
0100
0000
1100
0000
1000
0000
,
0010
0010
1000
0100
,
0002
0000
2000
3003
,
0010
0001
0100
0000
0010
0000
0100
0000
,
0010
0010
1000
0100
,
0001
0101
1000
1100
,
0010
0001
0100
1000
,
0010
1000
1000
0100
,
0010
0100
0001
0010
,
2000
0000
0100
3100
,
0001
0101
1000
1100
,
2000
0000
0100
3000
,
0002
0000
0100
0003
,
2000
0000
0100
3000
,
0002
0000
0100
0003
,
1000
1000
0100
0100
,
0001
0010
1000
0100
,
0001
0001
0100
0100
,
1000
0010
0001
0100
,
2000
0000
3100
1100
,
1000
0001
0100
0000
0101
0000
0001
0000
,
0010
0010
1000
0100
,
0002
0000
2000
3003
,
0010
0001
0100
0000
0010
0000
0100
0000
,
0010
0010
1000
0100
,
0001
0101
1000
1100
,
0010
0001
0100
1000
,
0010
1000
1000
0100
,
0010
0001
0001
0100
,
1000
0100
0001
0100
,
1000
0100
0001
0100
,
0010
1000
0100
0000
1100
0000
1000
0000
,
1000
0001
0100
0000
0101
0000
0001
0000
,
1000
1100
0001
0101
,
1000
0000
0100
0000
0001
0000
1000
0100
,
0000
0000
0000
0000
;

//---------------dance-single - ----------------
#NOTEDATA:;
#CHARTNAME:;
#STEPSTYPE:dance-single;
#DESCRIPTION:;
#CHARTSTYLE:;
#DIFFICULTY:Hard;
#METER:10;
#RADARVALUES:0.483945,0.520142,0.442300,0.211098,0.105549,337.000000,293.000000,44.000000,21.000000,0.000000,0.000000,0.000000,0.000000,0.000000,0.483945,0.520142,0.442300,0.211098,0.105549,337.000000,293.000000,44.000000,21.000000,0.000000,0.000000,0.000000,0.000000,0.000000;
#CREDIT:;
#DISPLAYBPM:152.000000;
#NOTES:
0000
0000
0000
0000
,
0000
0000
0000
0000
,
0000
0000
0000
0000
,
1100
0000
1010
0000
0100
0001
0010
1000
,
0020
0000
0030
0001
0010
0000
1000
0000
,
0001
0000
0000
0100
0000
0000
1000
0000
0010
0000
0000
0000
1100
0000
0000
0000
,
0001
0000
0000
0100
0000
0000
1000
0000
0010
0000
0000
0000
1100
0000
0000
0000
,
1001
0000
0000
0000
0110
0000
0000
0000
1000
0000
0000
0001
0000
0000
0100
0000
,
0001
0000
0000
1000
0000
0000
0100
0000
0010
0000
0000
0000
0110
0000
0000
0000
,
0001
0000
0000
0100
0000
0000
1000
0000
0020
0000
0000
0000
0031
0000
0000
0000
,
1000
0000
0000
0100
0000
0000
0001
0000
0020
0000
0000
0000
1030
0000
0000
0000
,
0011
0000
1100
0000
0010
0100
1000
0010
,
0200
0000
0000
0010
0310
0000
0101
0000
,
1010
0000
0101
0000
0010
0100
0001
0010
,
0200
0000
0000
0010
0310
0000
1100
0000
,
0010
0001
0100
0000
0010
0001
0100
0000
,
0010
0000
0000
1000
0000
0000
1001
0000
0000
0000
1000
0000
0100
0000
0000
0000
,
0001
0000
0000
0100
0000
0000
1000
0000
0001
0000
0000
0100
0000
0000
1000
0000
,
0001
0000
0000
0100
0000
0000
1000
0000
0000
0000
0001
0000
0100
0000
0000
0000
,
0010
1000
0001
0000
0001
1000
0100
0000
,
0001
0000
0000
0100
0000
0000
1000
0000
0000
0000
0001
0000
0100
0000
0000
0000
,
0001
0000
0000
0100
0000
0000
1000
0000
0000
0000
0001
0000
0100
0000
0000
0000
,
0001
0000
0000
0100
0000
0000
1000
0000
0000
0000
0001
0000
0100
0000
0000
0000
,
1000
0100
0001
0010
1000
0000
0110
0000
,
2002
3003
1100
0101
,
2200
0000
3300
0100
0001
0000
1100
0000
,
0001
0100
0000
1000
0100
0000
0101
0000
,
1000
0100
0000
0110
0000
0100
0001
0000
,
0202
0000
0303
0100
1000
0000
1100
0000
,
0010
0100
0001
1000
0000
0100
0010
0000
,
0010
0000
0000
0001
0000
0000
0100
0000
0000
0000
0001
0000
0010
0000
0000
0000
,
1000
0010
0001
0100
1000
0000
0001
0100
,
0000
1000
0100
0001
0000
1000
0100
0000
,
0001
0100
0000
1000
0100
0001
0000
1000
,
0100
0000
1001
0000
0010
0001
0000
0001
,
0100
1000
1100
0001
,
0010
0001
0010
0100
0010
1000
0010
0000
,
0020
0000
0000
0100
0000
0000
0030
0010
,
1000
0000
0010
0000
0010
0000
0001
0200
,
0000
1300
0100
0000
0110
0000
0101
0000
,
1001
0000
0010
0000
0100
0001
1000
0100
,
0020
0000
0000
0100
0000
0000
0030
0010
,
0001
0000
0010
0000
0010
0000
1000
0200
,
0000
0301
0100
0000
0110
0000
1100
0000
,
1001
0010
0100
1000
,
2002
0000
3003
1000
0001
0000
1001
0000
,
0010
1000
0000
1000
0100
0000
1001
0000
,
0010
0001
0000
0001
0100
0000
1001
0000
,
2002
0000
3003
0001
1000
0000
1001
0000
,
0010
0100
0001
1000
0000
0100
0010
0000
,
0100
0000
0000
0001
0000
0000
1000
0000
0000
0000
0100
0000
0001
0000
0000
0000
,
0001
0100
1000
0010
0001
0000
1000
0100
,
0000
0001
0100
1000
0000
0001
0100
0000
,
1000
0100
0000
0001
0100
1000
0000
0001
,
0100
0000
1001
0000
0010
1000
0000
1000
,
0200
0000
0000
0010
0310
0000
1001
0000
,
0020
1000
0100
0031
,
1001
0000
0000
0000
0001
0000
0000
0000
0001
0000
0000
0100
0000
0000
1000
0000
,
0001
0000
0000
0000
1001
0000
0000
0000
0001
0000
0000
0100
0000
0000
1000
0000
,
0001
1001
0010
1001
,
1000
0100
0000
1000
0100
0000
0001
0100
0000
0001
0100
0000
1000
0000
0100
0000
,
0000
0000
0000
0000
;

//---------------dance-double - ----------------
#NOTEDATA:;
#CHARTNAME:;
#STEPSTYPE:dance-double;
#DESCRIPTION:;
#CHARTSTYLE:;
#DIFFICULTY:Easy;
#METER:6;
#RADARVALUES:0.291516,0.396939,0.211098,0.120627,0.000000,203.000000,182.000000,21.000000,12.000000,0.000000,0.000000,0.000000,0.000000,0.000000,0.291516,0.396939,0.211098,0.120627,0.000000,203.000000,182.000000,21.000000,12.000000,0.000000,0.000000,0.000000,0.000000,0.000000;
#CREDIT:;
#DISPLAYBPM:152.000000;
#NOTES:
00000000
00000000
00000000
00000000
,
00000000
00000000
00000000
00000000
,
00000000
00000000
00000000
00000000
,
00000100
00000000
00001000
00000000
,
00010000
01000000
10000000
00000000
,
00010000
00010000
01000000
01000000
,
10000000
10000000
01000000
01000000
,
00010000
00001000
00000100
00000001
,
00000010
00001000
00010000
00000000
,
00100000
00000000
00001000
00000000
,
00100000
00000000
00001000
00000000
,
00100000
00010000
00001000
00000000
,
00100000
00000000
00001000
00000000
,
00000010
00000010
00010000
00010000
,
00000010
00000000
00010000
00000000
,
00000010
00000010
00010000
00010000
,
00000010
00000001
00000100
00000000
,
00000110
00001000
00010000
00001000
,
00000110
00001000
00010000
00001000
,
00000110
00001000
00010000
01000000
,
10000000
10000000
00010000
00010000
,
01100000
00010000
02000000
03000000
,
01100000
00010000
02000000
03000000
,
01100000
00010000
00001000
00000100
,
00000002
00000000
00000000
00000003
,
00000001
00000001
00000100
00001000
,
00010000
00010000
01000000
10000000
,
01000000
00010000
00001000
00000100
,
00001000
00010000
02000000
03000000
,
10000000
10000000
01000000
00010000
,
00001000
00000100
00000002
00000003
,
00000010
00001000
00010000
00010010
,
00001000
00000100
00000020
00000030
,
00000001
00000000
00000100
00000000
,
00000010
00000000
00000100
00000000
,
00002000
00000000
00000000
00000000
,
00010000
00000000
00010000
00003000
,
00010010
00000000
00001000
00000000
,
00010010
00000000
00001000
00000000
,
00020010
00001000
00000010
00031000
,
00000010
00000001
00000100
00001000
,
00010000
00000000
00000100
00000000
,
00010000
00000000
00000100
00000000
,
00012000
00000100
00010000
00003100
,
00010000
01000000
10000000
00100000
,
10000000
10000000
01000000
00010000
,
00001000
00001000
00000100
00000001
,
00000110
00001000
00010000
01100000
,
00010000
01100000
20000000
30000000
,
00100000
00010000
00001000
00000010
,
00000110
00001000
00020000
00030000
,
00010010
00001010
00010010
00001010
,
00000100
00001000
00020000
00030000
,
00001000
00000000
00000100
00000000
,
00001000
00000000
00010000
00000000
,
01000000
00000000
01000000
00000000
,
00001000
00000000
00001000
00000000
,
00001000
00000100
00000001
00000110
,
00001000
00010000
01000000
01100000
,
10000000
00100000
01000000
00100000
,
00010000
00001000
00000100
00000100
,
00000000
00000000
00000000
00000000
;

//---------------dance-double - ----------------
#NOTEDATA:;
#CHARTNAME:;
#STEPSTYPE:dance-double;
#DESCRIPTION:;
#CHARTSTYLE:;
#DIFFICULTY:Medium;
#METER:9;
#RADARVALUES:0.361882,0.397756,0.130680,0.221150,0.000000,252.000000,239.000000,13.000000,22.000000,0.000000,0.000000,0.000000,0.000000,0.000000,0.361882,0.397756,0.130680,0.221150,0.000000,252.000000,239.000000,13.000000,22.000000,0.000000,0.000000,0.000000,0.000000,0.000000;
#CREDIT:;
#DISPLAYBPM:152.000000;
#NOTES:
00000000
00000000
00000000
00000000
,
00000000
00000000
00000000
00000000
,
00000000
00000000
00000000
00000000
,
00000010
00000010
00000100
00000100
,
00000100
00001000
00010000
01000000
,
10000000
11000000
00010000
01010000
,
00100000
00010000
01000000
10000000
,
00100000
00100000
01000000
01000000
,
01000000
00010000
00001000
00000100
,
00000010
00010000
00002000
00000000
00000010
00000000
00013000
00000000
,
00100000
00020000
00001000
00000000
00100000
00000000
00031000
00000000
,
00010000
01000000
10000000
01100000
,
10000000
01000000
00010000
00001000
,
00100000
00000000
01000000
00000000
00100000
00001000
00010000
00000000
,
00000010
00000000
00000100
00000000
00000010
00010000
00001000
00000000
,
00000010
00000001
00000100
00001000
,
00010000
00001000
00000200
00000300
,
00000010
00000100
00001000
00010000
,
01000000
00001000
02000000
00000000
,
10000000
10000000
00010000
03010000
,
10000000
11000000
00010000
01010000
,
00100000
00020000
00002000
00033000
,
00000010
00002000
00020000
00033000
,
00100000
00010000
00001000
00000010
,
00000200
00000000
00000010
00000310
,
00000010
00002000
00010000
00000000
00000100
00000000
00003100
00000000
,
00000001
00000101
00001000
00010000
,
00100000
00010000
00001000
00000100
,
00001000
00010000
02000000
03000000
,
00001000
00020000
01000000
00000000
00001000
00000000
01030000
00000000
,
00001000
00000100
00000002
00000000
,
00000010
00000010
00000100
00000103
,
00001000
00010000
02000000
03000000
,
00001000
00000000
01000000
00000000
00010000
00001000
00000100
00000000
,
00010000
00000000
00000100
00000000
00001000
00010000
01000000
00000000
,
00100000
01000000
00010000
00001000
,
00000100
00000001
00000010
00001000
,
00000010
00001000
00010000
00001000
,
00000010
00000001
00000100
00001000
,
00020000
00000000
00100000
00130000
,
00001000
00001000
00000100
00000100
,
00000100
00001000
00010000
00001000
,
00000100
00000001
00000010
00001000
,
00010000
01100000
00010000
00001000
,
00000100
00000101
00000010
00001100
,
00000001
00000200
00001000
00000000
00000001
00000000
00001300
00000000
,
00010000
02000000
10000000
00000000
00010000
00000000
13000000
00000000
,
00100000
10000000
01000000
00010000
,
00001000
00010000
01000000
01100000
,
01000000
00020000
00001000
00000000
01000000
00000000
00031000
00000000
,
01000000
00020000
00001000
00000000
01000000
00000000
00031000
00000000
,
00000010
00001000
00010000
01000000
,
00010000
00001000
00000200
00000300
,
00000110
00000000
00001000
00000000
00010000
00001000
00000100
00000000
,
00010000
00000000
00000100
00000000
00001000
00010000
01000000
00000000
,
00100000
01000000
00010000
00001000
,
00000100
00000001
00000010
00001000
,
00100000
00001000
00020000
00000000
01000000
00000000
00031000
00000000
,
01000000
00020000
00001000
00000000
01000000
00000000
00031000
00000000
,
00100000
00110000
10000000
11000000
,
00010000
00000000
00001000
00000000
00000100
00000000
00000001
00000010
,
00000000
00000000
00000000
00000000
;

//---------------dance-double - ----------------
#NOTEDATA:;
#CHARTNAME:;
#STEPSTYPE:dance-double;
#DESCRIPTION:;
#CHARTSTYLE:;
#DIFFICULTY:Hard;
#METER:10;
#RADARVALUES:0.449480,0.489546,0.361882,0.180941,0.085444,313.000000,277.000000,36.000000,18.000000,0.000000,0.000000,0.000000,0.000000,0.000000,0.449480,0.489546,0.361882,0.180941,0.085444,313.000000,277.000000,36.000000,18.000000,0.000000,0.000000,0.000000,0.000000,0.000000;
#CREDIT:;
#DISPLAYBPM:152.000000;
#NOTES:
00000000
00000000
00000000
00000000
,
00000000
00000000
00000000
00000000
,
00000000
00000000
00000000
00000000
,
00100000
00000000
01000000
00000000
00100000
10000000
01000000
00010000
,
00002000
00000000
00003000
00001000
00000100
00000000
00000001
00000000
,
00000010
00000000
00000000
00010000
00000000
00000000
00001000
00000000
00000010
00000000
00000000
00000000
00000110
00000000
00000000
00000000
,
00000100
00000000
00000000
00010000
00000000
00000000
00001000
00000000
00000100
00000000
00000000
00000000
00000110
00000000
00000000
00000000
,
00001001
00000000
00000000
00000000
00000110
00000000
00000000
00000000
00000100
00000000
00000000
00001000
00000000
00000000
00010000
00000000
,
01000000
00000000
00000000
00010000
00000000
00000000
00001000
00000000
00010000
00000000
00000000
00000000
01000000
00000000
00000000
00000000
,
10000000
00000000
00000000
00100000
00000000
00000000
00010000
00000000
00001000
00000000
00000000
00000000
01010000
00000000
00000000
00000000
,
10000000
00000000
00000000
01000000
00000000
00000000
00010000
00000000
00001000
00000000
00000000
00000000
00110000
00000000
00000000
00000000
,
11000000
00000000
00110000
00000000
10000000
01000000
00010000
00001000
,
00000200
00000000
00000300
00000100
00001000
00000000
00000110
00000000
,
00000101
00000000
00001010
00000000
00000001
00000100
00001000
00010000
,
02000000
00000000
03000000
01000000
00010000
00000000
01100000
00000000
,
21000000
00010000
00100000
30010000
,
00100000
00000000
00000000
00010000
00000000
00000000
00001000
00000000
00000000
00000000
00000010
00000000
00001000
00000000
00000000
00000000
,
00010000
00000000
00000000
01000000
00000000
00000000
00010000
00000000
00010000
00000000
00000000
00001000
00000000
00000000
00010000
00000000
,
00010000
00000000
00000000
01000000
00000000
00000000
00010000
00000000
00000000
00000000
00010000
00000000
00001000
00000000
00000000
00000000
,
00000010
00000000
00000001
00000000
00000001
00000100
00001000
00000000
,
00010000
00000000
00000000
01000000
00000000
00000000
00010000
00000000
00000000
00000000
00010000
00000000
00001000
00000000
00000000
00000000
,
00001000
00000000
00000000
00000100
00000000
00000000
00001000
00000000
00000000
00000000
00010000
00000000
01000000
00000000
00000000
00000000
,
00001000
00000000
00000000
00000100
00000000
00000000
00001000
00000000
00000000
00000000
00010000
00000000
01000000
00000000
00000000
00000000
,
00001000
00000100
00000001
00000010
,
00002000
00000000
00010000
00013000
,
00000010
00010000
00000000
00001000
00000010
00000000
00000110
00000000
,
00000100
00010000
00000000
00001000
00000100
00000000
00000110
00000000
,
00000100
00001000
00000000
00011000
00000000
00010000
01000000
00000000
,
01100000
00000000
10000000
01000000
00010000
00000000
11000000
00000000
,
10000000
00100000
00010000
00001000
00000000
00100000
00010000
00000000
,
10000000
00000000
00000000
01000000
00000000
00000000
00010000
00000000
00000000
00000000
00100000
00000000
00001000
00000000
00000000
00000000
,
00110000
00000000
00101000
00000000
00110000
00000000
00100000
00001000
,
00000000
00010000
00000010
00001000
00000000
00001000
00000100
00000000
,
00000010
00010000
00000000
00001000
00100000
00010000
00000000
00010000
,
01000000
00000000
11000000
00000000
01000000
00010000
00000000
00002000
,
00000100
00010000
00000010
00023000
,
01000000
00001000
00100000
00031000
,
00020000
00000000
00000000
02030000
00000000
00000000
03000000
01000000
,
10000000
00000000
00110000
00000000
01000000
00000000
00001000
00010000
,
00000000
02000000
00000000
03000000
00010000
00000000
00001000
00000000
,
01000000
00000000
10000000
01000000
00000000
10000000
00100000
00010000
,
00002000
00000000
00000000
00003200
00000000
00000000
00000300
00000100
,
00000001
00000000
00001010
00000000
00000100
00000000
00010000
00001000
,
00000000
00020000
01000000
00000000
00001000
00000000
00130000
00000000
,
10000000
01000000
00010000
00001000
,
00000020
00000000
00000030
00000010
00001000
00000000
00011000
00000000
,
01000000
00010000
00000000
00001000
00000100
00000000
00000110
00000000
,
00000100
00001000
00000000
00010000
01000000
00000000
01100000
00000000
,
00200000
00000000
00300000
00100000
00010000
00000000
00011000
00000000
,
00001000
00000010
00000001
00000100
00000000
00001000
00000100
00000000
,
00010000
00000000
00000000
01000000
00000000
00000000
10000000
00000000
00000000
00000000
00010000
00000000
02000000
00000000
00000000
00000000
,
10000000
00000000
00100000
00000000
03010000
00000000
10000000
01000000
,
00000000
00100000
00010000
00001000
00000000
00100000
00010000
00000000
,
10000000
01000000
00000000
00100000
00010000
00001000
00000000
00100000
,
00010000
00000000
11000000
00000000
00100000
00001000
00000000
00001000
,
02000000
00000000
03000000
01000000
10000000
00000000
01100000
00000000
,
00020000
00001000
01000000
00031000
,
00010010
00000000
00000000
00000000
00001100
00000000
00000000
00000000
00001000
00000000
00000000
00000010
00000000
00000000
00010000
00000000
,
00010010
00000000
00000000
00000000
00001100
00000000
00000000
00000000
00001000
00000000
00000000
00000010
00000000
00000000
00010000
00000000
,
00010010
00001010
00000001
00000100
,
00001000
00000000
00001000
00000000
00010000
00000000
01000000
10000000
,
00000000
00000000
00000000
00000000
;

//---------------dance-single - ----------------
#NOTEDATA:;
#CHARTNAME:;
#STEPSTYPE:dance-single;
#DESCRIPTION:;
#CHARTSTYLE:;
#DIFFICULTY:Challenge;
#METER:13;
#RADARVALUES:0.654834,0.673125,0.180941,0.000000,0.281464,456.000000,438.000000,18.000000,0.000000,0.000000,0.000000,0.000000,0.000000,0.000000,0.654834,0.673125,0.180941,0.000000,0.281464,456.000000,438.000000,18.000000,0.000000,0.000000,0.000000,0.000000,0.000000,0.000000;
#CREDIT:;
#DISPLAYBPM:152.000000;
#NOTES:
// measure 0
0000
0000
0000
0000
,  // measure 1
0000
0000
0000
0000
,  // measure 2
0000
0000
0000
0000
,  // measure 3
1010
0000
0101
0001
1000
0010
1000
0001
,  // measure 4
0010
0100
1000
0001
0100
0010
1000
0000
,  // measure 5
0010
1000
0100
0010
0001
0100
0001
0000
,  // measure 6
1000
0001
0010
0100
1000
0010
0100
0000
,  // measure 7
0110
0000
0001
1000
0100
1000
0010
0100
,  // measure 8
0001
0000
1000
0100
1000
0100
1000
0100
1000
0000
0000
0000
1001
0000
0000
0000
,  // measure 9
0010
1000
0000
1000
0100
0000
0010
0000
0001
0000
1000
0000
0100
0000
0000
0000
,  // measure 10
1000
0001
0000
0001
0100
0000
0010
0000
1000
0000
0001
0000
0100
0000
0000
0000
,  // measure 11
1001
0000
0001
1000
0100
0010
0100
0010
,  // measure 12
0001
0100
0000
0100
0010
0000
1000
0000
0100
0000
0010
0000
0011
0000
0000
0000
,  // measure 13
1100
0000
0101
0000
1000
0001
0010
0100
,  // measure 14
1000
0010
0100
0001
0010
0100
1000
0001
,  // measure 15
0100
0000
0010
1000
0010
0100
0001
1000
,  // measure 16
1100
0000
0000
0110
0000
0000
0011
0000
0000
0000
1000
0001
1000
0001
1000
0001
,  // measure 17
1000
0000
0000
0010
0100
0000
0001
0000
0010
0000
0000
0100
1000
0000
0001
0000
,  // measure 18
0101
0000
0000
1001
0000
0000
1010
0000
0000
0000
0001
0000
1000
0000
0010
0000
,  // measure 19
0100
0000
0001
1000
0001
0010
0100
0000
,  // measure 20
1000
0001
0000
0001
0100
0000
0010
0000
1000
0000
0001
0000
0010
0000
0000
0000
,  // measure 21
0100
1000
0000
1000
0001
0000
0100
0000
0010
0000
1000
0000
0001
0000
0000
0000
,  // measure 22
0010
0001
0000
0001
1000
0000
0010
0000
1000
0000
0100
0000
0010
0000
0000
0000
,  // measure 23
0001
0100
0010
1000
0100
0010
0001
1000
,  // measure 24
0010
0000
0100
0000
0100
0000
0000
0000
0001
1000
0000
0000
1000
0001
0000
0000
,  // measure 25
0001
0100
0000
0100
0010
0000
1000
0000
0100
0000
0010
0000
0001
0000
0000
0000
,  // measure 26
1000
0010
0000
0010
0100
0000
0001
0000
0010
0000
0100
0000
1000
0000
0000
0000
,  // measure 27
0010
0100
0000
0100
0001
0000
0010
0000
0100
0000
1000
0000
0001
0000
1000
0000
,  // measure 28
0010
0100
0010
1000
0100
0010
0001
0000
,  // measure 29
0010
0100
1000
0010
1000
0001
0100
0000
,  // measure 30
0001
1000
0010
0100
0010
1000
0001
0000
,  // measure 31
0010
0001
1000
0001
0010
0100
1000
0010
,  // measure 32
0100
0010
0100
0001
0010
0100
1000
0000
,  // measure 33
0001
1000
0000
0001
1000
0000
0000
0000
0010
0000
0100
0000
0001
0000
0010
0000
,  // measure 34
0100
1000
0000
0100
1000
0000
0000
0000
0010
0000
1000
0000
0001
0000
0010
0000
,  // measure 35
0100
1000
0000
1000
0001
0000
0000
0000
0010
0001
0000
0100
0010
0000
0000
0000
,  // measure 36
1000
0001
0010
0100
1000
0010
0100
0001
,  // measure 37
0010
0001
0100
0010
1000
0100
0001
0000
,  // measure 38
1000
0001
0010
0100
1000
0010
0100
0000
,  // measure 39
0010
1000
0001
0010
0001
1000
0100
0000
,  // measure 40
0010
0100
0010
0001
0100
0010
1000
0000
,  // measure 41
0001
0010
0001
0100
0010
1000
0001
0000
,  // measure 42
1000
0010
0001
0100
0010
1000
0001
0000
,  // measure 43
0010
0100
1000
0010
0100
0001
1000
0000
,  // measure 44
0001
0000
1000
0000
1000
0000
0000
0000
0010
0100
0000
0000
0100
0010
0000
0000
,  // measure 45
0010
1000
0100
0010
0001
1000
1001
0000
,  // measure 46
0010
1000
0000
0001
0100
0000
0010
0000
1000
0000
0100
0000
0001
0000
0000
0000
,  // measure 47
0010
0100
0000
1000
0001
0000
0100
0000
0010
0000
1000
0000
0001
0000
1000
0000
,  // measure 48
0001
0010
0100
1000
0010
0100
0001
0000
,  // measure 49
0010
0100
0010
0001
1000
0010
0100
0000
,  // measure 50
0001
1000
0010
0100
0001
0010
0100
0000
,  // measure 51
1000
0001
0010
0100
0010
0001
1000
0010
,  // measure 52
0100
0010
1000
0100
0010
0001
1000
0000
,  // measure 53
0010
1000
0000
0100
0001
0000
0000
0000
1000
0000
0001
0000
0100
0000
0010
0000
,  // measure 54
1000
0100
0000
0010
0001
0000
0000
0000
1000
0000
0001
0000
0100
0000
0010
0000
,  // measure 55
1000
0001
0010
0100
1000
0010
0110
0000
,  // measure 56
1000
0001
0010
0100
0010
0001
1000
0001
,  // measure 57
0100
0010
0000
1000
0100
0000
0000
0000
1000
0000
0001
0000
0010
0000
0100
0000
,  // measure 58
0010
0001
0000
0100
0001
0000
0000
0000
1000
0000
0010
0000
0100
0000
0001
0000
,  // measure 59
0010
0100
1000
0001
1000
0010
0100
0001
,  // measure 60
1000
0100
0000
0100
0001
0000
1000
0010
0000
0010
0001
0000
0101
0000
1100
0000
;
