#TITLE:HELPLESS;
#SUBTITLE:;
#ARTIST:TAEKO;
#TITLETRANSLIT:;
#SUBTITLETRANSLIT:;
#ARTISTTRANSLIT:;
#GENRE:;
#CREDIT:;
#BANNER:HELPLESS.png;
#BACKGROUND:HELPLESS-bg.png;
#LYRICSPATH:;
#CDTITLE:;
#MUSIC:HELPLESS.ogg;
#OFFSET:0.000000;
#SAMPLESTART:2.993000;
#SAMPLELENGTH:15.000000;
#SELECTABLE:YES;
#DISPLAYBPM:140.000000;
#BPMS:0.000000=139.992996
;
#STOPS:
;
#BGCHANGES:;
#KEYSOUNDS:;
#ATTACKS:;

//---------------dance-single - ----------------
#NOTES:
     dance-single:
     :
     Beginner:
     3:
     0.133915,0.167854,0.035153,0.000000,0.000000,80.000000,77.000000,3.000000,0.000000,0.000000,0.000000,0.133915,0.167854,0.035153,0.000000,0.000000,80.000000,77.000000,3.000000,0.000000,0.000000,0.000000:
0000
0000
0000
0000
,
0000
0000
0000
0000
,
0000
0000
0000
0000
,
0000
0000
0000
0000
,
0000
0000
0000
0000
,
1001
0000
0000
1000
,
0000
0001
0000
0001
,
0000
0100
0000
0100
,
0000
0010
0000
0010
,
0000
1000
0000
1000
,
0000
0100
0000
0100
,
0000
0010
0000
0010
,
0000
0001
0000
0001
,
0000
0100
0000
0100
,
0000
0001
0000
0001
,
0000
0001
0000
0001
,
0000
0010
0000
0010
,
0000
0001
0000
0001
,
0000
0100
0000
0100
,
0000
0100
0000
0100
,
0000
0001
0000
0001
,
0000
0001
0000
0001
,
0000
0010
0000
0010
,
0000
0010
0000
0010
,
0000
1000
0000
1000
,
0000
0001
0000
0001
,
0000
0100
0000
0100
,
0000
0001
0000
0010
,
0000
0000
0000
1001
,
0000
0000
0000
0001
,
0000
0000
0000
0001
,
0000
0000
0000
0100
,
0000
0000
0000
0100
,
0000
0000
0000
0100
,
0000
0000
0000
0001
,
0000
0000
0000
0010
,
0000
0000
0000
1000
,
0000
0010
0000
0010
,
0000
1000
0000
1000
,
0000
1000
0000
1000
,
0000
0100
0000
0100
,
0000
1000
0000
1000
,
0000
0010
0000
0010
,
0000
0010
0000
0010
,
0000
1000
0000
1000
,
0000
1000
0000
0001
,
0000
1000
0000
0001
,
0000
1000
0000
1001
;

//---------------dance-single - ----------------
#NOTES:
     dance-single:
     :
     Easy:
     5:
     0.239373,0.279757,0.046870,0.093740,0.000000,143.000000,139.000000,4.000000,8.000000,0.000000,0.000000,0.239373,0.279757,0.046870,0.093740,0.000000,143.000000,139.000000,4.000000,8.000000,0.000000,0.000000:
0000
0000
0000
0000
,
0000
0000
0000
0000
,
0000
0000
0000
0000
,
0000
0000
0000
0000
,
0000
0000
0000
0000
,
1001
1000
0000
1000
,
0000
0001
0000
0001
,
0000
0100
0000
0100
,
0000
0010
0000
0010
,
0000
1000
0000
1000
,
0000
0100
0000
0100
,
0000
0010
0000
0010
,
0000
0001
0000
0001
,
1000
0100
1000
0100
,
0010
0001
0010
0001
,
0100
0001
0100
0001
,
1000
0010
1000
0010
,
0100
0001
0100
0001
,
0010
0100
0010
0100
,
1000
0100
1000
0100
,
0010
0001
0010
0001
,
1000
0001
1000
0001
,
0100
0010
0100
0010
,
1000
0010
1000
0010
,
0100
1000
0100
1000
,
0100
0001
0100
0001
,
1000
0100
1000
0100
,
0010
0001
0100
0010
,
1001
0000
0000
1001
,
2000
0000
3000
0001
,
0200
0000
0300
0001
,
0020
0000
0030
0100
,
2000
0000
3000
0100
,
0002
0000
0003
0100
,
0020
0000
0030
0001
,
2000
0000
3000
0010
,
0200
0000
0300
1000
,
0001
0010
0001
0010
,
0100
1000
0100
1000
,
0010
1000
0010
1000
,
0001
0100
0001
0100
,
0010
1000
0010
1000
,
0100
0010
0100
0010
,
0001
0010
0001
0010
,
0100
1000
0100
1000
,
0010
1000
0100
0001
,
0100
1000
0010
0001
,
0010
1000
0100
1001
;

//---------------dance-single - ----------------
#NOTES:
     dance-single:
     :
     Medium:
     8:
     0.334787,0.363684,0.046870,0.456985,0.181622,200.000000,196.000000,4.000000,39.000000,0.000000,0.000000,0.334787,0.363684,0.046870,0.456985,0.181622,200.000000,196.000000,4.000000,39.000000,0.000000,0.000000:
0000
0000
0000
0000
,
0000
0000
0000
0000
,
0000
0000
0000
0000
,
0000
0000
0000
0000
,
0000
0000
0000
0000
,
0010
1000
0001
1000
,
0010
0100
0001
0100
,
0010
1000
0010
0100
,
0001
1000
0001
0010
,
0200
0000
0000
0310
0000
0000
0000
0000
0002
0000
0000
1003
0000
0000
0000
0000
,
0020
0000
0000
0130
0000
0000
0001
0000
2000
0000
0000
3100
0000
0000
0000
0000
,
0020
0000
0000
0031
0000
0000
0000
0000
0200
0000
0000
0310
0000
0000
0000
0000
,
2000
0000
0000
3001
0000
0000
1000
0000
0000
1001
0000
0000
0000
0000
0000
0000
,
2000
0100
0001
3100
,
0020
0001
0100
0031
,
0200
1000
0010
1300
,
0020
1000
0100
1030
,
0002
0010
1000
0013
,
0200
1000
0010
1300
,
0020
0100
0001
0130
,
2000
0001
0010
3001
,
0010
0100
0001
0000
1000
0000
0010
0000
,
0100
0001
1000
0000
0100
0000
0010
0000
,
0001
1000
0100
0000
0010
0000
0100
0000
,
1000
0001
0100
0000
0010
0000
1000
0000
,
0010
0100
0001
0000
0010
0000
0100
0000
,
1000
0001
0100
0000
0010
0000
0100
0000
,
0001
1000
0100
0000
0010
0000
1001
0000
,
0000
0000
0001
0000
1000
0000
0000
0001
0000
0000
0000
0000
1001
0000
0000
0000
,
1000
0002
0000
0103
0000
0001
0100
0000
,
0010
2000
0000
3001
0000
1000
0001
0000
,
0010
0200
0000
1300
0000
0100
1000
0000
,
0010
0200
0000
0301
0000
0100
0001
0000
,
0010
2000
0000
3001
0000
1000
0001
0000
,
0100
0002
0000
1003
0000
0001
1000
0000
,
0100
0020
0000
0031
0000
0010
0001
0000
,
0100
0020
0000
1030
0000
0010
1000
0000
,
0200
0000
0000
0310
0000
0000
0000
0000
0002
0000
0000
1003
0000
0000
0000
0000
,
0020
0000
0000
0130
0000
0000
0001
0000
2000
0000
0000
3100
0000
0000
0000
0000
,
0020
0000
0000
0031
0000
0000
0000
0000
0200
0000
0000
0310
0000
0000
0000
0000
,
2000
0000
0000
3001
0000
0000
1000
0000
0200
0000
0000
0310
0000
0000
0000
0000
,
0020
0000
0000
0130
0000
0000
0000
0000
2000
0000
0000
3001
0000
0000
0000
0000
,
0200
0000
0000
0310
0000
0000
1000
0000
0002
0000
0000
0013
0000
0000
0000
0000
,
0200
0000
0000
1300
0000
0000
0000
0000
0020
0000
0000
0130
0000
0000
0000
0000
,
0002
0000
0000
1003
0000
0000
0001
0000
0020
0000
0000
0130
0000
0000
0000
0000
,
0010
0000
0000
1000
0000
0000
0001
0000
0100
0000
0000
0000
0001
0000
0000
1000
,
0000
0000
0000
0100
0000
0000
0010
0000
0000
0000
0000
0000
0001
0000
0000
0000
1000
0000
0000
0000
0001
0000
0000
0000
,
1000
0000
0001
0000
1000
0000
0001
0000
0000
1001
0000
0000
;

//---------------dance-single - ----------------
#NOTES:
     dance-single:
     :
     Hard:
     11:
     0.475398,0.559513,0.304657,0.082023,0.539008,284.000000,258.000000,26.000000,7.000000,0.000000,0.000000,0.475398,0.559513,0.304657,0.082023,0.539008,284.000000,258.000000,26.000000,7.000000,0.000000,0.000000:
// measure 0
0000
0000
0000
0000
,  // measure 1
0000
0000
0000
0000
,  // measure 2
0000
0000
0000
0000
,  // measure 3
0000
0000
0000
0000
,  // measure 4
0000
0000
0000
0000
,  // measure 5
1010
0010
0010
0010
,  // measure 6
0101
0100
0100
0100
,  // measure 7
1001
1000
1000
1000
,  // measure 8
0110
0010
0010
0010
,  // measure 9
0001
0000
1000
0100
0000
1000
0000
0001
0000
1000
0000
0010
1000
0000
0001
0000
,  // measure 10
0100
0000
0010
0100
0000
0001
0000
0100
0000
1000
0000
0100
0010
0000
1000
0000
,  // measure 11
0100
0000
0010
0001
0000
0100
0000
0001
0000
1000
0000
0001
0010
0000
0100
0000
,  // measure 12
1000
0000
0001
1000
0000
0001
0000
1000
0000
1001
0000
0000
0000
0000
0000
0000
,  // measure 13
1000
0000
0000
0000
1000
0000
0000
0000
1000
0000
0000
0001
0100
0000
0000
0000
,  // measure 14
0010
0000
0000
0000
0010
0000
0000
0000
0010
0000
0000
1000
0001
0000
0000
0000
,  // measure 15
0100
0000
0000
0000
0100
0000
0000
0000
0100
0000
0000
0010
1000
0000
0000
0000
,  // measure 16
0001
0000
0000
0000
0001
0000
0000
0000
0001
0000
0000
0100
0010
0000
0000
0000
,  // measure 17
1000
0000
0000
0000
1000
0000
0000
0000
1000
0000
0000
0010
0100
0000
0000
0000
,  // measure 18
0001
0000
0000
0000
0001
0000
0000
0000
0001
0000
0000
1000
0100
0000
0000
0000
,  // measure 19
0010
0000
0000
0000
0010
0000
0000
0000
0010
0000
0000
0001
1000
0000
0000
0000
,  // measure 20
0100
0000
0000
0000
0100
0000
0000
0000
0100
0000
0000
0010
0001
0000
0000
0000
,  // measure 21
2000
0000
0000
0000
3001
0000
0000
0000
1001
0000
0000
1000
0010
0000
0000
0000
,  // measure 22
0200
0000
0000
0000
0301
0000
0000
0000
0101
0000
0000
0001
0010
0000
0000
0000
,  // measure 23
0200
0000
0000
0000
1300
0000
0000
0000
1100
0000
0000
1000
0001
0000
0000
0000
,  // measure 24
0200
0000
0000
0000
0310
0000
0000
0000
0110
0000
0000
0010
1000
0000
0000
0000
,  // measure 25
0002
0000
0000
0000
0103
0000
0000
0000
0101
0000
0000
0001
1000
0000
0000
0000
,  // measure 26
0200
0000
0000
0000
0310
0000
0000
0000
0110
0000
0000
0010
0001
0000
0000
0000
,  // measure 27
2000
0000
0000
0000
3001
0000
0000
0000
1001
0000
0000
0001
0010
0000
0000
0000
,  // measure 28
0000
0000
0100
0000
1000
0001
0000
0100
0000
0000
0000
0000
1001
0000
0000
0000
,  // measure 29
1000
0000
0000
1000
0000
0000
1000
0000
0000
0000
0001
0000
0100
0000
0000
0000
,  // measure 30
0010
0000
0000
0010
0000
0000
0010
0000
0000
0000
1000
0000
0001
0000
0000
0000
,  // measure 31
0010
0000
0000
0010
0000
0000
0010
0000
0000
0000
0100
0000
1000
0000
0000
0000
,  // measure 32
0001
0000
0000
0001
0000
0000
0001
0000
0000
0000
0100
0000
0010
0000
0000
0000
,  // measure 33
1010
0000
0000
1010
0000
0000
1010
0000
0000
0000
0100
0000
0001
0000
0000
0000
,  // measure 34
0101
0000
0000
0101
0000
0000
0101
0000
0000
0000
0001
0000
0010
0000
0000
0000
,  // measure 35
0011
0000
0000
0011
0000
0000
0011
0000
0000
0000
1000
0000
0100
0000
0000
0000
,  // measure 36
1100
0000
0000
1100
0000
0000
1100
0000
0000
0000
1000
0000
0001
0000
0000
0000
,  // measure 37
1000
0000
0001
0010
0000
0001
0000
1000
0000
0001
0000
0100
0001
0000
1000
0000
,  // measure 38
0010
0000
0100
0010
0000
1000
0000
0010
0000
0001
0000
0010
0100
0000
0001
0000
,  // measure 39
0010
0000
0100
1000
0000
0010
0000
1000
0000
0001
0000
1000
0100
0000
0010
0000
,  // measure 40
0001
0000
1000
0001
0000
0010
0000
0001
0000
0100
0000
0001
1000
0000
0010
0000
,  // measure 41
0001
0000
1000
0100
0000
1000
0000
0001
0000
1000
0000
0010
1000
0000
0001
0000
,  // measure 42
0100
0000
0010
0100
0000
0001
0000
0100
0000
1000
0000
0100
0010
0000
1000
0000
,  // measure 43
0100
0000
0010
0001
0000
0100
0000
0001
0000
1000
0000
0001
0010
0000
0100
0000
,  // measure 44
1000
0000
0001
1000
0000
0010
0000
1000
0000
0100
0000
1000
0001
0000
0000
0000
,  // measure 45
0010
0100
0000
1000
0000
0000
0001
0000
0001
0000
0000
0000
0010
0100
0000
0001
,  // measure 46
0000
0000
0000
1000
0000
0000
1000
0000
0000
0000
0000
0000
0001
0000
0000
0000
1000
0000
0000
0000
0100
0000
0000
0000
,  // measure 47
1000
0000
0001
0000
0100
0000
0001
0000
0000
1001
0000
0000
;

//---------------dance-double - ----------------
#NOTES:
     dance-double:
     :
     Easy:
     5:
     0.252764,0.279757,0.046870,0.093740,0.000000,151.000000,147.000000,4.000000,8.000000,0.000000,0.000000,0.252764,0.279757,0.046870,0.093740,0.000000,151.000000,147.000000,4.000000,8.000000,0.000000,0.000000:
00000000
00000000
00000000
00000000
,
00000000
00000000
00000000
00000000
,
00000000
00000000
00000000
00000000
,
00000000
00000000
00000000
00000000
,
00000000
00000000
00000000
00000000
,
10010000
10000000
00000000
10000000
,
00000000
00010000
00000000
00010000
,
00000000
01000000
00000000
01000000
,
00000000
00001000
00000000
00001000
,
00000000
00010000
00000000
00010000
,
00000000
00000010
00000000
00000010
,
00000000
00000100
00000000
00000100
,
00000000
00000001
00000000
00000001
,
00001000
00000010
00001000
00000010
,
00010000
00001000
00010000
00001000
,
01000000
00010000
01000000
00010000
,
10000000
01000000
10000000
01000000
,
00100000
00010000
00100000
00010000
,
00100000
01000000
00100000
01000000
,
00010000
00001000
00010000
00001000
,
00000100
00001000
00000100
00001000
,
00000100
00000001
00000100
00000001
,
00001000
00000010
00001000
00000010
,
00010000
00001000
00010000
00001000
,
00100000
00010000
00100000
00010000
,
10000000
01000000
10000000
01000000
,
00010000
01000000
00010000
01000000
,
00100000
00001000
00100000
00001000
,
00011000
00000000
00000000
00011000
,
00002000
00003000
00010000
00010000
,
00000200
00000300
00001000
00001000
,
00000020
00000030
00000100
00000100
,
00002000
00003000
00010000
00010000
,
02000000
03000000
10000000
10000000
,
00200000
00300000
01000000
01000000
,
00002000
00003000
00010000
00010000
,
00000200
00000300
00000001
00000001
,
00001000
00000010
00001000
00000010
,
00010000
00001000
00010000
00001000
,
01000000
00010000
01000000
00010000
,
10000000
01000000
10000000
01000000
,
00100000
00010000
00100000
00010000
,
00100000
01000000
00100000
01000000
,
00010000
00001000
00010000
00001000
,
00000100
00001000
00000100
00001000
,
00000100
00000001
00000100
00000001
,
00000100
00001000
00010000
00100000
,
10000000
01000000
00010000
00011000
;

//---------------dance-double - ----------------
#NOTES:
     dance-double:
     :
     Medium:
     8:
     0.336461,0.391659,0.199199,0.410115,0.199199,201.000000,184.000000,17.000000,35.000000,0.000000,0.000000,0.336461,0.391659,0.199199,0.410115,0.199199,201.000000,184.000000,17.000000,35.000000,0.000000,0.000000:
00000000
00000000
00000000
00000000
,
00000000
00000000
00000000
00000000
,
00000000
00000000
00000000
00000000
,
00000000
00000000
00000000
00000000
,
00000000
00000000
00000000
00000000
,
00100000
10000000
00100000
10000000
,
00010000
00100000
00010000
00100000
,
00001000
00010000
00001000
00010000
,
00000010
00001000
00000010
00001000
,
00000200
00000000
00000000
00000310
00000000
00000000
00000000
00000000
00000002
00000000
00000000
00001003
00000000
00000000
00000000
00000000
,
00000020
00000000
00000000
00000130
00000000
00000000
00001000
00000000
00020000
00000000
00000000
01030000
00000000
00000000
00000000
00000000
,
00200000
00000000
00000000
00310000
00000000
00000000
00000000
00000000
20000000
00000000
00000000
31000000
00000000
00000000
00000000
00000000
,
00020000
00000000
00000000
00031000
00000000
00000000
00010000
00000000
00000000
00011000
00000000
00000000
00000000
00000000
00000000
00000000
,
00002000
00000100
00000100
00003100
,
00000020
00000001
00000001
00000031
,
00000200
00001000
00001000
00001300
,
00020000
00001000
00001000
00031000
,
02000000
00100000
00100000
03100000
,
20000000
00010000
00010000
30010000
,
00200000
01000000
01000000
01300000
,
00020000
00001000
00001000
00031000
,
00010000
00011000
00001000
00000110
,
00000001
00001001
00001000
00001100
,
00001000
00011000
00010000
01010000
,
01000000
11000000
10000000
10010000
,
00100000
01100000
00010000
00011000
,
00001000
00001100
00000100
00000110
,
00000001
00001001
00000100
00001100
,
00000000
00000000
00010000
00000000
00001000
00000000
00000000
00010000
00000000
00000000
00000000
00000000
00011000
00000000
00000000
00000000
,
00020000
00000000
00000000
01030000
00000000
10000000
00010000
00000000
,
00200000
00000000
00000000
01300000
00000000
00010000
00001000
00000000
,
00000200
00000000
00000000
00000310
00000000
00000100
00000001
00000000
,
00000020
00000000
00000000
00001030
00000000
00000010
00000001
00000000
,
00000100
00000000
00000000
00000100
00000000
00000000
00000100
00000000
00000000
00000000
00000010
00000000
00001000
00000000
00000000
00000000
,
00000100
00000000
00000000
00000100
00000000
00000000
00000100
00000000
00000000
00000000
00000010
00000000
00001000
00000000
00000000
00000000
,
00010000
00000000
00000000
00010000
00000000
00000000
00010000
00000000
00000000
00000000
00100000
00000000
10000000
00000000
00000000
00000000
,
01000000
00000000
00000000
01000000
00000000
00000000
01000000
00000000
00000000
00000000
00010000
00000000
01000000
00000000
00000000
00000000
,
00200000
00000000
00000000
01300000
00000000
00000000
00000000
00000000
20000000
00000000
00000000
30010000
00000000
00000000
00000000
00000000
,
02000000
00000000
00000000
03100000
00000000
00000000
00010000
00000000
00002000
00000000
00000000
00003010
00000000
00000000
00000000
00000000
,
00000200
00000000
00000000
00001300
00000000
00000000
00000000
00000000
00000002
00000000
00000000
00000013
00000000
00000000
00000000
00000000
,
00002000
00000000
00000000
00013000
00000000
00000000
00001000
00000000
00020000
00000000
00000000
01030000
00000000
00000000
00000000
00000000
,
20000000
00000000
00000000
30100000
00000000
00000000
00000000
00000000
02000000
00000000
00000000
03010000
00000000
00000000
00000000
00000000
,
00200000
00000000
00000000
01300000
00000000
00000000
00010000
00000000
00002000
00000000
00000000
00013000
00000000
00000000
00000000
00000000
,
00000200
00000000
00000000
00001300
00000000
00000000
00000000
00000000
00000020
00000000
00000000
00000130
00000000
00000000
00000000
00000000
,
00000002
00000000
00000000
00001003
00000000
00000000
00000100
00000000
00020000
00000000
00000000
00031000
00000000
00000000
00000000
00000000
,
00000010
00000000
00000000
00001000
00000000
00000000
00010000
00000000
00001000
00000000
00000000
00000000
00000100
00000000
00000000
00001000
,
00000000
00000000
00000000
00010000
00000000
00000000
00001000
00000000
00000000
00000000
00000000
00000000
00001000
00000000
00000000
00000000
00000000
00000000
00000000
00000000
01000000
00000000
00000000
00000000
,
00010000
00000000
00001000
00000000
00000100
00000000
00001000
00000000
00000000
00011000
00000000
00000000
;

//---------------dance-double - ----------------
#NOTES:
     dance-double:
     :
     Hard:
     12:
     0.482094,0.559513,0.351527,0.082023,0.539008,288.000000,258.000000,30.000000,7.000000,0.000000,0.000000,0.482094,0.559513,0.351527,0.082023,0.539008,288.000000,258.000000,30.000000,7.000000,0.000000,0.000000:
00000000
00000000
00000000
00000000
,
00000000
00000000
00000000
00000000
,
00000000
00000000
00000000
00000000
,
00000000
00000000
00000000
00000000
,
00000000
00000000
00000000
00000000
,
00000011
00000010
00000010
00000010
,
00001100
00000100
00000100
00000100
,
00011000
00001000
00001000
00001000
,
00110000
00100000
00100000
00100000
,
00010000
00000000
10000000
01000000
00000000
00100000
00000000
01000000
00000000
00010000
00000000
01000000
10000000
00000000
00010000
00000000
,
01000000
00000000
00100000
00010000
00000000
00001000
00000000
00010000
00000000
00000100
00000000
00010000
00001000
00000000
00000100
00000000
,
00000010
00000000
00000100
00000001
00000000
00001000
00000000
00000001
00000000
00000010
00000000
00000001
00000100
00000000
00001000
00000000
,
00010000
00000000
00001000
00100000
00000000
00001000
00000000
00010000
00000000
00011000
00000000
00000000
00000000
00000000
00000000
00000000
,
00001000
00000000
00000000
00000000
00001000
00000000
00000000
00000000
00001000
00000000
00000000
00010000
00100000
00000000
00000000
00000000
,
01000000
00000000
00000000
00000000
01000000
00000000
00000000
00000000
01000000
00000000
00000000
00010000
10000000
00000000
00000000
00000000
,
01000000
00000000
00000000
00000000
01000000
00000000
00000000
00000000
01000000
00000000
00000000
00010000
00001000
00000000
00000000
00000000
,
00010000
00000000
00000000
00000000
00010000
00000000
00000000
00000000
00010000
00000000
00000000
00001000
00000100
00000000
00000000
00000000
,
00000010
00000000
00000000
00000000
00000010
00000000
00000000
00000000
00000010
00000000
00000000
00001000
00000100
00000000
00000000
00000000
,
00010000
00000000
00000000
00000000
00010000
00000000
00000000
00000000
00010000
00000000
00000000
00001000
00100000
00000000
00000000
00000000
,
00010000
00000000
00000000
00000000
00010000
00000000
00000000
00000000
00010000
00000000
00000000
00100000
01000000
00000000
00000000
00000000
,
10000000
00000000
00000000
00000000
10000000
00000000
00000000
00000000
10000000
00000000
00000000
00100000
01000000
00000000
00000000
00000000
,
00020000
00000000
00000000
00000000
00130000
00000000
00000000
00000000
00110000
00000000
00000000
00001000
00010000
00000000
00000000
00000000
,
00002000
00000000
00000000
00000000
00003100
00000000
00000000
00000000
00001100
00000000
00000000
00000100
00000010
00000000
00000000
00000000
,
00002000
00000000
00000000
00000000
00003001
00000000
00000000
00000000
00001001
00000000
00000000
00001000
00000100
00000000
00000000
00000000
,
00020000
00000000
00000000
00000000
00031000
00000000
00000000
00000000
00011000
00000000
00000000
00001000
00100000
00000000
00000000
00000000
,
00020000
00000000
00000000
00000000
01030000
00000000
00000000
00000000
01010000
00000000
00000000
00010000
10000000
00000000
00000000
00000000
,
02000000
00000000
00000000
00000000
03100000
00000000
00000000
00000000
01100000
00000000
00000000
00100000
00010000
00000000
00000000
00000000
,
00200000
00000000
00000000
00000000
00301000
00000000
00000000
00000000
00101000
00000000
00000000
00001000
00010000
00000000
00000000
00000000
,
00000000
00000000
00001000
00000000
00010000
00001000
00000000
00010000
00000000
00000000
00000000
00000000
00011000
00000000
00000000
00000000
,
00001000
00000000
00000000
00001000
00000000
00000000
00001000
00000000
00000000
00000000
00000100
00000000
00000001
00000000
00000000
00000000
,
00000010
00000000
00000000
00000010
00000000
00000000
00000010
00000000
00000000
00000000
00001000
00000000
00010000
00000000
00000000
00000000
,
00100000
00000000
00000000
00100000
00000000
00000000
00100000
00000000
00000000
00000000
01000000
00000000
00010000
00000000
00000000
00000000
,
10000000
00000000
00000000
10000000
00000000
00000000
10000000
00000000
00000000
00000000
01000000
00000000
00100000
00000000
00000000
00000000
,
00110000
00000000
00000000
00110000
00000000
00000000
00110000
00000000
00000000
00000000
00100000
00000000
00001000
00000000
00000000
00000000
,
00011000
00000000
00000000
00011000
00000000
00000000
00011000
00000000
00000000
00000000
00010000
00000000
00000100
00000000
00000000
00000000
,
00001100
00000000
00000000
00001100
00000000
00000000
00001100
00000000
00000000
00000000
00000100
00000000
00000010
00000000
00000000
00000000
,
00000011
00000000
00000000
00000011
00000000
00000000
00000011
00000000
00000000
00000000
00000010
00000000
00000100
00000000
00000000
00000000
,
00001000
00000000
00000001
00000010
00000000
00000100
00000000
00000010
00000000
00001000
00000000
00000010
00000001
00000000
00001000
00000000
,
00000010
00000000
00000100
00001000
00000000
00010000
00000000
00001000
00000000
00100000
00000000
00001000
00010000
00000000
01000000
00000000
,
00100000
00000000
01000000
10000000
00000000
00010000
00000000
10000000
00000000
01000000
00000000
10000000
00100000
00000000
00010000
00000000
,
00001000
00000000
00010000
00000100
00000000
00001000
00000000
00000100
00000000
00010000
00000000
00000100
00001000
00000000
00000010
00000000
,
00001000
00000000
00000001
00000100
00000000
00000010
00000000
00000100
00000000
00001000
00000000
00000100
00000001
00000000
00001000
00000000
,
00000100
00000000
00000010
00001000
00000000
00010000
00000000
00001000
00000000
00100000
00000000
00001000
00010000
00000000
01000000
00000000
,
00100000
00000000
01000000
10000000
00000000
00010000
00000000
10000000
00000000
00100000
00000000
10000000
01000000
00000000
00010000
00000000
,
00001000
00000000
00010000
00000010
00000000
00001000
00000000
00000010
00000000
00010000
00000000
00000010
00001000
00000000
00000000
00000000
,
00000010
00000100
00000000
00001000
00000000
00000000
00011000
00000000
00011000
00000000
00000000
00000000
00100000
01000000
00000000
00010000
,
00000000
00000000
00000000
00011000
00000000
00000000
00011000
00000000
00000000
00000000
00000000
00000000
00001000
00000000
00000000
00000000
00010000
00000000
00000000
00000000
01000000
00000000
00000000
00000000
,
00010000
00000000
00001000
00000000
00000100
00000000
00001000
00000000
00000000
00011000
00000000
00000000
;

//---------------dance-single - ----------------
#NOTES:
     dance-single:
     :
     Challenge:
     14:
     0.713097,0.699392,0.328092,0.046870,1.007710,426.000000,398.000000,28.000000,4.000000,0.000000,0.000000,0.713097,0.699392,0.328092,0.046870,1.007710,426.000000,398.000000,28.000000,4.000000,0.000000,0.000000:
0000
0000
0000
0000
,
0000
0000
0000
0000
,
0000
0000
0000
0000
,
0000
0000
0000
0000
,
0000
0000
0000
0000
,
1000
0000
0010
0100
0010
0100
0000
0001
0000
0010
0000
0001
1000
0000
0100
0000
,
0010
0000
0001
0100
0001
0100
0000
0010
0000
1000
0000
0100
1000
0000
0001
0000
,
0100
0000
0001
1000
0001
1000
0000
0010
0000
1000
0000
0100
0010
0000
0001
0000
,
0100
0000
0001
0010
0001
0010
0000
0100
1000
0000
1010
0000
0000
1001
0000
0000
,
0011
0000
0001
0100
0001
0100
0000
0010
0000
1000
0000
0001
1000
0000
0100
0000
,
0010
0000
0100
1000
0100
1000
0000
0010
0000
1000
0000
0001
0100
0000
0010
0000
,
0100
0000
0001
0010
0001
0010
0000
0001
0000
1000
0000
0010
1000
0000
0100
0000
,
0010
0000
0001
0100
0000
0010
0000
1000
0000
0000
0110
0000
0001
0000
1000
0000
,
0101
0000
0010
0000
0100
0000
0000
0001
0010
0000
0100
0000
1000
0001
0000
1000
,
0010
0000
1000
0000
0001
0000
0000
0010
0001
0000
0100
0000
0010
1000
0000
0100
,
1000
0000
0001
0000
0010
0000
0000
0100
0010
0000
0001
0000
1000
0001
0000
0100
,
0001
0000
0010
0000
0100
1000
0000
1000
0020
0000
0000
0230
0000
0000
0301
0000
,
1001
0000
1000
0000
0010
0100
0000
0100
0001
0000
0000
1000
0000
0000
0010
0000
,
1000
0000
0001
0000
0010
0001
0000
1000
0100
0000
0000
0010
0000
0000
0100
0000
,
1000
0000
0010
0000
0100
0001
0000
0001
1000
0000
0000
0010
0000
0000
0100
0000
,
0001
0000
0010
0000
0001
0000
1000
0000
0020
0000
0000
0230
0000
0000
0301
0000
,
1000
0010
0000
0010
1000
0000
0000
0100
0010
0000
0001
0000
0001
1000
0000
0000
,
0010
0100
0000
0100
0010
0000
0000
1000
0001
0000
0100
0000
0100
0001
0000
0000
,
0010
0001
0000
0001
0010
0000
0000
0100
1000
0000
0001
0000
0001
0100
0000
0000
,
0001
1000
0001
0010
0100
1000
0001
0100
,
0001
0000
1000
0000
0010
0100
0010
0000
1000
0000
0100
0000
0010
0000
0001
0000
,
0100
0000
0010
0000
1000
0001
1000
0000
0001
0000
0010
0000
0100
0000
1000
0000
,
0010
0000
0100
0000
0010
1000
0010
0000
1000
0000
0001
0000
0100
0000
0001
0000
,
0010
0000
0100
0000
0100
1000
0000
0001
0000
0000
0101
0000
1100
0000
0000
0000
,
1001
0000
0001
0010
0001
0100
0000
0010
0000
1000
0000
0001
1000
0000
0000
0000
,
1100
0000
1000
0010
1000
0100
0000
0010
0000
0001
0000
1000
0001
0000
0000
0000
,
0110
0000
0001
0010
0001
0010
0000
0001
0000
0100
0000
0010
1000
0000
0000
0000
,
1100
0000
1000
0010
1000
0010
0000
0100
0000
0010
0000
0100
0001
0000
0000
0000
,
0011
0000
0001
1000
0001
1000
0000
0010
0000
0100
0000
0010
1000
0000
0000
0000
,
1100
0000
0010
0100
0010
0100
0000
0001
0000
0010
0000
0001
1000
0000
0000
0000
,
1001
0000
0100
0010
0100
0010
0000
1000
0000
0100
0000
1000
0001
0000
0000
0000
,
0011
0000
0001
0100
0001
0100
0000
0010
0000
0100
0000
0010
1000
0000
0000
0000
,
0100
0000
1000
0001
1000
0010
0100
0001
0000
0010
0000
0100
0010
0001
1000
0000
,
0010
0000
0100
0001
0100
0001
0010
0100
0000
1000
0000
0001
1000
0010
1000
0000
,
0010
0000
1000
0100
1000
0001
0100
0001
0000
0010
0000
0001
0100
0010
1000
0000
,
0100
0000
0010
0001
1000
0001
1000
0010
0000
0100
0000
0010
0100
0001
1000
0000
,
0100
0000
0010
0001
1000
0001
0010
0001
0000
1000
0000
0010
0100
1000
0100
0000
,
0001
0000
0010
0100
0010
0001
1000
0010
0000
0100
0000
0001
1000
0100
1000
0000
,
0001
0000
0100
0010
0100
0010
0100
0001
0000
1000
0000
0010
1000
0001
1000
0000
,
0010
0000
1000
0001
1000
0100
0010
0100
0000
0010
0000
0001
1000
0001
0100
0000
,
0001
1000
0000
0010
0000
0000
0110
0000
0110
0000
0000
0000
0100
0001
0000
0010
,
0000
0000
0000
1001
0000
0000
1001
0000
0000
0000
0000
0000
0101
0000
0000
0000
1100
0000
0000
0000
0101
0000
0000
0000
,
1100
0000
0101
0000
1100
0000
0101
0000
0000
1001
0000
0000
;
