#VERSION:0.83;
#TITLE:HAPPY☆ANGEL;
#SUBTITLE:;
#ARTIST:jun with TAHIRIH;
#TITLETRANSLIT:HAPPY ANGEL;
#SUBTITLETRANSLIT:;
#ARTISTTRANSLIT:;
#GENRE:;
#ORIGIN:;
#CREDIT:;
#BANNER:HAPPY ANGEL-bn.png;
#BACKGROUND:HAPPY ANGEL-bg.png;
#PREVIEWVID:;
#JACKET:HAPPY ANGEL-jacket.png;
#CDIMAGE:;
#DISCIMAGE:;
#LYRICSPATH:;
#CDTITLE:;
#MUSIC:HAPPY ANGEL.ogg;
#OFFSET:0.000000;
#SAMPLESTART:31.173000;
#SAMPLELENGTH:20.000000;
#SELECTABLE:YES;
#DISPLAYBPM:180.000000;
#BPMS:0.000=180.000;
#STOPS:;
#DELAYS:;
#WARPS:;
#TIMESIGNATURES:0.000=4=4;
#TICKCOUNTS:0.000=4;
#COMBOS:0.000=1;
#SPEEDS:0.000=1.000=0.000=0;
#SCROLLS:0.000=1.000;
#FAKES:;
#LABELS:0.000=Song Start;
#BGCHANGES:;
#KEYSOUNDS:;
#ATTACKS:
;

//---------------dance-single - ----------------
#NOTEDATA:;
#CHARTNAME:;
#STEPSTYPE:dance-single;
#DESCRIPTION:;
#CHARTSTYLE:;
#DIFFICULTY:Beginner;
#METER:4;
#RADARVALUES:0.192840,0.251102,0.009999,0.000000,0.000000,135.000000,134.000000,1.000000,0.000000,0.000000,0.000000,0.000000,0.000000,0.000000,0.192840,0.251102,0.009999,0.000000,0.000000,135.000000,134.000000,1.000000,0.000000,0.000000,0.000000,0.000000,0.000000,0.000000;
#CREDIT:;
#DISPLAYBPM:180.000000;
#NOTES:
0000
0000
0000
0000
,
0000
0000
0000
0000
,
0000
0000
0000
0000
,
0010
0000
0000
0000
,
1000
0000
0000
0000
,
0001
0000
0000
0000
,
0100
0000
0000
0000
,
0010
0000
0010
0000
,
0001
0000
0000
0000
,
0100
0000
0100
0000
,
1000
0000
0000
0000
,
0001
0000
0001
0000
,
1000
0000
0000
0000
,
0010
0000
0100
0000
,
1000
0000
0000
0000
,
0001
0000
0100
0000
,
1000
0000
0000
0000
,
1000
0000
0010
0000
,
0001
0000
0000
0000
,
0010
0000
1000
0000
,
0001
0000
0100
0000
,
0001
0000
0000
0000
,
1000
0000
0000
0000
,
1001
0000
0000
0000
,
0010
0000
0001
0000
,
0100
0100
0100
0000
,
0010
0000
1000
0000
,
0100
0100
0100
0000
,
1000
0000
0001
0000
,
0010
0000
0100
0000
,
1000
0000
0010
0000
,
0100
0000
0010
0010
,
0010
0000
1000
0000
,
0001
0001
0001
0000
,
1000
0000
0001
0000
,
0010
0010
0010
0000
,
0100
0000
0000
0000
,
0010
0000
0000
0000
,
1000
0000
0100
0000
,
0001
0001
0001
0000
,
0010
0000
0000
0000
,
0100
0000
0000
0000
,
0001
0000
0000
0000
,
1000
0000
0000
0000
,
0010
0000
0000
0000
,
0001
0000
0000
0000
,
0100
0000
0000
0000
,
1000
1000
1000
0000
,
0100
0000
0000
0000
,
0001
0001
0001
0000
,
0010
0000
0000
0000
,
0100
0100
0100
0000
,
0010
0000
0001
0000
,
1000
0000
0100
0000
,
0001
0000
1000
0000
,
0010
0000
0100
0100
,
0100
0000
0001
0000
,
1000
1000
1000
0000
,
0010
0000
0100
0000
,
0001
0001
0001
0000
,
0100
0000
1000
0000
,
0010
0000
0001
0000
,
0100
0000
0001
0000
,
1000
0000
0001
0000
,
0010
0010
0010
0000
,
0100
0100
0100
0000
,
0001
0001
0001
0000
,
1000
1000
1000
0000
,
0001
0001
0001
0000
,
0100
0100
0100
0000
,
0010
0010
0010
0000
,
0001
0001
0000
1000
,
0000
0000
0000
0000
;

//---------------dance-single - ----------------
#NOTEDATA:;
#CHARTNAME:;
#STEPSTYPE:dance-single;
#DESCRIPTION:;
#CHARTSTYLE:;
#DIFFICULTY:Easy;
#METER:4;
#RADARVALUES:0.195697,0.287974,0.009999,0.049996,0.000000,137.000000,136.000000,1.000000,5.000000,0.000000,0.000000,0.000000,0.000000,0.000000,0.195697,0.287974,0.009999,0.049996,0.000000,137.000000,136.000000,1.000000,5.000000,0.000000,0.000000,0.000000,0.000000,0.000000;
#CREDIT:;
#DISPLAYBPM:180.000000;
#NOTES:
0000
0000
0000
0000
,
0000
0000
0000
0000
,
0000
0000
0000
0000
,
0010
0000
0000
0000
,
1000
0000
0000
0000
,
0001
0000
0000
0000
,
0100
0000
0000
0000
,
0010
0000
0010
0000
,
0001
0000
0000
0000
,
0100
0000
0100
0000
,
1000
0000
0000
0000
,
0001
0000
0001
0000
,
1000
0000
0000
0000
,
0010
0000
0100
0000
,
2000
0000
0000
3000
,
0001
0000
0100
0000
,
1000
0000
0000
0000
,
1000
0000
0010
0000
,
0001
0000
0000
0000
,
0010
0000
1000
0000
,
0001
0000
0100
0000
,
0001
0000
0000
0000
,
1000
0000
0000
0000
,
2002
0000
0000
3003
,
0010
0000
0001
0000
,
0100
0100
0100
0000
,
0010
0000
1000
0000
,
0100
0100
0100
0000
,
1000
0000
0001
0000
,
0010
0000
0100
0000
,
1000
0000
0010
0000
,
0100
0000
0010
0010
,
0010
0000
1000
0000
,
0001
0001
0001
0000
,
1000
0000
0001
0000
,
0010
0010
0010
0000
,
0100
0000
0000
0000
,
0010
0000
0000
0000
,
1000
0000
0100
0000
,
0001
0001
0001
0000
,
0010
0000
0000
0000
,
0100
0000
0000
0000
,
0001
0000
0000
0000
,
1000
0000
0000
0000
,
0010
0000
0000
0000
,
0001
0000
0000
0000
,
0100
0000
0000
0000
,
1000
1000
1000
0000
,
0200
0000
0000
0300
,
0001
0001
0001
0000
,
0020
0000
0000
0030
,
0100
0100
0100
0000
,
0010
0000
0001
0000
,
1000
0000
0100
0000
,
0001
0000
1000
0000
,
0010
0000
0100
0100
,
0100
0000
0001
0000
,
1000
1000
1000
0000
,
0010
0000
0100
0000
,
0001
0001
0001
0000
,
0100
0000
1000
0000
,
0010
0000
0001
0000
,
0100
0000
0001
0000
,
1000
0000
0001
0000
,
0010
0010
0010
0000
,
0100
0100
0100
0000
,
0001
0001
0001
0000
,
1000
1000
1000
0000
,
0001
0001
0001
0000
,
0100
0100
0100
0000
,
0010
0010
0010
0000
,
0001
0001
1000
1000
,
0001
0000
0000
0000
,
0000
0000
0000
0000
;

//---------------dance-single - ----------------
#NOTEDATA:;
#CHARTNAME:;
#STEPSTYPE:dance-single;
#DESCRIPTION:;
#CHARTSTYLE:;
#DIFFICULTY:Medium;
#METER:8;
#RADARVALUES:0.478528,0.575948,0.589947,0.239978,0.049996,335.000000,276.000000,59.000000,24.000000,0.000000,0.000000,0.000000,0.000000,0.000000,0.478528,0.575948,0.589947,0.239978,0.049996,335.000000,276.000000,59.000000,24.000000,0.000000,0.000000,0.000000,0.000000,0.000000;
#CREDIT:;
#DISPLAYBPM:180.000000;
#NOTES:
0000
0000
0000
0000
,
0000
0000
0000
0000
,
0000
0000
0000
0000
,
0010
0000
0000
0000
0100
0000
0000
1000
0000
0000
0000
0000
0001
0000
0100
0000
,
0010
0000
0000
0000
0001
0000
0000
1000
0000
0000
0000
0000
0010
0000
1000
0000
,
0100
0000
0000
0000
0010
0000
0000
0001
0000
0000
0000
0000
0100
0000
0010
0000
,
0100
1000
0100
1001
,
0010
1000
0100
0001
,
0010
0000
0100
0000
0001
1000
0010
0000
,
0100
1000
0001
0100
,
0010
0000
1000
0000
0001
1000
0100
0000
,
0001
0010
1000
0100
,
0010
0000
1000
0000
0010
0100
0001
0000
,
1000
0010
0001
0100
,
0001
1000
0010
1001
,
2020
3030
0022
0033
,
0010
0000
0100
0000
1000
0001
0010
0000
,
2200
3300
0202
0303
,
1000
0000
0100
0000
0010
0001
0010
0000
,
0202
0303
2020
3030
,
0010
0000
0100
0000
1000
0100
0010
0000
,
0001
0100
1000
0010
,
0100
0000
0001
0000
1000
0001
0100
0000
,
0020
0000
0030
1001
,
0100
0000
0010
0000
0001
0000
0010
0001
,
0100
1000
0100
1010
,
0101
0000
0010
0000
0100
0000
0001
0100
,
1000
0010
0100
1001
,
0110
0000
0001
0000
0100
0000
1000
0001
,
0100
1000
0010
0101
,
1001
0010
1001
0100
,
1010
0000
0000
0000
0001
0000
0000
0000
0010
0000
0000
0100
0000
0000
1000
0000
,
0001
0000
1000
0000
0010
0000
0100
0001
,
1000
0010
0100
0011
,
1001
0000
0010
0000
0100
0000
1000
0100
,
0001
0010
0001
0110
,
0101
0000
1000
0000
0100
0000
0010
0100
,
1000
0100
1000
0110
,
0011
0100
1001
0100
,
1010
0101
0110
1001
,
1200
0000
0000
0001
,
1000
0000
0310
1000
,
0102
0000
0000
1000
,
0010
0000
0103
0010
,
2001
0000
0100
0000
,
0001
0000
0010
3000
,
0202
0000
0000
0303
,
1000
0001
0010
0100
,
2002
0000
3003
0100
,
0001
1000
0100
0011
,
2200
0000
3300
0010
,
0001
0010
1000
0110
,
0022
0000
0033
0100
,
1000
0001
0100
0011
,
1100
0010
0101
1000
,
0110
1000
0011
1100
,
0100
0000
0001
0000
0100
0000
1000
0100
,
0001
0100
1000
0011
,
1100
0000
0010
0000
0100
0000
0001
0010
,
0100
1000
0001
1010
,
0101
0000
0010
0000
0100
0000
1000
0010
,
1000
0010
0001
0110
,
1001
0100
0011
0100
,
1010
0001
1100
1001
,
0001
0000
0000
0000
1000
0000
0000
0100
0000
0000
0000
0000
0010
0000
0001
0000
,
0100
0000
0000
0000
0001
0000
0000
0010
0000
0000
0000
0000
0001
0000
1000
0000
,
0100
0000
0000
0000
0010
0000
0000
0001
0000
0000
0000
0000
1000
0000
0010
0000
,
0100
0101
1100
0101
,
0100
0000
0000
0000
1000
0000
0000
0010
0000
0000
0000
0000
1000
0000
0100
0000
,
1000
0000
0000
0000
0001
0000
0000
0010
0000
0000
0000
0000
0100
0000
1000
0000
,
0001
0000
0000
0000
0010
0000
0000
0001
0000
0000
0000
0000
1000
0000
0010
0000
,
0100
0001
1100
0101
,
1001
0000
0000
0000
,
0000
0000
0000
0000
;

//---------------dance-single - ----------------
#NOTEDATA:;
#CHARTNAME:;
#STEPSTYPE:dance-single;
#DESCRIPTION:;
#CHARTSTYLE:;
#DIFFICULTY:Hard;
#METER:12;
#RADARVALUES:0.639942,0.611945,0.619944,0.059995,0.049996,448.000000,386.000000,62.000000,6.000000,0.000000,0.000000,0.000000,0.000000,0.000000,0.639942,0.611945,0.619944,0.059995,0.049996,448.000000,386.000000,62.000000,6.000000,0.000000,0.000000,0.000000,0.000000,0.000000;
#CREDIT:;
#DISPLAYBPM:180.000000;
#NOTES:
0000
0000
0000
0000
,
0000
0000
0000
0000
,
0000
0000
0000
0000
,
0001
0000
1000
0000
0100
0000
1000
0100
0000
0000
1000
0000
0001
0000
0010
0000
,
0100
0000
1000
0000
0010
0000
1000
0010
0000
0000
0100
0000
0001
0000
1000
0000
,
0100
0000
0010
0000
0100
0000
0010
0100
0000
0000
1000
0000
0100
0000
0010
0000
,
0100
1000
0010
0100
1000
0100
0001
0000
,
0011
1000
0110
0001
,
1010
0000
0101
0000
1000
0001
0100
0000
,
0110
1000
0101
1000
,
0011
0000
1100
0000
0001
1000
0100
0000
,
1001
0010
1001
0100
,
0110
0000
1001
0000
0010
0100
0001
0000
,
1000
0001
0010
0000
1000
0010
0100
0000
,
0001
0010
0100
1000
0010
0100
0001
0000
,
1010
0100
0011
0100
,
0010
0001
0100
1000
0100
0001
0010
0000
,
1100
0010
0101
0010
,
0100
1000
0010
0001
0010
1000
0100
0000
,
0110
1000
1010
0001
,
0010
0100
1000
0001
0100
0010
1000
0000
,
0011
1001
1100
1010
,
0110
0000
0101
0000
1000
0001
0100
0001
,
0010
1000
0100
1000
0010
0100
0001
1000
,
0100
0000
0010
0001
0000
0010
0100
0010
,
0001
0000
1000
0010
0100
0000
1010
0000
,
0101
0000
0010
0100
0000
1000
0001
0100
,
1000
0000
0010
1000
0100
0000
1001
0000
,
0110
0000
0001
0100
0000
1000
0010
1000
,
0100
1010
0110
0101
,
0010
0001
0100
0000
0001
0100
1000
0000
,
0100
0000
1000
0000
0100
0000
0001
0000
0010
0000
0000
0100
0000
0000
1000
0000
,
0001
0000
1000
0010
0000
0100
0001
1000
,
0100
0000
0010
1000
0100
0000
0011
0000
,
1001
0000
0010
0100
0000
1000
0100
0001
,
0100
0000
1000
0010
0001
0000
0110
0000
,
0101
0000
1000
0100
0000
0010
0100
1000
,
0010
0101
1001
1010
,
0001
0010
0100
0000
1000
0001
0100
0000
,
0010
0100
0001
0010
0100
0010
0001
1000
,
0200
0000
0000
1000
0000
0000
0001
0000
,
0010
0000
0000
1000
1300
0000
1010
0000
,
0102
0000
0000
0010
0000
0000
1000
0000
,
0010
0000
0000
0100
0103
0000
0110
0000
,
2001
0000
0000
0010
0000
0000
0100
0000
,
0001
0100
0010
3001
,
0202
0000
0000
0303
,
1000
0000
0001
0000
0010
0000
0100
1000
,
0020
0000
0000
0130
,
0101
0000
0010
1000
0100
0000
0011
0000
,
1100
0000
0001
0000
0010
0000
1000
0100
,
0001
0011
1010
0110
,
0101
0000
1000
0000
0001
0000
0100
0010
,
1000
0101
1001
0011
,
0100
1000
0010
0000
0100
0001
1000
0000
,
0100
0010
0100
1000
0010
0100
0010
1000
,
0100
0000
0001
0100
0000
0001
1000
0100
,
0001
0000
0100
1000
0010
0000
0011
0000
,
1100
0000
0010
0100
0000
0001
0010
0100
,
1000
0000
0001
0100
0010
0000
1010
0000
,
0101
0000
0010
0100
0000
1000
0010
1000
,
0100
0011
1001
1100
,
1000
0010
0100
0000
0001
1000
0100
0000
,
0010
0100
1000
0001
0100
0000
1001
0000
,
0001
0000
1000
0000
0100
0000
1000
0100
0000
0000
1000
0000
0100
0000
0010
0000
,
0001
0000
0100
0000
0010
0000
0100
0010
0000
0000
0100
0000
0010
0000
1000
0000
,
0100
0000
0010
0000
0001
0000
0010
0001
0000
0000
0100
0000
0001
0000
0010
0000
,
0100
1000
0100
0001
0100
1000
0001
0000
,
0100
0000
1000
0000
0010
0000
1000
0010
0000
0000
0100
0000
0010
0000
1000
0000
,
0100
0000
1000
0000
0001
0000
1000
0001
0000
0000
0010
0000
0100
0000
1000
0000
,
0100
0000
0010
0000
0001
0000
0010
0001
0000
0000
1000
0000
0010
0000
0100
0000
,
0001
0100
1000
0100
0001
1000
0100
0000
,
1001
0000
0000
0000
,
0000
0000
0000
0000
;

//---------------dance-double - ----------------
#NOTEDATA:;
#CHARTNAME:;
#STEPSTYPE:dance-double;
#DESCRIPTION:;
#CHARTSTYLE:;
#DIFFICULTY:Easy;
#METER:3;
#RADARVALUES:0.195697,0.251977,0.009999,0.029997,0.000000,137.000000,136.000000,1.000000,3.000000,0.000000,0.000000,0.000000,0.000000,0.000000,0.195697,0.251977,0.009999,0.029997,0.000000,137.000000,136.000000,1.000000,3.000000,0.000000,0.000000,0.000000,0.000000,0.000000;
#CREDIT:;
#DISPLAYBPM:180.000000;
#NOTES:
00000000
00000000
00000000
00000000
,
00000000
00000000
00000000
00000000
,
00000000
00000000
00000000
00000000
,
00010000
00000000
00010000
00000000
,
00100000
00000000
00100000
00000000
,
10000000
00000000
10000000
00000000
,
01000000
00000000
01000000
00000000
,
10000000
00000000
00100000
00000000
,
00010000
00000000
00000000
00000000
,
00010000
00000000
00001000
00000000
,
00000100
00000000
00000100
00000100
,
00000100
00000000
00000001
00000000
,
00001000
00000000
00000000
00000000
,
00001000
00000000
00000100
00000000
,
00000010
00000000
00000000
00000000
,
00000100
00000000
00000001
00000000
,
00000010
00000000
00000000
00000000
,
00000010
00000000
00001000
00000000
,
00010000
00000000
00010000
00010000
,
00010000
00000000
00100000
00000000
,
10000000
00000000
01000000
00000000
,
20000000
00000000
00000000
30000000
,
00020000
00000000
00000000
00030000
,
02000000
00000000
00000000
03000000
,
00100000
00000000
00010000
00000000
,
10000000
10000000
10000000
00000000
,
01000000
00000000
00010000
00000000
,
00001000
00001000
00001000
00000000
,
00000010
00000000
00000001
00000000
,
00000010
00000000
00001000
00000000
,
00000100
00000000
00000000
00000000
,
00000001
00000000
00000010
00000010
,
00000010
00000000
00001000
00000000
,
00010000
00010000
00010000
00000000
,
01000000
00000000
10000000
00000000
,
00100000
00100000
00100000
00000000
,
01000000
00000000
00010000
00000000
,
00001000
00000000
00000010
00000000
,
00000001
00000000
00001000
00000000
,
00000001
00001000
00000001
00001000
,
00000001
00000000
00000000
00000000
,
00000100
00000000
00000000
00000000
,
00000010
00000000
00000000
00000000
,
00001000
00000000
00001000
00000000
,
00010000
00000000
00000000
00000000
,
00100000
00000000
00000000
00000000
,
01000000
00000000
00000000
00000000
,
10000000
00000000
10000000
00000000
,
00100000
00000000
00000000
00000000
,
01000000
01000000
01000000
00000000
,
00010000
00000000
00000000
00000000
,
00001000
00001000
00001000
00000000
,
00000010
00000000
00000001
00000000
,
00000100
00000000
00000001
00000000
,
00001000
00000000
00010000
00000000
,
00001000
00000000
00010000
00000000
,
01000000
00000000
00010000
00000000
,
10000000
10000000
10000000
00000000
,
00010000
00000000
01000000
00000000
,
00100000
00100000
00100000
00000000
,
10000000
00000000
01000000
00000000
,
00010000
00000000
00001000
00000000
,
00010000
00000000
00001000
00000000
,
00000010
00000000
00000001
00000000
,
00000100
00000000
00000100
00000000
,
00001000
00000000
00001000
00000000
,
00000010
00000000
00000010
00000000
,
00001000
00000000
00010000
00000000
,
00100000
00000000
00100000
00000000
,
10000000
00000000
10000000
00000000
,
01000000
00000000
01000000
00000000
,
00010000
00000000
00001000
00000000
,
00011000
00000000
00000000
00000000
,
00000000
00000000
00000000
00000000
;

//---------------dance-double - ----------------
#NOTEDATA:;
#CHARTNAME:;
#STEPSTYPE:dance-double;
#DESCRIPTION:;
#CHARTSTYLE:;
#DIFFICULTY:Medium;
#METER:8;
#RADARVALUES:0.444246,0.503955,0.769931,0.459959,0.000000,311.000000,234.000000,77.000000,46.000000,0.000000,0.000000,0.000000,0.000000,0.000000,0.444246,0.503955,0.769931,0.459959,0.000000,311.000000,234.000000,77.000000,46.000000,0.000000,0.000000,0.000000,0.000000,0.000000;
#CREDIT:;
#DISPLAYBPM:180.000000;
#NOTES:
00000000
00000000
00000000
00000000
,
00000000
00000000
00000000
00000000
,
00000000
00000000
00000000
00000000
,
10000000
01000000
00010000
00001000
,
00001010
00000101
00000011
00001100
,
00000001
00000010
00001000
00010000
,
01010000
11000000
10100000
00110000
,
00100000
01000000
00010000
10000000
,
01000000
00100000
00010000
10000000
,
01000000
10000000
00010000
01000000
,
00100000
10000000
01000000
00010000
,
00001000
00000010
00000001
00000100
,
00001000
00000001
00000010
00001000
,
00000001
00000100
00001000
00000010
,
00001000
00000001
00000010
00001100
,
00022000
00033000
00220000
00330000
,
21000000
00100000
00010000
31000000
,
02020000
03030000
00022000
00033000
,
00002010
00000100
00000001
00003010
,
00000022
00000033
00002200
00003300
,
00012000
01000000
00010000
00103000
,
02020000
00000000
00000000
03030000
,
01000000
10000000
00010000
01000000
,
00100000
10000000
01000000
00010000
,
00011000
00001000
00000100
00000001
,
00000010
00001000
00000100
00000101
,
00001100
00010000
00100000
00010000
,
00100000
10000000
01000000
10010000
,
01100000
10000000
01000000
00100000
,
00010000
00001000
00000010
00000100
,
00002002
00003003
00000220
00000330
,
00002002
00003003
00001010
00000011
,
00001100
00000001
00001000
00000100
,
00010000
00001000
00100000
10100000
,
01010000
00100000
10000000
01000000
,
00010000
00001000
00000010
00000110
,
00001001
00000100
00001000
00000001
,
00000100
00000010
00001000
00010000
,
02020000
03030000
20020000
30030000
,
10100000
01010000
01100000
10010000
,
22000000
00000000
00000000
03000000
,
00200000
00000000
00000000
30300000
,
02020000
00000000
00000000
03000000
,
20000000
00000000
00000000
30030000
,
02200000
00000000
00000000
03000000
,
20000000
00000000
00000000
30300000
,
02020000
00000000
00000000
03030000
,
10000000
00100000
00010000
00001000
,
00022000
00000000
00033000
00001000
,
00000010
00000001
00000100
00000011
,
00001100
00000100
00001000
00000010
,
00000100
00000001
00000010
00001100
,
00011000
00100000
10000000
01000000
,
00010000
01000000
10000000
00110000
,
11000000
00000000
01010000
00000000
,
01100000
00000000
01010000
11000000
,
10100000
00010000
01000000
10000000
,
01000000
00010000
00001000
00001010
,
00000101
00001000
00000010
00000001
,
00000100
00001000
00010000
00110000
,
11000000
00100000
01000000
10000000
,
00100000
00010000
00100000
01100000
,
20020000
30030000
00220000
00330000
,
00022000
00033000
00010000
00001000
,
00000010
00000001
00000100
00001000
,
00000100
00000001
00000010
00001000
,
00010000
00100000
10000000
01000000
,
10010000
01100000
10010000
01100000
,
01000000
00010000
00001000
00000010
,
00000011
00001010
00000101
00001100
,
00000010
00001000
00010000
01000000
,
10100000
01010000
00110000
11000000
,
10010000
00000000
00000000
00000000
,
00000000
00000000
00000000
00000000
;

//---------------dance-double - ----------------
#NOTEDATA:;
#CHARTNAME:;
#STEPSTYPE:dance-double;
#DESCRIPTION:;
#CHARTSTYLE:;
#DIFFICULTY:Hard;
#METER:11;
#RADARVALUES:0.644228,0.647942,0.879921,0.029997,0.005000,451.000000,363.000000,88.000000,3.000000,0.000000,0.000000,0.000000,0.000000,0.000000,0.644228,0.647942,0.879921,0.029997,0.005000,451.000000,363.000000,88.000000,3.000000,0.000000,0.000000,0.000000,0.000000,0.000000;
#CREDIT:;
#DISPLAYBPM:180.000000;
#NOTES:
00000000
00000000
00000000
00000000
,
00000000
00000000
00000000
00000000
,
00000000
00000000
00000000
00000000
,
10100000
10010000
01010000
00011000
,
00001010
00000101
00000011
00001100
,
00001001
00000011
00000110
00001100
,
00011000
00101000
00010010
00011000
,
00010000
00100000
10000000
01000000
,
10010000
00000000
01100000
00000000
10000000
00100000
00010000
00000000
,
00001000
00000010
00000001
00000100
,
00001001
00000000
00000110
00000000
00000100
00000001
00001000
00000000
,
00010010
01001000
00101000
00010100
,
00000010
00000000
00011000
00000000
00010000
01000000
10000000
00000000
,
00100000
01000000
10000000
00000000
00100000
01000000
00010000
00000000
,
10000000
01000000
00010000
00001000
00010000
00001000
00000100
00000000
,
00000101
00000010
00001001
00000100
,
00000010
00000001
00000100
00001000
00010000
00100000
10000000
00000000
,
00110000
01000000
10010000
00100000
,
01000000
10000000
00100000
00010000
00001000
00000010
00000001
00000000
,
00001100
00000001
00000110
00001000
,
00000001
00000100
00000010
00010000
00001000
00100000
00010000
00000000
,
10000000
00100000
01000000
00000000
00010000
00100000
01000000
00000000
,
00110000
00000000
11000000
00000000
10000000
00010000
01000000
00000000
,
00100000
10000000
01000000
00010000
00001000
00000100
00000001
00000010
,
00000100
00000000
00001000
00000000
00000010
00010000
00000100
00000000
,
00010000
00000000
00001000
00010000
01000000
00000000
11000000
00000000
,
01010000
00000000
00100000
00000000
01000000
10000000
00010000
00000000
,
10000000
00000000
00100000
00010000
00001000
00000000
00001010
00000000
,
00000101
00000000
00000010
00000000
00000100
00001000
00000010
00000000
,
00000101
00001010
00011000
00110000
,
10000000
00010000
00100000
00000000
00010000
10000000
01000000
00000000
,
00100000
00000000
00010000
00000000
01000000
00000000
00010000
00000000
10000000
00000000
00000000
01000000
00000000
00000000
00100000
00000000
,
00010000
00000000
00001000
00000000
00000010
00000100
00000001
00000000
,
00000100
00000000
00000010
00001000
00000100
00000000
00011000
00000000
,
00110000
00000000
00100000
01000000
10000000
00000000
00010000
10000000
,
01000000
00000000
00010000
01000000
00100000
00000000
10100000
00000000
,
01010000
00000000
10000000
01000000
00100000
00000000
00010000
01000000
,
10000000
01010000
00011000
00001010
,
00000010
00001000
00000100
00000000
00000010
00000001
00000100
00000000
,
00001000
00010000
00100000
00010000
00001000
00000100
00000010
00001000
,
00000001
00000000
00001000
00000100
00000000
00010000
00001000
01000000
,
00010000
00000000
10000000
00100000
01000000
00000000
10100000
00000000
,
01010000
00000000
00010000
00100000
00000000
01000000
10000000
00100000
,
00010000
00000000
00001000
00000010
00000001
00000000
00000011
00000000
,
00001100
00000000
00000010
00000100
00000000
00001000
00000001
00000100
,
00001000
00011000
00010100
00101000
,
00020020
00000000
00000000
00030030
,
00001000
00000000
00000100
00000000
00000001
00000000
00000010
00001000
,
00000200
00000000
00000000
00000310
,
00001001
00000000
00000010
00000001
00000100
00000000
00001100
00000000
,
00011000
00000000
00100000
10000000
01000000
00000000
00010000
00000000
,
01000000
00000000
10000000
00010000
00100000
00000000
00011000
00000000
,
00001010
00000000
00000100
00000001
00000010
00000000
00001000
00000100
,
00000010
00001001
00010010
01001000
,
00100000
00010000
00100000
00000000
01000000
10000000
01000000
00000000
,
00100000
00001000
01000000
00001000
00010000
00000010
00010000
00000100
,
00001000
00000000
00000001
00000100
00000001
00000000
00001000
00000000
,
00000001
00000000
00000100
00001000
00000010
00000000
00011000
00000000
,
01010000
00000000
00100000
01000000
00010000
00000000
00100000
00000000
,
10000000
00000000
00010000
01000000
00100000
00000000
01010000
00000000
,
00011000
00000000
00000010
00001000
00000100
00000000
00000010
00000001
,
00000100
00001001
00010010
00101000
,
00010000
10000000
00100000
00000000
10000000
00010000
01000000
00000000
,
00100000
10000000
01000000
00010000
00001000
00000000
00011000
00000000
,
00001010
00000011
00000101
00001100
,
00101000
00011000
00010010
00011000
,
00110000
10100000
11000000
01010000
,
00011000
00010010
00011000
00001100
,
00000010
00000001
00000100
00001000
00010000
01000000
10000000
00000000
,
00100000
10000000
01000000
00010000
00001000
00000100
00000001
00000000
,
00000010
00001000
00000100
00010000
00001000
00100000
00010000
01000000
,
00100000
10000000
01000000
00010000
00001000
00000010
00000001
00000100
,
00000001
00000000
00000000
00000000
,
00000000
00000000
00000000
00000000
;

//---------------dance-single - ----------------
#NOTEDATA:;
#CHARTNAME:;
#STEPSTYPE:dance-single;
#DESCRIPTION:;
#CHARTSTYLE:;
#DIFFICULTY:Challenge;
#METER:16;
#RADARVALUES:0.851352,0.971913,0.189983,0.259977,0.549950,596.000000,577.000000,19.000000,26.000000,0.000000,0.000000,0.000000,0.000000,0.000000,0.851352,0.971913,0.189983,0.259977,0.549950,596.000000,577.000000,19.000000,26.000000,0.000000,0.000000,0.000000,0.000000,0.000000;
#CREDIT:;
#DISPLAYBPM:180.000000;
#NOTES:
// measure 0
0000
0000
0000
0000
,  // measure 1
0000
0000
0000
0000
,  // measure 2
0000
0000
0000
0000
,  // measure 3
0010
0000
0001
0000
0100
0000
0010
1000
0000
1000
0001
1000
0100
0000
0010
0000
,  // measure 4
0100
0000
1000
0000
0001
0000
1000
0010
0000
0010
0100
0001
0100
0000
0010
0000
,  // measure 5
1000
0000
0010
0000
0100
0000
0001
0100
0000
0100
0001
1000
0001
0000
0010
0000
,  // measure 6
0001
0000
0100
0000
0010
0000
1000
0000
0010
0000
0100
0000
0001
0010
0001
1000
,  // measure 7
0100
1000
0100
0010
0001
1000
0001
0010
,  // measure 8
0100
0001
0100
0010
0100
1000
0100
0000
,  // measure 9
0010
1000
0001
1000
0100
0010
0001
0100
,  // measure 10
0010
1000
0010
0100
0010
0001
0010
0000
,  // measure 11
1000
0010
0100
0001
1000
0100
0001
0010
,  // measure 12
0100
0010
0001
0100
0001
1000
0010
1000
,  // measure 13
0100
1000
0100
1000
0001
0010
0001
0010
,  // measure 14
0100
0000
0100
0000
0010
0000
0010
0000
0001
0000
0001
0000
1000
0001
1000
0100
,  // measure 15
0010
0000
0001
0100
0001
0000
0000
0000
0010
0000
1000
0100
1000
0000
0000
0000
,  // measure 16
0010
0000
0100
0001
0100
0000
0001
1000
0001
0000
1000
0010
1000
0000
0000
0000
,  // measure 17
0001
0000
1000
0100
1000
0000
0000
0000
1000
0000
0001
0100
0001
0000
0000
0000
,  // measure 18
0010
0000
0001
1000
0001
0000
0100
0001
0100
0000
0010
1000
0010
0000
0000
0000
,  // measure 19
1000
0000
0100
0010
0100
0000
0000
0000
1000
0000
0001
0010
0001
0000
0000
0000
,  // measure 20
0100
0000
0010
1000
0010
0000
1000
0001
1000
0000
0001
0100
0001
0000
0010
0000
,  // measure 21
0001
0100
0010
1000
0001
0010
0100
1000
,  // measure 22
0010
0010
0100
0100
0001
0001
1000
1000
,  // measure 23
1001
0000
0100
0000
0010
0000
0110
0000
1000
0001
1000
0001
0100
0001
1000
0010
,  // measure 24
1000
0000
0100
0010
0100
0000
1000
0000
0001
0010
0001
0000
0100
0000
0010
0000
,  // measure 25
0100
0000
0001
0010
0001
0000
0100
0000
0020
0000
1000
0000
1030
0000
0000
0000
,  // measure 26
0100
0000
1000
0001
1000
0000
0100
0000
0010
0001
0010
0000
0100
0000
1000
0000
,  // measure 27
0001
0000
1000
0010
1000
0000
0001
0000
0000
0000
0020
0000
0100
0000
0130
0000
,  // measure 28
1000
0000
0001
0100
0001
0000
2000
0000
0000
0000
0010
0000
3010
0000
0100
0000
,  // measure 29
0010
0000
1000
0100
0010
0000
0100
0010
0001
0000
1000
0001
0100
0000
0000
0000
,  // measure 30
0101
0100
0010
1000
1010
0010
1000
0001
,  // measure 31
1000
0100
0010
0001
0100
0010
1000
0001
0010
0001
0000
1000
0100
0000
1100
0000
,  // measure 32
0011
0000
1000
0010
0100
0000
0001
0000
0100
0001
1000
0000
0010
0000
0100
0000
,  // measure 33
0001
0000
0010
0001
1000
0000
0010
0000
2000
0000
0100
0000
3100
0000
0000
0000
,  // measure 34
1000
0000
0010
0100
0001
0000
0100
0000
0001
0010
1000
0000
0001
0000
0100
0000
,  // measure 35
0010
0000
1000
0010
0100
0000
0200
0000
0000
0000
0001
0000
0301
0000
1000
0000
,  // measure 36
0010
0000
1000
0100
0010
0000
0002
0000
0000
0000
0103
0000
0001
0000
1000
0000
,  // measure 37
0001
0000
0100
0001
0010
0000
0001
1000
0100
0000
0010
0100
1000
0000
0000
0000
,  // measure 38
1001
0100
0010
1000
1100
0100
0010
0001
,  // measure 39
0100
0000
0010
1000
0010
0000
0100
1000
0001
0000
1000
0001
0010
0000
0000
0000
,  // measure 40
0101
0010
1010
0100
,  // measure 41
0011
0000
1000
0100
0001
0100
1000
0000
,  // measure 42
0110
1000
0101
0010
,  // measure 43
0110
0000
1000
0010
0001
0010
1000
0000
,  // measure 44
1010
0100
1100
0001
,  // measure 45
1001
0000
0010
0001
0100
0001
0010
0000
,  // measure 46
0012
2003
3020
0230
,  // measure 47
0301
0100
1000
0000
0001
0010
1000
0000
,  // measure 48
0020
0000
0000
0230
,  // measure 49
0302
0000
0000
1000
2000
0000
3003
0000
,  // measure 50
0200
0000
0000
2300
,  // measure 51
3002
1003
0020
0130
,  // measure 52
0020
0000
1030
0200
0000
1300
0010
0000
,  // measure 53
0002
0103
2000
3100
,  // measure 54
0001
0001
0010
0010
0100
0100
1000
1000
,  // measure 55
0010
1000
0010
1000
0100
0010
0001
0100
0002
0000
0000
2003
0000
0000
3010
0000
,  // measure 56
0100
0000
0001
0100
0010
0000
1000
0000
0100
1000
0001
0000
1000
0000
0010
0000
,  // measure 57
0100
0000
0001
0010
0001
0000
1000
0100
1000
0000
0010
0000
0100
0000
0000
0000
,  // measure 58
0001
0000
1000
0100
0010
0000
0100
0000
1000
0001
1000
0000
0010
0000
0100
0000
,  // measure 59
0001
0000
1000
0100
1000
0000
0001
0010
0100
0000
0010
0000
0001
0000
1000
0000
,  // measure 60
0100
0000
1000
0001
0100
0000
0001
0000
0010
0100
1000
0000
0010
0000
1000
0000
,  // measure 61
0001
0000
0100
0010
1000
0000
0100
0010
0001
0000
1000
0001
0100
0000
0010
1000
,  // measure 62
0002
0100
0103
0010
0020
1000
1030
0001
,  // measure 63
1000
0001
1000
0010
0100
0001
1000
0001
0100
0001
0010
0100
1000
0010
0100
0010
,  // measure 64
1000
0000
0100
0000
1000
0000
0010
0100
0000
0100
0001
0010
0001
0000
1000
0000
,  // measure 65
0100
0000
1000
0000
0010
0000
0100
0001
0000
0010
0001
1000
0100
0000
0010
0000
,  // measure 66
0001
0000
1000
0000
0010
0000
1000
0001
0000
0100
0001
0100
0010
0000
1000
0000
,  // measure 67
0001
0000
1000
0100
0010
0000
1000
0001
0100
0000
0010
0000
1000
0000
0000
0000
,  // measure 68
0010
0000
1000
0000
0100
0000
0010
0100
0000
1000
0001
1000
0001
0000
0010
0000
,  // measure 69
0001
0000
1000
0000
0010
0000
0100
0001
0000
0001
1000
0010
1000
0000
0100
0000
,  // measure 70
0001
0000
0100
0000
1000
0000
0010
0100
0000
0010
1000
0010
1000
0000
0001
0000
,  // measure 71
1000
0010
0100
0001
0010
0000
0100
0000
1000
0000
0001
0000
0100
0000
0000
0000
,  // measure 72
1001
0000
0000
0000
;
