#TITLE:Groove;
#SUBTITLE:;
#ARTIST:Sho-T feat. Brenda;
#TITLETRANSLIT:;
#SUBTITLETRANSLIT:;
#ARTISTTRANSLIT:;
#GENRE:;
#CREDIT:;
#BANNER:Groove-bn.png;
#BACKGROUND:Groove-bg.png;
#LYRICSPATH:;
#CDTITLE:;
#MUSIC:Groove.ogg;
#OFFSET:0.000000;
#SAMPLESTART:60.931000;
#SAMPLELENGTH:20.000000;
#SELECTABLE:YES;
#DISPLAYBPM:130.000000;
#BPMS:0.000000=128.000000
,4.000000=130.000000
;
#STOPS:
;
#BGCHANGES:;
#KEYSOUNDS:;
#ATTACKS:;

//---------------dance-single - ----------------
#NOTES:
     dance-single:
     :
     Beginner:
     3:
     0.148491,0.236284,0.171453,0.000000,0.000000,97.000000,81.000000,16.000000,0.000000,0.000000,0.000000,0.148491,0.236284,0.171453,0.000000,0.000000,97.000000,81.000000,16.000000,0.000000,0.000000,0.000000:
0000
0000
0000
0000
,
0000
0000
0000
0000
,
0000
0000
0000
0000
,
0000
0000
0000
0000
,
0000
0000
0000
0000
,
1000
0000
0000
0000
,
0100
0000
0010
0000
,
0001
0000
0000
0000
,
0010
0000
0100
0000
,
1000
0000
0000
0000
,
1000
0000
1000
0000
,
0001
0000
0000
0000
,
0001
0000
0001
0000
,
1000
0000
0000
0000
,
1000
0000
0100
0000
,
0001
0000
0001
0000
,
0010
0010
0010
0000
,
1000
0000
0000
0000
,
0100
0000
0000
0000
,
0001
0000
0000
0000
,
0010
0000
0010
0000
,
1000
0000
0000
0000
,
0100
0000
0000
0000
,
0001
0000
0000
0000
,
0010
0010
0010
0000
,
1000
0000
0001
0000
,
1000
0000
0001
0000
,
1000
0000
0001
0000
,
1000
0000
0001
0000
,
1000
0000
0001
0000
,
1000
0000
0001
0000
,
0100
0000
0000
0000
,
0100
0000
0000
0000
,
0110
0000
1001
0000
,
0110
0000
1001
0000
,
0001
0000
0100
0000
,
1000
0000
0100
0000
,
0110
0000
1001
0000
,
0110
0000
1001
0000
,
0001
0000
0100
0000
,
1000
1000
1000
0000
,
0110
0000
1001
0000
,
0110
0000
1001
0000
,
0001
0000
0100
0000
,
1000
0000
0100
0000
,
0110
0000
1001
0000
,
0110
0000
1001
0000
,
0001
0000
0100
0000
,
1000
1000
1000
1000
,
1000
0000
0000
0000
,
0000
0000
0000
0000
;

//---------------dance-single - ----------------
#NOTES:
     dance-single:
     :
     Easy:
     5:
     0.235748,0.288791,0.160737,0.000000,0.000000,154.000000,139.000000,15.000000,0.000000,0.000000,0.000000,0.235748,0.288791,0.160737,0.000000,0.000000,154.000000,139.000000,15.000000,0.000000,0.000000,0.000000:
0000
0000
0000
0000
,
0000
0000
0000
0000
,
0000
0000
0000
0000
,
0000
0000
0000
0000
,
0000
0000
0001
0100
,
1000
0100
1000
1000
,
0001
0100
0001
0001
,
0010
0100
1000
1000
,
0001
1000
0001
0100
,
0100
0000
0000
0000
,
0000
0000
0000
0000
,
0000
0010
0000
0100
,
0000
0001
1000
0100
,
0010
1000
0100
1000
,
0001
0001
1000
1000
,
0010
0001
0100
0001
,
1000
0100
0100
1001
,
0100
0000
0001
0000
,
0010
0001
1000
1000
,
0100
0000
0010
0000
,
1000
1000
0001
0100
,
0010
0000
0010
0000
,
0010
0001
0010
1000
,
0010
0001
0010
0000
,
0001
1000
0100
1001
,
0000
1000
0000
0001
,
0000
0010
0000
1000
,
0000
0001
0010
1000
,
0010
0100
1001
0100
,
0000
1000
0000
0001
,
0000
0100
0100
0100
,
1001
0000
0000
0000
,
0100
1000
0100
1001
,
0110
0000
1001
0000
,
0001
1000
0010
0010
,
0001
0000
1000
0000
,
0001
0100
1000
0100
,
0110
0000
1001
0000
,
1000
0001
0100
0100
,
1000
0000
0001
0000
,
1000
0100
0001
0100
,
0110
0000
1001
0000
,
0001
1000
0010
0010
,
0001
0001
1000
1000
,
0001
0100
1000
0100
,
0110
0000
1001
0000
,
0001
1000
0100
0100
,
1000
1000
0001
0001
,
0010
1000
0001
0110
,
1001
0000
0000
0000
,
0000
0000
0000
0000
;

//---------------dance-single - ----------------
#NOTES:
     dance-single:
     :
     Medium:
     8:
     0.341375,0.420060,0.300043,0.000000,0.000000,223.000000,195.000000,28.000000,0.000000,0.000000,0.000000,0.341375,0.420060,0.300043,0.000000,0.000000,223.000000,195.000000,28.000000,0.000000,0.000000,0.000000:
0000
0000
0000
0000
,
0000
0000
0000
0000
,
0000
0000
0000
0000
,
0000
0000
0000
0000
,
0000
0000
1100
0101
,
0001
0100
1000
1000
,
1000
0000
0100
0000
0001
0001
0001
0000
,
0001
0100
1000
1000
,
0001
1000
0001
0100
1100
0000
0101
0000
,
0000
1000
0000
1000
,
0000
0000
0001
0000
0000
1000
0001
0000
,
0000
0010
0000
0100
,
0000
0000
0001
0000
1000
0001
0100
0000
,
0010
1000
0100
1000
,
0001
0000
0001
0000
1000
1000
1000
0000
,
0010
0001
0100
0001
,
1000
0001
0100
0010
0100
0000
1001
0000
,
0100
0000
1000
1000
0001
0000
0000
0000
,
0010
0000
0001
0001
1000
0000
1000
0000
,
0100
0000
0001
0001
0010
0000
0000
0000
,
1000
1000
0101
1100
,
0010
0000
1000
1000
0010
0000
0000
0000
,
0010
0000
0001
0001
0010
0000
1000
0000
,
0010
0001
0010
0000
,
0001
1000
0100
0010
0100
0000
1001
0000
,
1000
0100
0001
0100
,
1000
0100
0001
0010
,
0000
0000
0010
0000
0000
0100
0100
0100
,
0000
1000
0001
0100
0010
0000
1001
0000
,
0001
0010
1000
0010
,
0100
0100
0100
0100
,
1001
0000
0000
0000
0000
0000
0000
1000
,
0001
0100
0001
1000
0001
0100
0010
0000
,
0011
1000
0101
1000
,
0001
0000
1000
0000
0010
0001
0100
0000
,
1100
0001
1010
0001
,
1000
0000
0010
0000
0100
0100
0100
0000
,
1010
0001
1100
0001
,
1000
0000
0001
0000
0010
1000
0100
0000
,
0101
0000
1000
0000
0011
0000
1100
0001
,
1000
1000
1000
1000
0000
0001
0100
0000
,
1001
0000
0010
0001
0100
0000
1001
0000
,
0001
0100
1000
0100
,
0101
0000
0010
1000
0100
0000
0011
0000
,
1000
0010
0100
0001
,
0110
0000
1000
0001
0100
0000
0110
0000
,
0010
1000
0100
0001
,
1100
0000
0001
1000
0100
0000
0011
0000
,
0010
1000
0100
0001
,
1001
0000
0000
0000
;

//---------------dance-single - ----------------
#NOTES:
     dance-single:
     :
     Hard:
     10:
     0.488335,0.525075,0.589370,0.000000,0.005358,319.000000,264.000000,55.000000,0.000000,0.000000,0.000000,0.488335,0.525075,0.589370,0.000000,0.005358,319.000000,264.000000,55.000000,0.000000,0.000000,0.000000:
0000
0000
0000
0000
,
0000
0000
0000
0000
,
0000
0000
0000
0000
,
0000
0000
0000
0000
,
0000
0000
1010
0101
,
1000
0000
1000
0001
0100
0000
1000
0000
,
0001
1000
0001
1000
1100
0001
0101
0000
,
0100
0000
0100
1000
0001
0000
0010
0000
,
1000
0001
1000
0001
0101
1000
1100
0000
,
0001
0101
1000
1000
,
0010
0000
1000
0000
1100
0001
0101
0000
,
1000
1100
0001
0001
,
1000
0001
1000
0001
0101
1000
1100
0000
,
1000
0000
1100
0001
1000
0000
1000
0000
,
0001
1000
0001
1000
1100
0001
0101
0000
,
0001
0000
0101
1000
0001
0000
0001
0000
,
1000
0001
0100
0010
0100
0100
1001
0000
,
0100
0000
0010
1000
1001
0000
0000
0000
,
0010
0000
0001
0100
1000
0001
1100
0000
,
0100
0000
0001
0001
0110
0000
0000
1000
,
0001
1000
0100
0001
0101
1000
1100
0000
,
0100
0000
0010
0001
1001
0000
0000
0000
,
0010
0000
1000
0100
0001
1000
0101
0000
,
0100
0000
1000
1000
0110
0000
0000
0001
,
1000
0001
0100
1000
1100
0001
0101
0000
,
1000
1000
1000
0000
0001
0001
0001
0000
,
1000
0000
0100
0001
1000
0001
0100
0000
,
0010
0000
0001
0001
0100
0100
0100
0000
,
0001
1000
0001
0100
0010
0000
1001
0000
,
1010
0000
1100
0000
0101
0000
0011
0100
,
0000
1000
0001
0000
1001
0000
1001
0000
,
0001
0000
0000
0100
0000
0000
0000
1000
,
0101
1100
0001
1000
0001
0100
0010
0000
,
0101
0000
0010
1000
0001
0000
1100
1000
,
0001
0100
1000
0001
0010
0001
0100
0000
,
1100
0000
0010
1000
0101
0000
1000
0001
,
1000
0001
0010
1000
0100
0001
0100
0010
,
1001
0000
0001
1000
0100
0000
1001
1000
,
0001
0010
0100
1000
0001
0001
0001
0000
,
0011
0000
1000
0001
1100
0000
0100
0001
,
1000
1000
1000
1000
0000
0001
0100
0000
,
1100
0000
0010
0001
1000
0000
0101
0001
,
1000
0100
0001
1000
0010
1000
0100
0000
,
0101
0000
0010
0001
1100
0000
0010
0010
,
1000
0001
0010
0100
0100
1000
0001
0000
,
0110
0000
1000
0001
0110
0000
1100
0001
,
0010
0100
1000
0001
0100
0100
0100
0000
,
1100
0000
0001
1000
0101
0000
1001
1000
,
0010
0000
0001
0000
1000
0000
0010
0000
0100
0000
0010
0000
1000
0001
1000
0000
,
1001
0000
0000
0000
,
0000
0000
0000
0000
;

//---------------dance-double - ----------------
#NOTES:
     dance-double:
     :
     Easy:
     5:
     0.235748,0.262538,0.214316,0.000000,0.000000,154.000000,134.000000,20.000000,0.000000,0.000000,0.000000,0.235748,0.262538,0.214316,0.000000,0.000000,154.000000,134.000000,20.000000,0.000000,0.000000,0.000000:
00000000
00000000
00000000
00000000
,
00000000
00000000
00000000
00000000
,
00000000
00000000
00000000
00000000
,
00000000
00000000
00000000
00000000
,
00000000
00000000
00000010
00000100
,
00001000
00010000
00100000
00100000
,
01000000
00000000
10000000
00000000
,
00010000
00001000
00000100
00000100
,
00000001
00001000
00000010
00000100
,
00000100
00000000
00000000
00000000
,
00000000
00000000
00000000
00000000
,
00000000
10000000
00000000
00010000
,
00000000
00000010
00000001
00000100
,
00000001
00001000
00000100
00000100
,
00010000
00010000
01000000
01000000
,
00100000
00010000
10000000
01000000
,
00010000
00010000
00001000
00011000
,
00000100
00000000
00010000
00000000
,
00000010
00000100
00000001
00001000
,
00000001
00000000
00001000
00000000
,
00000010
00010000
01000000
01000000
,
10000000
00000000
00100000
00000000
,
10000000
00010000
00100000
01000000
,
00010000
00000000
00000010
00000000
,
00001000
00000100
00010000
00001000
,
00000000
00010000
00000000
01000000
,
00100000
10000000
00100000
00010000
,
00000000
00100000
00010000
01000000
,
00100000
00010000
00011000
00000100
,
00000000
00001000
00000000
00000010
,
00000000
00001000
00010000
01000000
,
10010000
00000000
00000000
00000000
,
01000000
01000000
00100000
00010000
,
00011000
00000000
00001001
00000000
,
00000010
00000100
00001000
00000010
,
00000110
00000000
00001001
00000000
,
00000010
00000010
00000100
00001000
,
00011000
00000000
10010000
00000000
,
00100000
01000000
00010000
00100000
,
01100000
00000000
10010000
00000000
,
00100000
10000000
01000000
00010000
,
00011000
00000000
00001001
00000000
,
00000010
00000100
00000010
00000010
,
00000110
00000000
00001001
00000000
,
00000010
00000001
00000100
00001000
,
00011000
00000000
10010000
00000000
,
00100000
01000000
00100000
00100000
,
01100000
00000000
10010000
00000000
,
00100000
00001000
00000100
00000010
,
00001001
00000000
00000000
00000000
,
00000000
00000000
00000000
00000000
;

//---------------dance-double - ----------------
#NOTES:
     dance-double:
     :
     Medium:
     7:
     0.332190,0.393806,0.257180,0.000000,0.000000,217.000000,193.000000,24.000000,0.000000,0.000000,0.000000,0.332190,0.393806,0.257180,0.000000,0.000000,217.000000,193.000000,24.000000,0.000000,0.000000,0.000000:
00000000
00000000
00000000
00000000
,
00000000
00000000
00000000
00000000
,
00000000
00000000
00000000
00000000
,
00000000
00000000
00000000
00000000
,
00000000
00000000
00000101
00001100
,
00000001
00000100
00001000
00001000
,
00010000
00000000
01000000
01000000
,
10000000
01000000
00010000
00010000
,
00001000
00000000
00000100
00000100
,
00000010
00000001
00000100
00001000
,
00100000
00000000
01000000
00000000
00000000
10000000
01000000
00000000
,
00100000
10000000
01000000
00010000
,
00000010
00000000
00000100
00000000
00000001
00001000
00000100
00000000
,
00010000
01000000
10000000
01000000
,
00010000
00010000
10000000
10000000
,
00010000
00001000
00000010
00000100
,
00001000
00000001
00001000
00000001
00001000
00000000
00010000
00000000
,
00100000
00000000
01000000
10000000
01000000
00000000
00000000
00000000
,
00010000
00000000
00001000
00010000
00001000
00000000
00000010
00000000
,
00000001
00000000
00000100
00000001
00000100
00000000
00000000
00000000
,
00000010
00001000
00001100
00000101
,
00000010
00000000
00000100
00000001
00000100
00000000
00000000
00000000
,
00001000
00000000
00010000
00001000
00010000
00000000
00100000
00000000
,
10000000
00000000
01000000
10000000
01000000
00000000
00000000
00000000
,
00100000
00001000
00000100
00001001
,
00001000
00001000
00001000
00000000
00010000
00000000
10000000
00000000
,
01000000
01000000
10000000
01000000
,
00010000
00010000
00010000
00000000
00001000
00000000
00000100
00000000
,
00000010
00000100
00001001
00000010
,
00010000
01000000
10000000
00100000
,
01000000
01000000
01000000
01000000
,
10010000
00000000
00000000
00000000
00000000
00000000
00000000
00100000
,
00010000
00001000
00000010
00000100
00000001
00001000
00000100
00000000
,
00000101
00001000
00001100
00010000
,
01000000
10000000
00100000
10000000
,
11000000
00010000
01010000
00001000
,
00000100
00000000
00000001
00000000
00001000
00001000
00001000
00000000
,
00000101
00001000
00001100
00010000
,
00001000
00000001
00000100
00001000
,
00011000
00000000
01000000
00000000
01010000
00000000
00001000
00001000
,
01000000
01000000
01000000
01000000
00000000
00010000
01000000
00000000
,
00011000
00000000
00010000
00001000
00000100
00000000
00001001
00000000
,
00000010
00000001
00000100
00001000
,
00011000
00000000
00001000
00010000
01000000
00000000
10010000
00000000
,
00100000
00010000
01000000
00010000
,
00011000
00000000
00100000
10000000
01000000
00000000
01100000
00000000
,
00010000
10000000
01000000
00010000
,
00011000
00000000
00000010
00000001
00000100
00000000
00000110
00000000
,
00001000
00000100
00000001
00000010
,
00001001
00000000
00000000
00000000
,
00000000
00000000
00000000
00000000
;

//---------------dance-double - ----------------
#NOTES:
     dance-double:
     :
     Hard:
     10:
     0.462311,0.498821,0.503643,0.000000,0.005358,302.000000,255.000000,47.000000,0.000000,0.000000,0.000000,0.462311,0.498821,0.503643,0.000000,0.005358,302.000000,255.000000,47.000000,0.000000,0.000000,0.000000:
00000000
00000000
00000000
00000000
,
00000000
00000000
00000000
00000000
,
00000000
00000000
00000000
00000000
,
00000000
00000000
00000000
00000000
,
00000000
00000000
00011000
00010100
,
00001000
00000000
00001000
00000001
00000100
00000000
00001000
00000000
,
00000100
00001000
00000100
00010000
00001000
00000000
01010000
00000000
,
01000000
00000000
00010000
10000000
01000000
00000000
00100000
00000000
,
00100000
00010000
00001000
00000100
00001100
00000000
00000101
00000000
,
00000001
00000101
00001000
00001010
,
00010000
00000000
01000000
00000000
10000000
00010000
01010000
00000000
,
00001000
00000100
00000001
00001100
,
00010000
00001000
00000100
00000001
00000101
00001000
00001100
00000000
,
00001000
00000000
00000010
00010000
00001000
00000000
01000000
00000000
,
00010000
00100000
00010000
01000000
00001000
00000000
00011000
00000000
,
01000000
00000000
00001000
00000100
00000001
00000000
00001000
00000000
,
00000010
00001000
00010000
01000000
00100000
10000000
10010000
00000000
,
01000000
00000000
00100000
10000000
10010000
00000000
00000000
00000000
,
00100000
00000000
00010000
01000000
10000000
00010000
10010000
00000000
,
00001000
00000000
00000100
00000100
00000001
00000000
00000000
00001000
,
00000001
00001000
00000100
00000001
00000101
00001000
00001100
00000000
,
00000100
00000000
00000010
00001000
00001001
00000000
00000000
00000000
,
00001000
00000000
00010000
01000000
00010000
10000000
10010000
00000000
,
00001000
00000000
00000100
00000100
00000001
00000000
00000000
00000001
,
00001000
00000001
00000100
00001000
00001100
00000001
00000101
00000000
,
00000000
00000000
00001000
00001000
00000000
00000000
00010000
00010000
,
00000000
00000000
10000000
00000000
01000000
00010000
00001000
00000000
,
00000001
00000000
00000100
00000000
00001000
00001000
00001000
00000000
,
00000010
00000000
00010000
00001000
01000000
00000000
00011000
00000000
,
00110000
00000000
01001000
00000000
00011000
00000000
00001100
00000100
,
00000000
00000001
00000100
00000000
00000100
00000000
00000100
00000000
,
00001001
00000000
00000000
00000100
00000000
00000000
00000000
00010000
,
00001000
01000000
00001000
00010000
00000100
00001100
00000010
00000000
,
00000101
00000000
00000010
00001000
00010000
00000000
01010000
10000000
,
00010000
01000000
00001000
00100000
00010000
00100000
01000000
00000000
,
11000000
00000000
00100000
00010000
00011000
00000000
00001100
00000001
,
00001000
00000001
00000010
00000100
00010000
00000100
00001000
00000010
,
00001001
00000000
00000010
00001000
00010000
00000000
10010000
10000000
,
00010000
01000000
00001000
00010000
00000100
00010000
01000000
00000000
,
01100000
00000000
00100000
00010000
10010000
00000000
11000000
00010000
,
10000000
10000000
10000000
10000000
00000000
00010000
01000000
00000000
,
11000000
00000000
00100000
00010000
00001000
00000000
00000101
00000001
,
00001000
00000100
00010000
00001000
00000100
00000001
00000100
00000000
,
00001100
00000000
00000010
00001000
00010000
00000000
11000000
10000000
,
00010000
01000000
00001000
00010000
01000000
10000000
01000000
00000000
,
11000000
00000000
00100000
00010000
00011000
00000000
00000010
00000010
,
00001000
00000001
00000010
00000100
00001000
00000001
00001000
00000000
,
00001100
00000000
00000010
00001000
00011000
00000000
00100000
00010000
,
00100000
00000000
10000000
00000000
00010000
00000000
00100000
00000000
01000000
00000000
00100000
00000000
00010000
10000000
00010000
00000000
,
10010000
00000000
00000000
00000000
,
00000000
00000000
00000000
00000000
;

//---------------dance-solo - ----------------
#NOTES:
     dance-solo:
     :
     Easy:
     6:
     0.238810,0.288791,0.203601,0.000000,0.000000,156.000000,137.000000,19.000000,0.000000,0.000000,0.000000,0.238810,0.288791,0.203601,0.000000,0.000000,156.000000,137.000000,19.000000,0.000000,0.000000,0.000000:
000000
000000
000000
000000
,
000000
000000
000000
000000
,
000000
000000
000000
000000
,
000000
000000
000000
000000
,
000000
000000
000010
010000
,
001000
100000
000001
000001
,
001000
000001
100000
100000
,
000010
100000
000001
000001
,
010000
000100
001000
000100
,
000100
000000
000000
000000
,
000000
000000
000000
000000
,
000000
000010
000000
100000
,
000000
010000
000001
001000
,
100000
010000
100000
001000
,
100000
100000
000001
000001
,
000001
000010
000001
001000
,
000100
100000
000001
010010
,
001000
000000
000001
000000
,
000010
000100
001000
001000
,
100000
000000
000001
000000
,
010000
000100
001000
001000
,
000100
000000
000100
000000
,
010000
100000
000001
001000
,
100000
001000
100000
000000
,
000010
000001
001000
100001
,
000000
010000
000000
000001
,
000000
001000
000000
000100
,
000000
000100
000010
100000
,
000001
000100
010010
001000
,
000000
100000
000000
000001
,
000000
001000
001000
001000
,
100001
000000
000000
000000
,
000100
100000
000001
010010
,
100001
000000
001100
000000
,
000010
000100
001000
001000
,
000001
000000
100000
000000
,
010000
000001
001000
001000
,
001100
000000
100001
000000
,
000010
010000
001000
001000
,
010010
000000
100001
000000
,
100000
000001
000100
000100
,
100001
000000
001100
000000
,
000001
100000
001000
001000
,
010000
010000
000001
000001
,
000010
000100
001000
100000
,
001100
000000
100001
000000
,
000010
010000
001000
001000
,
001100
000000
100001
000000
,
100000
000010
001000
001100
,
100001
000000
000000
000000
;

//---------------dance-solo - ----------------
#NOTES:
     dance-solo:
     :
     Medium:
     8:
     0.339844,0.393806,0.300043,0.000000,0.000000,222.000000,194.000000,28.000000,0.000000,0.000000,0.000000,0.339844,0.393806,0.300043,0.000000,0.000000,222.000000,194.000000,28.000000,0.000000,0.000000,0.000000:
000000
000000
000000
000000
,
000000
000000
000000
000000
,
000000
000000
000000
000000
,
000000
000000
000000
000000
,
000000
000000
101000
001001
,
000010
100000
001000
001000
,
100000
000000
000100
000000
001000
001000
001000
000000
,
000010
100000
001000
001000
,
000001
100000
000010
100000
101000
000000
001001
000000
,
000000
000010
000000
001000
,
000000
000000
000001
000000
000000
010000
001000
000000
,
000000
100000
000000
001000
,
000000
000000
000100
000000
000010
100000
001000
000000
,
100000
010000
100000
001000
,
000100
000000
000001
000000
001000
001000
001000
000000
,
000001
000010
000001
001000
,
000001
010000
000001
001000
000010
000000
100001
000000
,
001000
000000
100000
100000
000010
000000
000000
000000
,
001000
000000
000001
000001
100000
000000
001000
000000
,
100000
000000
000001
000001
010000
000000
000000
000000
,
000010
001000
101000
001001
,
000010
000000
000001
000001
100000
000000
000000
000000
,
010000
000000
100000
100000
000001
000000
001000
000000
,
000010
100000
001000
000000
,
000001
100000
001000
010000
001000
000000
100001
000000
,
000000
001000
000010
100000
,
000010
001000
100000
010000
,
000000
000000
000010
000000
000000
001000
001000
001000
,
000000
010000
000001
001000
000010
000000
100001
000000
,
000001
000010
001000
100000
,
001000
001000
001000
001000
,
100001
000000
000000
000000
000000
000000
000000
100000
,
000010
001000
000100
100000
001000
010000
001000
000000
,
000101
010000
001001
000010
,
100000
000000
001000
000000
010000
000010
001000
000000
,
001001
010000
101000
000010
,
001000
000000
000001
000000
100000
100000
100000
000000
,
101000
000010
000101
100000
,
000110
000000
100000
000000
010000
100000
001000
000000
,
001001
000000
010000
000000
100100
000000
100000
000001
,
100000
100000
100000
100000
000000
000010
001000
000000
,
100001
000000
010000
000001
100000
000000
101000
000000
,
000010
001000
010000
001000
,
101000
000000
000010
100000
000001
000000
001001
000000
,
000010
010000
001000
100000
,
011000
000000
000001
100000
001000
000000
011000
000000
,
100000
000001
001000
000100
,
001010
000000
100000
000001
001000
000000
001010
000000
,
010000
001000
000001
000010
,
100001
000000
000000
000000
;

//---------------dance-solo - ----------------
#NOTES:
     dance-solo:
     :
     Hard:
     10:
     0.473027,0.525075,0.546507,0.000000,0.005358,309.000000,258.000000,51.000000,0.000000,0.000000,0.000000,0.473027,0.525075,0.546507,0.000000,0.005358,309.000000,258.000000,51.000000,0.000000,0.000000,0.000000:
000000
000000
000000
000000
,
000000
000000
000000
000000
,
000000
000000
000000
000000
,
000000
000000
000000
000000
,
000000
000000
101000
001001
,
100000
000000
100000
000010
001000
000000
000001
000000
,
010000
000001
001000
000100
100100
000000
001001
000000
,
100000
000000
001000
010000
000010
000000
001000
000000
,
000010
000100
001000
100000
101000
000000
001001
000000
,
000010
001010
010000
011000
,
000001
100000
010010
100001
,
010000
011000
000010
001010
,
100000
001000
010000
000010
100000
000001
001001
000000
,
100000
000000
100100
000001
010000
000000
010000
000000
,
000001
001000
000001
001000
000010
000010
000010
000000
,
000001
000000
000101
100000
000010
000000
000010
000000
,
010000
000001
000100
001000
101000
000000
001001
000000
,
010000
000000
000100
001000
001001
000000
000000
000000
,
100000
000000
000100
000000
001000
010000
001000
000000
,
100000
000000
000010
000010
001100
000000
000000
000001
,
010000
001000
000100
000010
100000
001000
101000
000000
,
000010
000000
000100
001000
101000
000000
000000
000000
,
010000
000000
001000
000100
001000
100000
001001
000000
,
000001
000000
010000
010000
001100
000000
000000
000001
,
100000
000100
001000
000010
000010
100000
001000
000000
,
010000
010000
010000
000000
000001
000001
000001
000000
,
001000
000000
000010
100000
001000
100000
001000
000000
,
000100
000000
000010
000010
001000
001000
001000
000000
,
000001
010000
000001
001000
000100
000000
100001
000000
,
100100
000000
101000
000000
001001
000000
000101
001000
,
000000
000010
100000
000000
100010
000000
100010
000000
,
000001
000000
000000
001000
000000
000000
000000
100000
,
001001
101000
000001
100000
001000
010000
001000
000000
,
001001
000000
000010
100000
000001
000000
101000
100000
,
000001
001000
000010
000100
000001
001000
000100
000000
,
101000
000000
010000
000010
001001
000000
001000
000010
,
100000
000001
000100
001000
010000
000100
001000
000000
,
001100
000000
000010
100000
001000
000000
100001
100000
,
000001
000100
001000
010000
000001
000001
000001
000000
,
000101
000000
010000
000001
001001
000000
001000
000001
,
010000
010000
010000
010000
000000
000001
001000
000000
,
001010
000000
000100
100000
000001
000000
001001
000001
,
010000
001000
100000
000010
000100
001000
100000
000000
,
011000
000000
000100
000001
001001
000000
010000
000010
,
010000
000001
000100
001000
001000
100000
000001
000000
,
011000
000000
100000
000001
001001
000000
101000
000001
,
000100
001000
100000
000010
001000
001000
001000
000000
,
101000
000000
000010
100000
101000
000000
010010
000010
,
000100
000000
000001
000000
100000
000000
000010
000000
001000
000000
000010
000000
100000
000001
100000
000000
,
100001
000000
000000
000000
;

//---------------dance-single - ----------------
#NOTES:
     dance-single:
     :
     Challenge:
     12:
     0.581716,0.630090,0.428633,0.042863,0.016074,380.000000,340.000000,40.000000,4.000000,0.000000,0.000000,0.581716,0.630090,0.428633,0.042863,0.016074,380.000000,340.000000,40.000000,4.000000,0.000000,0.000000:
0000
0000
0000
0000
,
0000
0000
0000
0000
,
0000
0000
0000
0000
,
0000
0000
0000
0000
,
0000
0000
1010
0101
,
1001
0100
0010
1000
0100
0010
0001
1000
,
0010
0010
0010
0010
1000
0100
0001
0100
,
1000
0010
0100
0001
1000
0100
0010
0001
,
0100
0100
0100
0100
0101
0000
1100
0000
,
1001
0010
1000
0001
0100
0001
0010
0100
,
1000
1000
1000
1000
0010
0001
0010
1000
,
0100
0010
0100
1000
0010
0100
0001
1000
,
0001
0001
0001
0001
0011
0000
1100
0000
,
0110
1000
0100
0010
0001
0100
0001
1000
,
0010
0010
0010
0010
0100
1000
0100
0001
,
1000
0001
0010
0100
1000
0010
0100
0001
,
1000
1000
1000
1000
0100
0001
0100
1000
,
0010
1000
0100
0010
0001
0100
0010
1000
,
0100
0010
0001
0100
1000
1000
1000
0000
,
0100
0001
0010
0100
1000
0010
1000
0001
,
0010
0001
1000
0010
0100
0100
0100
0000
,
0010
0001
0010
1000
0100
0010
0100
1000
,
0010
0100
0010
1000
0001
0001
0001
0000
,
1000
0010
0100
0001
0010
0100
1000
0001
,
0100
0100
0010
0010
1001
0110
1001
0000
,
0101
0001
0010
0100
1000
0010
0100
0001
,
0010
0100
0010
0001
0100
0010
1000
0001
,
1000
0010
1000
0001
0010
0100
1000
0010
,
0100
0001
0010
0100
1000
1000
1000
0000
,
1010
0010
1000
0100
0010
0100
0010
0001
,
0100
0010
1000
0001
1000
0010
0100
0001
,
2002
0000
3003
0220
0000
0000
0330
0100
,
0001
0001
1000
1000
1100
0101
1100
0000
,
1001
0010
0100
0001
1001
0100
0010
1000
,
0100
0100
0010
0001
1000
1000
1000
0000
,
0110
0000
0010
0000
1000
0000
0001
0000
0110
0000
1000
0000
0010
0000
0100
0001
,
0100
0100
0010
0010
1000
0001
1000
0000
,
0011
1000
0001
0100
0011
0001
0010
0100
,
1000
1000
0010
0100
0001
0001
0001
0000
,
1010
0010
0100
0001
1010
1000
0100
0010
,
0011
0011
1100
1100
1000
0001
0100
0010
,
0110
0100
0001
1000
1100
0010
0100
1000
,
0010
0100
0010
1000
0100
0010
0001
1000
,
1010
0000
0010
0000
0100
0000
0001
0000
0011
0000
0010
0000
0100
0000
1000
0001
,
1000
0010
0100
0001
0010
0100
1000
0001
,
1001
0010
1000
0100
0110
0010
0001
1000
,
0010
1000
0100
0010
0001
0100
0010
1000
,
1100
0001
1000
0100
0011
0010
0100
1000
,
0010
0000
0010
0000
0100
0000
0100
0000
0001
0000
0001
0000
1000
0100
1000
0000
,
1010
0000
0000
0000
;

//---------------dance-solo - ----------------
#NOTES:
     dance-solo:
     :
     Beginner:
     4:
     0.166861,0.183776,0.010716,0.010716,0.000000,109.000000,108.000000,1.000000,1.000000,0.000000,0.000000,0.166861,0.183776,0.010716,0.010716,0.000000,109.000000,108.000000,1.000000,1.000000,0.000000,0.000000:
000000
000000
000000
000000
,
000000
000000
000000
000000
,
000000
000000
000000
000000
,
000000
000000
000000
000000
,
000000
000000
000000
000000
,
010000
000000
000010
000000
,
010000
010000
010000
000000
,
000010
000000
001000
000000
,
000010
000010
000010
000000
,
001000
000000
000010
000000
,
001000
001000
001000
000000
,
000010
000000
010000
000000
,
001000
001000
001000
000000
,
001000
000000
001000
000000
,
010000
010000
010000
000000
,
000010
000000
000010
000000
,
001000
001000
001000
000000
,
010000
000000
010000
000000
,
000010
000010
000010
000000
,
001000
000000
001000
000000
,
000010
000010
000010
000000
,
010000
000000
001000
000000
,
010000
010000
010000
000000
,
001000
000000
001000
000000
,
010000
010000
010000
000000
,
000000
001000
000000
010000
,
000000
000010
000000
001000
,
000000
000010
000000
010000
,
000000
001000
001000
001000
,
000000
010000
000000
001000
,
000000
010000
000000
000010
,
000020
000000
000030
000000
,
010000
010000
010000
000000
,
000010
000000
000010
000000
,
001000
001000
001000
000000
,
000010
000000
000010
000000
,
010000
010000
010000
000000
,
001000
000000
001000
000000
,
010000
010000
010000
000000
,
010000
000000
010000
000000
,
000010
000010
000010
000000
,
010000
000000
001000
000000
,
010000
010000
010000
000000
,
000010
000000
010000
000000
,
001000
001000
001000
000000
,
010000
000000
000010
000000
,
000010
000010
000010
000000
,
001000
000000
001000
000000
,
000010
000010
000010
000000
,
010010
000000
000000
000000
;

//---------------dance-solo - ----------------
#NOTES:
     dance-solo:
     :
     Challenge:
     12:
     0.584777,0.630090,0.428633,0.042863,0.016074,382.000000,342.000000,40.000000,4.000000,0.000000,0.000000,0.584777,0.630090,0.428633,0.042863,0.016074,382.000000,342.000000,40.000000,4.000000,0.000000,0.000000:
// measure 0
000000
000000
000000
000000
,  // measure 1
000000
000000
000000
000000
,  // measure 2
000000
000000
000000
000000
,  // measure 3
000000
000000
000000
000000
,  // measure 4
000000
000000
110000
000011
,  // measure 5
100001
001000
000010
000100
000001
010000
000100
100000
,  // measure 6
001000
001000
001000
001000
100000
000100
000001
000100
,  // measure 7
100000
000010
000100
001000
010000
000001
010000
001000
,  // measure 8
000100
000100
000100
000100
000101
000000
101000
000000
,  // measure 9
010010
001000
100000
000001
000100
001000
000100
000010
,  // measure 10
010000
010000
010000
010000
001000
000001
001000
100000
,  // measure 11
000010
010000
000010
000100
001000
100000
000001
001000
,  // measure 12
000010
000010
000010
000010
000100
010000
000100
000001
,  // measure 13
010000
000100
100000
000001
000100
001000
010000
000010
,  // measure 14
100000
100000
100000
100000
000100
010000
000100
000010
,  // measure 15
000100
100000
000001
000100
000010
010000
001000
100000
,  // measure 16
000001
000001
000001
000001
100000
000100
000001
000100
,  // measure 17
100000
001000
010000
000010
000100
000001
100000
001000
,  // measure 18
000100
000001
001000
000010
000100
000100
000100
000000
,  // measure 19
010000
001000
100000
000010
000100
001000
000100
000001
,  // measure 20
010000
000010
001000
000100
100000
100000
100000
000000
,  // measure 21
000001
100000
000100
001000
000010
010000
001000
100000
,  // measure 22
001000
000001
001000
010000
000100
000100
000100
000000
,  // measure 23
001000
000010
000100
001000
100000
000001
010000
000010
,  // measure 24
000100
000100
000001
000001
100001
010010
001100
000000
,  // measure 25
100100
000010
010000
001000
000001
001000
100000
000100
,  // measure 26
010000
000010
000100
001000
100000
000100
000010
000100
,  // measure 27
001000
000001
000100
100000
000100
000010
010000
001000
,  // measure 28
100000
000100
010000
000010
001010
001100
001001
000000
,  // measure 29
000101
010000
001000
100000
000100
000010
000100
100000
,  // measure 30
001000
000100
000010
001000
000001
000100
000010
010000
,  // measure 31
020020
000000
030030
002200
000000
000000
003300
010000
,  // measure 32
000100
000100
001000
001000
001100
010010
100001
000000
,  // measure 33
010010
010000
001000
000001
010010
000100
100000
000010
,  // measure 34
010000
001000
100000
000010
000100
000100
000100
000000
,  // measure 35
000101
000000
000001
000000
100000
000000
000010
000000
000101
000000
010000
000000
000100
000000
001000
000100
,  // measure 36
001000
001000
000010
000010
100000
100000
100000
000000
,  // measure 37
101000
100000
000010
010000
101000
000001
001000
000100
,  // measure 38
010000
001000
100000
000001
001000
001000
001000
000000
,  // measure 39
001010
000010
100000
000001
001010
001000
000100
010000
,  // measure 40
011000
011000
001010
001010
100000
000100
001000
000001
,  // measure 41
000101
000100
000010
010000
011000
001000
100000
000001
,  // measure 42
000100
000010
001000
000010
010000
001000
100000
000001
,  // measure 43
010001
000000
010000
000000
000100
000000
100000
000000
100001
000000
000001
000000
001000
000000
000010
010000
,  // measure 44
000010
000100
000001
100000
001000
010000
000100
100000
,  // measure 45
100100
000100
010000
001000
011000
000001
100000
000010
,  // measure 46
001000
000001
000100
001000
010000
000010
000100
000001
,  // measure 47
010001
001000
100000
000001
000101
000100
000010
010000
,  // measure 48
001000
000000
001000
000000
100000
000000
100000
000000
000001
000000
000001
000000
010000
000010
010000
000000
,  // measure 49
001100
000000
000000
000000
;
