#TITLE:Giudecca;
#SUBTITLE:;
#ARTIST:D.J.SETUP;
#TITLETRANSLIT:;
#SUBTITLETRANSLIT:;
#ARTISTTRANSLIT:;
#GENRE:;
#CREDIT:;
#BANNER:Giudecca-bn.png;
#BACKGROUND:Giudecca-bg.png;
#LYRICSPATH:;
#CDTITLE:;
#MUSIC:Giudecca.ogg;
#OFFSET:0.000000;
#SAMPLESTART:51.279999;
#SAMPLELENGTH:20.000000;
#SELECTABLE:YES;
#DISPLAYBPM:155.000000;
#BPMS:0.000000=155.000000
;
#STOPS:35.000000=0.213000
;
#BGCHANGES:;
#KEYSOUNDS:;
#ATTACKS:;

//---------------dance-single - ----------------
#NOTES:
     dance-single:
     :
     Hard:
     16:
     0.726715,0.843222,0.504631,0.195341,0.516840,625.000000,563.000000,62.000000,24.000000,0.000000,0.000000,0.726715,0.843222,0.504631,0.195341,0.516840,625.000000,563.000000,62.000000,24.000000,0.000000,0.000000:
0000
0000
0000
0000
,
0000
0000
0000
0000
,
0000
0000
0000
0000
,
0000
0000
0000
0000
,
0000
0000
0000
0000
,
0000
0000
0000
0000
,
0000
0000
0000
0000
,
0000
0000
0000
0000
,
0000
0000
0000
0000
,
1000
0001
0010
0100
0010
0001
1000
0000
,
0001
0100
0010
0100
0010
1000
0001
0000
,
0010
0100
0010
0001
0100
0010
1000
0000
,
0001
0010
0001
0100
0010
1000
0002
0000
,
0003
0010
0001
0000
0000
0000
0101
0000
0000
0000
1010
0000
0000
0100
1000
0000
,
0000
1000
0001
0000
0000
0000
0110
0000
0000
0010
1000
0000
0000
0001
0100
0000
,
0000
0001
0100
0000
0000
0000
1001
0000
0000
0000
1010
0000
0000
0010
1000
0000
,
0000
0000
1100
0000
1100
0000
1100
0000
1100
0000
1001
0000
0100
0010
1000
0000
,
0001
0100
0020
0000
0000
0000
1030
0100
0010
0000
0002
0000
0000
1003
0001
0100
,
0010
0000
2000
0000
0000
3100
0010
0100
1000
0000
0002
0000
0000
1003
0010
0100
,
0001
0000
0020
0000
0000
0130
0010
0001
0100
0000
0020
0000
0000
1030
0001
0010
,
0100
0000
2000
0000
0000
0000
3010
0100
0001
0000
0200
0000
0000
0301
0010
0001
,
1000
0000
0020
0000
0000
0130
0010
0100
0001
0000
2000
0000
0000
3100
1000
0010
,
1000
0000
0002
0000
0000
0013
0001
0010
0100
0000
2000
0000
0000
3010
0100
0001
,
1000
0000
0002
0000
0000
0013
0100
1000
0010
0000
0200
0000
0000
0301
1000
0100
,
1000
0000
0011
0000
0011
0000
0011
0000
0011
0000
1001
0000
0100
0000
0010
1000
,
0001
0000
1100
0000
0010
0000
0001
1000
0010
0000
0101
0000
0010
0000
1000
0001
,
0100
0000
0110
0000
0001
0000
0010
0100
1000
0000
1010
0000
0001
0000
1000
0100
,
0010
0000
1001
0000
0100
0000
0010
1000
0001
0000
0011
0000
0100
0000
1000
0010
,
1000
0000
0110
0000
0001
0000
0010
0001
1000
0000
1100
0000
1000
0010
0100
0001
,
1000
0000
1100
0000
0010
0000
0100
0001
0010
0000
0101
0000
0100
0000
1000
0001
,
1000
0000
1001
0000
0010
0000
0100
0001
0010
0000
1100
0000
0001
0000
1000
0010
,
0100
0000
1010
0000
0001
0000
0010
0100
1000
0000
0011
0000
0100
0000
0001
0010
,
0100
1100
0010
0101
1000
1010
0001
0101
,
1001
0010
0100
0010
1000
0100
0010
0001
,
0100
0001
0010
1000
0001
0010
0001
0100
,
0001
0010
1000
0100
0010
1000
0001
0010
,
0001
0100
0001
0010
1000
0100
0001
0010
,
1000
0001
0010
1000
0001
0010
0100
0010
,
0100
0010
1000
0001
0010
1000
0100
0010
,
0001
0100
0001
0010
1000
0001
0010
0001
,
1000
0100
0001
0010
0100
1000
0010
0001
,
0110
1000
0010
1000
0100
0001
0010
0001
,
0100
0001
0010
1000
0001
0010
1000
0100
,
0010
1000
0001
0010
0001
0100
0001
0010
,
0001
1000
0010
1000
0100
0010
0001
0100
,
1010
0100
0001
0010
0001
0100
1000
0001
,
0011
0100
1000
0010
1000
0100
0001
1000
,
0101
0010
1000
0001
1100
0010
0001
0100
,
0010
0000
0101
0000
0101
0000
0101
0000
0101
0000
1001
0000
0010
1000
0001
0100
,
0000
0000
0010
1000
0010
0100
0001
1000
0000
0100
0000
1000
0000
0010
0000
0001
,
0000
0000
0010
0001
1000
0010
1000
0100
0000
1000
0000
0010
0000
0001
0000
0100
,
0000
0000
0001
1000
0010
1000
0100
0010
0000
0001
0000
1000
0000
0010
0000
0100
,
0000
0000
0010
1000
0100
0010
0001
1000
0000
0001
0000
0010
0000
1000
0000
0100
,
0000
0000
0100
1000
0010
0100
0001
0010
0000
1000
0000
0001
0000
1000
0000
0100
,
0000
0000
0010
0001
1000
0010
1000
0100
0000
0010
0000
0100
0000
1000
0000
0001
,
0000
0000
0010
0100
0010
0001
0100
1000
0000
0010
0000
1000
0000
0001
0000
0100
,
0000
0010
1000
0000
1100
0000
1100
0000
1100
0000
1001
0000
0010
0000
0100
0001
,
0010
0000
2100
0000
0000
0000
3001
0010
1000
0000
0201
0000
0000
0000
0310
0100
,
0001
0000
0021
0000
0000
0000
0130
1000
0001
0000
0210
0000
0000
0301
0010
0001
,
1000
0000
1002
0000
0000
0013
0100
0010
0001
0000
0201
0000
0000
0310
1000
0100
,
0010
0000
0021
0000
0000
0000
0130
1000
0001
0000
1200
0000
0000
0310
0100
1000
,
0001
0000
0100
0000
0010
0000
1000
0001
1000
0000
0100
0000
0001
0000
0010
0100
,
0010
0000
0001
0000
1000
0000
0001
0100
0001
0000
0010
0000
0100
0000
1000
0010
,
1000
0000
0001
0000
0010
0000
0001
0100
0001
0000
1000
0000
0100
0000
0010
0100
,
1000
1010
0001
0011
1000
0110
1001
0010
,
0100
1000
0010
1000
0100
0010
0001
0100
,
0001
0010
0001
1000
0010
0001
0100
0010
,
0100
0001
0010
1000
0001
0010
1000
0100
,
1000
0100
0010
0100
1000
0010
0001
0100
,
1010
0001
0010
0100
1000
0010
1000
0001
,
1100
0010
0100
0010
1000
0100
0010
0001
,
0100
0010
0100
0001
0010
0100
1000
0010
,
0100
0000
0001
0010
0100
0010
0100
0010
0001
0100
0010
1000
0020
0000
0000
0000
,
0000
0000
0000
0000
,
0030
0000
0000
0000
;

//---------------dance-single - ----------------
#NOTES:
     dance-single:
     :
     Medium:
     11:
     0.512770,0.562521,0.439517,0.000000,0.000000,441.000000,387.000000,54.000000,0.000000,0.000000,0.000000,0.512770,0.562521,0.439517,0.000000,0.000000,441.000000,387.000000,54.000000,0.000000,0.000000,0.000000:
0000
0000
0000
0000
,
0000
0000
0000
0000
,
0000
0000
0000
0000
,
0000
0000
0000
0000
,
0000
0000
0000
0000
,
0000
0000
0000
0000
,
0000
0000
0000
0000
,
0000
0000
0000
0000
,
0000
0000
0000
0000
,
1000
0010
1000
0001
,
0010
0100
0010
0001
,
0100
1000
0010
0001
,
1000
0000
0001
0000
0010
1000
0100
0001
,
0000
0011
0000
0110
0000
1100
0000
1001
,
0000
1010
0000
0101
0000
0011
0000
1100
,
0000
0101
0000
1001
0000
0110
0000
1010
,
0000
0001
1000
0001
1000
0010
1000
0001
,
0010
0100
1000
0000
0010
0100
0001
0000
,
1000
0100
0000
0010
0001
0100
0000
0001
,
0010
1000
0000
0100
0010
0001
0000
1000
,
0100
0001
0000
0010
0100
0010
0000
0001
,
1000
0001
0000
1000
0010
1000
0000
0100
,
0001
0010
0000
0001
1000
0100
0000
0010
,
0100
1000
0000
0010
1000
0001
0000
0010
,
0001
0100
0010
0100
0010
1000
0001
0100
,
0010
1000
1100
0000
0010
0001
0101
0000
,
1000
0001
0110
0000
0001
1000
0101
0000
,
0010
0100
1001
0000
0100
0010
1010
0000
,
1000
0100
0011
0000
0010
0001
0101
0000
,
0010
0100
1100
0000
1000
0010
1001
0000
,
0001
0010
0011
0000
1000
0100
1010
0000
,
0001
0010
0101
0000
1000
0001
0110
0000
,
0010
0101
0000
1100
0000
0011
0000
1100
,
1001
0000
0010
0000
1000
0100
0001
0000
,
0010
0000
0001
0000
1000
0010
1000
0100
,
0001
0010
0001
0100
,
1000
0000
0001
0000
1000
0000
0010
0100
,
0010
0000
1000
0100
0010
0000
0001
0000
,
1000
0000
0001
0000
0100
0010
1000
0001
,
1000
0000
0001
0010
0100
1000
0001
0000
,
0100
0010
0100
0001
1000
0100
0010
0001
,
0110
0000
1000
0000
0001
0100
0010
1000
,
0100
0000
0010
0000
0001
1000
0010
1000
,
0100
0000
0010
0001
0100
0000
1000
0000
,
0001
0010
0100
0000
1000
0010
1000
0001
,
0011
0000
0100
1000
0010
1000
0001
0100
,
1010
0000
0001
0010
1000
0100
1000
0010
,
0101
0010
1100
0010
,
0001
1000
0010
1000
0010
0100
0010
1000
,
0000
0100
0010
0001
0100
0010
0100
0001
,
1000
0000
0010
1000
0100
0010
0001
0100
,
1000
0000
0001
0010
0001
1000
0100
0001
,
0010
0000
0100
0010
0001
0100
1000
0000
,
0001
0010
1001
0000
1000
0100
1100
0000
,
0010
0100
1001
0000
0001
1000
0110
0000
,
0010
1000
0101
0000
0001
0100
1010
0000
,
0001
1000
0100
1000
0100
0010
0001
0100
,
0001
0010
0000
0001
1000
0100
0000
1000
,
0010
0001
0000
1000
0100
0010
0000
0001
,
1000
0001
0000
0010
0001
0100
0000
0001
,
0010
1000
0000
0100
1000
0010
0000
1000
,
0001
0100
0010
1000
0100
0010
0001
0000
,
0100
0001
0010
0001
1000
0100
0001
0000
,
0010
0001
0110
0000
1000
0010
0101
0000
,
1000
0010
0001
1000
0001
0100
0010
0000
,
0001
0100
1001
0000
1000
0100
0011
0000
,
0100
0010
1010
0000
1000
0001
1100
0000
,
0010
0001
0011
0000
0100
0010
0110
0000
,
1000
0001
1000
0001
0010
1000
0101
0000
,
1001
0100
0010
1000
0100
0010
0001
0000
,
0110
0001
0010
1000
0100
0010
0001
0000
,
1000
0010
1000
0100
0010
0001
0100
0010
,
1000
0001
0100
0001
0100
0010
1001
0000
;

//---------------dance-single - ----------------
#NOTES:
     dance-single:
     :
     Easy:
     7:
     0.276733,0.355277,0.179063,0.113949,0.000000,238.000000,216.000000,22.000000,14.000000,0.000000,0.000000,0.276733,0.355277,0.179063,0.113949,0.000000,238.000000,216.000000,22.000000,14.000000,0.000000,0.000000:
0000
0000
0000
0000
,
0000
0000
0000
0000
,
0000
0000
0000
0000
,
0000
0000
0000
0000
,
0000
0000
0000
0000
,
0000
0000
0000
0000
,
0000
0000
0000
0000
,
0000
0000
0000
0000
,
0000
0000
0000
0000
,
1000
1000
1000
1000
,
0001
0001
0001
0001
,
0100
0100
0100
0100
,
0010
0010
1000
0100
,
0000
0010
0000
0001
0000
1000
0000
0001
,
0000
1000
0000
0010
0000
0100
0000
0001
,
0000
0010
0000
0100
0000
0010
0000
0001
,
0000
0001
0100
1000
,
1001
0010
1000
0100
,
1000
0010
1000
0001
,
0010
0001
0010
0100
,
1000
0010
1000
0100
,
0001
0010
0001
0100
,
0001
0010
1000
0001
,
1000
0010
1000
0100
,
0010
0001
0001
0100
,
0000
1010
0000
0000
0000
0101
0000
0000
,
0000
0011
0000
0000
0000
1100
0000
0000
,
0000
1001
0000
0000
0000
1010
0000
0000
,
0000
0110
0000
0000
0000
0101
0000
0000
,
1000
0010
1000
0001
,
0010
0100
0010
0001
,
0100
0010
1000
0001
,
0000
1000
0000
0100
0000
1000
0000
0001
,
0100
0000
0010
0000
,
1000
0100
1000
0001
,
0010
0000
0001
0000
,
1000
0001
1000
0010
,
0100
0000
0010
0000
,
1000
0100
1000
0010
,
0001
0000
1000
0000
,
0001
0010
0001
0100
,
0110
0000
1000
0100
,
0001
0010
0001
0100
,
1000
0000
0010
0100
,
0010
1000
0100
0010
,
0011
0000
1000
0001
,
1010
0000
0010
0100
,
1001
0000
0110
0000
,
1000
0010
0100
0001
,
0010
0001
1000
0001
,
1000
0010
0100
0001
,
0010
1000
0100
0010
,
0100
1000
0001
1000
,
0001
0010
0001
0100
,
0001
0010
1000
0100
,
0001
1000
0001
0100
,
0010
1000
0100
0001
,
2000
3000
0020
0030
,
2000
3000
0002
0003
,
0020
0030
0200
0300
,
2000
3000
0002
0003
,
0200
0300
0020
0030
,
0200
0300
0002
0003
,
2000
3000
0200
0300
,
0000
1000
0000
0010
0000
1000
0001
0000
,
0000
0011
0000
0000
0000
1100
0000
0000
,
0000
0101
0000
0000
0000
1010
0000
0000
,
0000
1001
0000
0000
0000
0110
0000
0000
,
0000
0100
0000
0001
0000
0010
1000
0000
,
0101
0010
1000
0100
,
0011
0001
1000
0010
,
1000
0010
1000
0001
,
0100
0010
0100
0010
0100
0010
0100
0000
;

//---------------dance-single - ----------------
#NOTES:
     dance-single:
     :
     Beginner:
     2:
     0.120925,0.207245,0.081392,0.000000,0.000000,104.000000,94.000000,10.000000,0.000000,0.000000,0.000000,0.120925,0.207245,0.081392,0.000000,0.000000,104.000000,94.000000,10.000000,0.000000,0.000000,0.000000:
0000
0000
0000
0000
,
0000
0000
0000
0000
,
0000
0000
0000
0000
,
0000
0000
0000
0000
,
0000
0000
0000
0000
,
0000
0000
0000
0000
,
0000
0000
0000
0000
,
0000
0000
0000
0000
,
0000
0000
0000
0000
,
1000
0000
0000
0000
,
0000
0000
0000
0000
,
0000
0000
0000
0000
,
0000
0000
0000
0100
,
0000
0001
0000
0001
,
0000
1000
0000
1000
,
0000
0010
0000
0010
,
0000
0100
0100
0000
,
1001
0000
0000
0000
,
0001
0000
0000
0000
,
0010
0000
0000
0000
,
0100
0000
0000
0000
,
1000
0000
0000
0000
,
0010
0000
0000
0000
,
1000
0000
0000
0000
,
0001
0000
0110
0000
,
0000
0001
0000
0001
,
0000
1000
0000
1000
,
0000
0010
0000
0010
,
0000
0100
0000
0100
,
0100
0000
0000
0000
,
0001
0000
0000
0000
,
1000
0000
0010
0000
,
0100
0000
0001
0000
,
1001
0000
0000
0000
,
0000
0000
0000
0000
,
0000
0000
0000
0000
,
0000
0000
0000
0000
,
0100
0000
0000
0000
,
0000
0000
0000
0000
,
0000
0000
0000
0000
,
0000
0000
0000
0000
,
0110
0000
0000
0000
,
1000
0000
0000
0000
,
0100
0000
0000
0000
,
0001
0000
0000
0000
,
1001
0000
0000
0000
,
0110
0000
0000
0000
,
1001
0000
0110
0000
,
1000
1000
1000
0000
,
0000
0001
0000
0001
,
0000
0010
0000
0001
,
0000
0100
0000
0010
,
0000
1000
0000
0100
,
0000
1000
0000
0010
,
0000
0010
0000
0100
,
0000
0001
0000
0010
,
0000
0100
0100
0000
,
1000
0000
0001
0000
,
1000
0000
0010
0000
,
0100
0000
0001
0000
,
0010
0000
0100
0000
,
0010
0000
0010
0000
,
0001
0000
0100
0000
,
1000
0000
0001
0000
,
0100
0000
0010
0000
,
0000
1000
0000
0001
,
0000
1000
0000
0010
,
0000
0100
0000
0001
,
0000
0010
0010
0000
,
1001
0000
0000
0000
,
0110
0000
0000
0000
,
1000
0000
0001
0000
,
1000
1000
1000
1000
;

//---------------dance-single - ----------------
#NOTES:
     dance-single:
     :
     Challenge:
     18:
     0.981357,1.036224,0.406961,0.000000,1.318552,844.000000,794.000000,50.000000,0.000000,0.000000,0.000000,0.981357,1.036224,0.406961,0.000000,1.318552,844.000000,794.000000,50.000000,0.000000,0.000000,0.000000:
// measure 0
0000
0000
0000
0000
,  // measure 1
0000
0000
0000
0000
,  // measure 2
0000
0000
0000
0000
,  // measure 3
0000
0000
0000
0000
,  // measure 4
0000
0000
0000
0000
,  // measure 5
0000
0000
0000
0000
,  // measure 6
0000
0000
0000
0000
,  // measure 7
0000
0000
0000
0000
,  // measure 8
0000
0000
0000
0000
,  // measure 9
1000
0010
0100
0010
1000
0100
0010
0001
,  // measure 10
0100
0001
0010
0100
1000
0001
1000
0010
,  // measure 11
0100
0001
0010
0001
1000
0100
0010
0001
,  // measure 12
0100
0000
0000
0010
0000
0000
1000
0000
0000
0001
0000
0000
0010
0000
0000
0100
0000
0000
1000
0001
1000
0001
1000
0000
,  // measure 13
0010
1000
0100
0000
0010
0000
0001
0000
0100
0000
0010
0000
1000
0001
1000
0000
,  // measure 14
0100
0010
0001
0000
0100
0000
0010
0000
1000
0001
0010
0000
0001
0100
1000
0000
,  // measure 15
0010
1000
0100
0000
0010
0000
0001
0000
1000
0000
0001
0000
0100
0010
1000
0000
,  // measure 16
0001
0010
1000
0000
1100
0000
0110
0000
0011
0000
1001
0000
0100
0010
1000
0000
,  // measure 17
0001
0000
0010
0000
1000
0000
0010
0100
1000
0000
0001
0100
0000
0010
1000
0100
,  // measure 18
0010
0000
0001
0000
0100
0001
0010
0100
1000
0000
0001
0000
0100
0001
1000
0010
,  // measure 19
0100
0000
0001
0000
0010
0100
0010
0001
1000
0000
0010
0000
0100
0001
1000
0100
,  // measure 20
0001
0000
0010
0000
0001
0100
0010
1000
0100
0000
0010
0000
0001
1000
0010
1000
,  // measure 21
0100
0000
0001
0010
0000
0100
1000
0010
1000
0000
0001
1000
0000
0001
0010
0100
,  // measure 22
1000
0000
0010
0000
0100
0010
1000
0001
0010
0000
1000
0000
0100
0010
0001
1000
,  // measure 23
0010
0000
0100
0000
0010
1000
0010
0100
0001
0000
0010
0000
1000
0001
1000
0010
,  // measure 24
0100
0001
0010
0000
0011
0000
0110
0000
1100
0000
1010
0000
1001
0000
0100
0010
,  // measure 25
1000
0000
0101
0000
0010
0001
1000
0010
0100
0000
1010
0000
0001
1000
0010
1000
,  // measure 26
0100
0000
0011
0000
0100
0010
1000
0001
0010
0000
1001
0000
1000
0010
0001
0100
,  // measure 27
0010
0000
0101
0000
1000
0001
0010
1000
0100
0000
0011
0000
0100
0010
1000
0001
,  // measure 28
0010
0000
1100
0000
0001
1000
0010
1000
0100
0010
0001
0000
1000
0010
1000
0001
,  // measure 29
0100
0000
0010
1000
0100
0000
0010
0001
0100
0000
0001
0010
1000
0000
0100
0010
,  // measure 30
0001
0000
1000
0010
0001
0000
1000
0100
0010
0001
1000
0001
0100
0000
0010
1000
,  // measure 31
0001
0000
0010
0001
1000
0000
0100
1000
0010
0000
0100
0001
0010
0000
1000
0100
,  // measure 32
0010
0100
1000
0010
0100
0000
0001
0010
0001
1000
0100
0010
0100
1000
0001
0100
,  // measure 33
0010
0000
1000
0000
0100
0010
0001
0000
1000
0010
0000
1000
0010
0000
0100
0001
,  // measure 34
0000
0010
0001
0000
1000
0001
1000
0010
0100
0000
0001
0010
0000
0001
1000
0001
,  // measure 35
0100
0000
0010
0000
1000
0100
1000
0001
0000
0001
0010
0000
0100
1000
0000
0001
,  // measure 36
1000
0000
0010
0100
0000
0010
1000
0000
0100
0010
0000
0001
0100
0000
0001
1000
,  // measure 37
0010
0100
0001
0000
0010
0100
1000
0001
1000
0000
0010
0100
0000
0010
1000
0001
,  // measure 38
0000
1000
0100
0010
0001
0000
1000
0001
0000
0010
0001
0010
0100
1000
0010
0100
,  // measure 39
0001
0010
0000
0001
1000
0000
0100
0010
0000
0001
0100
0010
1000
0100
0000
1000
,  // measure 40
0001
0000
0010
0001
0000
1000
0010
1000
0100
0010
0001
0100
0010
1000
0001
1000
,  // measure 41
0110
0000
0010
1000
0100
0000
0010
0001
1000
0010
1000
0100
0010
0001
0100
0010
,  // measure 42
1000
0100
0010
0001
0100
0010
0100
0001
0010
0100
1000
0001
1000
0010
0100
0001
,  // measure 43
0010
0100
0010
0001
0100
0010
1000
0001
1000
0100
0010
0001
1000
0010
0001
0100
,  // measure 44
0001
0010
0001
0100
0010
1000
0100
0010
0001
1000
0010
1000
0100
0010
0001
0100
,  // measure 45
1010
0000
0010
1000
0000
0001
1000
0000
0100
0010
0000
0001
0100
0000
0001
1000
,  // measure 46
0101
0000
0010
0100
0000
0010
1000
0001
1000
0100
0010
0001
0100
0010
1000
0001
,  // measure 47
1100
0000
0010
0001
1000
0010
1000
0100
0011
0000
0100
0010
1000
0001
0010
0100
,  // measure 48
1000
0000
1010
0000
1001
0000
0011
0000
0110
0000
1100
0000
0001
0100
0010
1000
,  // measure 49
0001
0000
0010
0001
1000
0010
1000
0100
0000
0010
0001
0100
0000
0001
0010
1000
,  // measure 50
0000
0100
0010
0100
1000
0010
1000
0001
0000
0010
0001
0100
0000
0001
0010
1000
,  // measure 51
0000
0100
1000
0010
0100
0001
1000
0001
0000
0010
0001
0100
0000
0001
0010
1000
,  // measure 52
0000
0100
0010
0100
1000
0001
0100
0010
0000
1000
0001
1000
0010
0100
0001
0010
,  // measure 53
0100
0000
1000
0001
0010
1000
0100
0010
0001
0100
0010
1000
0000
0100
1000
0001
,  // measure 54
0000
0010
0001
1000
0001
0010
1000
0100
0000
0010
0100
0010
0000
0001
0100
1000
,  // measure 55
0010
0000
0100
0001
0010
0001
1000
0100
0001
0000
1000
0010
0100
0010
1000
0001
,  // measure 56
0010
0100
1000
0000
1001
0000
0011
0000
0110
0000
1100
0000
0001
1000
0010
0100
,  // measure 57
0001
0000
1010
0000
0010
1000
0100
0001
1000
0000
0011
0000
1000
0001
0010
0100
,  // measure 58
1000
0001
0110
0000
0010
0100
0010
1000
0100
0010
0011
0000
1000
0001
1000
0010
,  // measure 59
0100
0001
1010
0000
0100
0010
0100
0001
1000
0100
1001
0000
0010
0001
1000
0010
,  // measure 60
0100
0001
0101
0000
0010
1000
0100
0010
0001
0000
0110
0000
1000
0010
1000
0001
,  // measure 61
0100
0000
1001
0010
0001
0100
0001
0010
1000
0000
1100
0010
0001
0100
0001
1000
,  // measure 62
0010
0000
0101
0001
0010
0100
1000
0010
1000
0001
0110
0000
0010
1000
0100
0010
,  // measure 63
0001
0100
1001
0000
0010
1000
0001
0010
0001
0100
1010
0000
1000
0100
0010
0001
,  // measure 64
0100
0010
0101
0000
0010
1000
0100
0010
0001
0100
1000
0000
1001
0000
0110
0000
,  // measure 65
0100
0001
0000
0001
0010
0000
1000
0001
0000
1000
0100
0000
0100
0010
0000
1000
,  // measure 66
0001
0010
0100
0000
1000
0010
1000
0100
0010
0001
1000
0000
0010
0000
0100
0001
,  // measure 67
0000
0010
0001
0100
1000
0001
0000
0010
0100
0010
0001
1000
0000
0100
1000
0010
,  // measure 68
0100
0001
0010
0000
0001
0010
1000
0000
0100
0010
0001
0000
1000
0001
0100
0000
,  // measure 69
1010
0000
0100
0010
0001
0100
0001
1000
0001
0010
0100
1000
0010
1000
0100
0010
,  // measure 70
0011
0000
1000
0001
0010
0001
0100
0010
1000
0100
0010
0001
0100
0001
0010
1000
,  // measure 71
0001
0100
0010
0000
1000
0100
1000
0001
0100
0000
0010
1000
0000
0001
0100
0000
,  // measure 72
0010
1000
0100
0001
0010
1000
0100
0001
0010
1000
0100
0001
1100
0000
0000
0000
;
