#TITLE:Get me in your sight;
#SUBTITLE:~AMD CANCUN MIX~;
#ARTIST:SYMPHONIC DEFOGGERS with 1479;
#BANNER:Get me in your sight (AMD CANCUN MIX)-bn.png;
#BACKGROUND:Get me in your sight (AMD CANCUN MIX)-bg.png;
#JACKET:Get me in your sight (AMD CANCUN MIX)-jacket.png;
#MUSIC:Get me in your sight (AMD CANCUN MIX).ogg;
#SAMPLESTART:39.071;
#SAMPLELENGTH:20;
#DISPLAYBPM:127;
#BPMS:0=126.984;
#BGCHANGES:;

//---------------dance-single - ----------------
#NOTES:
     dance-single:
     :
     Beginner:
     3:
     :
0000
0000
0000
0000
,
0000
0000
0000
0000
,
0000
0000
0000
0000
,
0000
0000
0000
0000
,
0000
0000
0000
0000
,
1000
0000
0000
0000
,
0001
0000
0000
0000
,
1000
0000
0000
0000
,
0001
0000
0000
0000
,
0100
0000
0100
0000
,
0100
0000
0100
0000
,
0010
0000
0010
0000
,
0010
0000
0010
0000
,
1000
0000
0000
0000
,
0001
0001
0001
0000
,
0010
0000
0000
0000
,
0100
0100
0100
0000
,
1000
0000
0000
0000
,
0010
0010
0010
0000
,
0100
0000
0000
0000
,
0001
0000
0000
0000
,
0010
0000
0001
0000
,
0100
0000
0000
0000
,
0001
0000
1000
0000
,
0100
0000
0000
0000
,
1000
0000
0010
0000
,
0100
0000
0000
0000
,
0010
0000
1000
0000
,
0001
0000
0000
0000
,
0001
0000
0001
0000
,
0001
0000
0000
0000
,
1000
0000
1000
0000
,
1000
0000
0000
0000
,
0010
0000
0010
0000
,
0010
0000
0000
0000
,
0100
0000
0100
0000
,
0100
0000
0010
0000
,
1000
0000
0001
0000
,
1000
0000
0010
0000
,
1000
0000
0100
0000
,
0001
0000
0100
0000
,
0010
0010
0010
0010
,
0000
0000
0000
0000
,
1000
1000
1000
1000
,
0000
0000
0000
0000
,
0001
0001
0001
0001
,
0000
0000
0000
0000
,
0100
0100
0100
0100
,
0000
0000
0000
0000
,
1001
0000
0000
0000
;

//---------------dance-single - ----------------
#NOTES:
     dance-single:
     :
     Easy:
     5:
     :
0000
0000
0000
0000
,
0000
0000
0000
0000
,
0000
0000
0000
0000
,
0000
0000
0000
0000
,
0000
0000
0000
0000
,
1000
0010
0010
0010
,
0001
0010
0010
0010
,
1000
0100
0100
0100
,
0001
0100
0100
0100
,
0010
1000
0100
0010
,
0001
1000
0010
0100
,
0001
0010
0100
1000
,
0001
0100
0010
1000
,
0100
0010
0001
1000
,
0100
0010
0001
0100
,
0010
1000
0100
0010
,
0001
1000
0100
0010
,
0001
0100
0010
1000
,
0001
0010
0100
1000
,
0001
0100
0010
1000
,
0100
0010
0001
1000
,
0001
0100
0001
0100
,
0001
0100
0001
0100
,
1000
0100
1000
0100
,
1000
0100
1000
0100
,
0001
0010
0001
0010
,
0001
0010
0001
0010
,
1000
0010
1000
0010
,
1000
0010
1000
0010
,
0100
0000
0001
0000
,
1000
0000
0100
0000
,
0010
0000
0001
0000
,
1000
0000
0100
0000
,
0010
0000
0001
0000
,
1000
0000
0010
0000
,
0100
0100
0000
0000
,
0001
0001
0000
0000
,
1000
1000
0000
0000
,
0010
0010
0000
0000
,
0100
0100
0000
0000
,
0001
0001
0000
0000
,
1000
0100
0010
0001
,
0100
0010
1000
0001
,
0100
0010
1000
0100
,
0010
0001
1000
0010
,
0100
0001
1000
0100
,
0010
0001
1000
0010
,
0100
0001
1000
0100
,
0010
0001
0100
0010
,
0000
1001
0000
0000
0000
0000
0000
0000
;

//---------------dance-single - ----------------
#NOTES:
     dance-single:
     :
     Medium:
     8:
     :
0000
0000
0000
0000
,
0000
0000
0000
0000
,
0000
0000
0000
0000
,
0000
0000
0000
0000
,
0000
0000
0000
0000
,
1000
0100
1000
0000
0001
0100
0001
0000
,
0010
0100
0010
0000
0001
1000
0001
0000
,
0100
0010
1000
0000
0001
0010
0100
0000
,
1000
0001
0100
0000
0010
1000
0100
0000
,
0010
0000
0001
0000
1000
0010
0100
0000
,
0001
0000
1000
0000
0100
0010
0001
0000
,
0100
0000
0010
0000
1000
0100
0010
0000
,
0001
0000
1000
0000
0010
0100
0001
0000
,
1000
0000
1000
0000
0100
0010
0001
0000
,
1000
0000
0010
0000
0100
0000
0001
1000
,
0100
0000
0100
0000
0010
0001
0100
0000
,
0010
0000
1000
0000
0100
0000
0010
0001
,
1000
0000
1000
0000
0010
0100
0001
0000
,
1000
0000
0100
0000
0010
0000
0001
0100
,
0010
0000
0010
0000
1000
0001
0010
0000
,
0100
0000
1000
0000
0001
0000
0100
0010
,
1000
0001
0010
0100
1000
0001
0100
0000
,
0010
1000
0001
0100
,
0010
1000
0100
0010
0001
1000
0010
0000
,
0100
0001
1000
0100
,
0010
0001
1000
0010
0100
0001
1000
0000
,
0100
0010
0001
1000
,
0010
0100
0001
1000
0100
0010
0001
0000
,
1000
0100
0010
0001
,
0100
0010
1000
0100
,
0010
0001
1000
0010
,
0100
0001
0010
0100
,
1000
0001
0100
0010
,
1000
0100
0010
0001
,
1000
0010
0100
0001
,
1000
0000
1000
0000
0100
0010
0100
0000
,
1000
0000
1000
0000
0001
0100
0001
0000
,
0010
0000
0010
0000
0100
1000
0100
0000
,
0010
0000
0010
0000
0001
0100
0001
0000
,
1000
0000
1000
0000
0010
0100
0010
0000
,
1000
0000
1000
0000
0001
0010
0001
0000
,
1000
0100
0010
0001
0100
0010
1000
0000
,
0001
0100
0010
1000
,
0001
0010
0100
1000
0001
0100
0010
0000
,
1000
0100
0010
0001
,
0100
0010
1000
0001
0010
0100
1000
0000
,
0001
0010
0100
1000
,
0001
0100
0010
1000
0001
0010
0100
0000
,
1000
0001
0100
0010
,
0000
1001
0000
0000
0000
0000
0000
0000
;

//---------------dance-single - ----------------
#NOTES:
     dance-single:
     :
     Hard:
     11:
     :
0000
0000
0000
0000
,
0000
0000
0000
0000
,
0000
0000
0000
0000
,
0000
0000
0000
0000
,
0000
0000
0000
0000
,
1000
0100
0010
0001
0100
0010
1000
0000
,
0001
0100
0010
1000
0100
0010
0001
0000
,
1000
0010
0100
0001
1000
0100
0010
0000
,
0001
0100
0010
1000
0001
0010
0100
0000
,
1000
0000
0100
0000
1000
0000
0001
0100
0001
0100
0001
0000
1000
0000
0000
0000
,
0010
0000
0100
0000
0010
0000
1000
0100
1000
0100
1000
0000
0001
0000
0000
0000
,
0100
0000
0010
0000
0100
0000
0001
1000
0001
1000
0001
0000
0010
0000
0000
0000
,
0100
0000
1000
0000
0100
0000
0010
0001
0010
0001
0010
0000
0100
0000
0000
0000
,
1000
0000
0001
0000
0100
0000
0010
1000
0010
1000
0010
0000
0100
0000
0000
0000
,
0001
0000
0010
0000
0100
0000
1000
0001
1000
0001
1000
0000
0010
0000
0000
0000
,
0100
0000
0001
0000
0010
0000
0100
1000
0100
1000
0100
0000
0010
0000
0000
0000
,
0001
0000
1000
0000
0010
0000
0100
0001
0100
0001
0100
0000
0010
0000
0000
0000
,
1000
0000
0100
0000
0010
0000
0001
1000
0001
1000
0001
0000
0100
0000
0000
0000
,
0010
0000
1000
0000
0100
0000
0010
0001
0010
0001
0010
0000
0100
0000
0000
0000
,
1000
0000
0001
0000
0100
0000
0010
1000
0010
1000
0010
0000
0100
0000
0000
0000
,
0001
0000
0010
0000
0100
0000
1000
0010
1000
0010
1000
0000
0001
0000
0000
0000
,
0010
0000
0000
0100
0000
0000
1000
0000
0000
0001
0000
0000
0100
0000
0000
0010
,
0000
0000
1000
0000
0000
0100
0000
0000
0010
0000
0001
0000
0010
0000
0000
0000
,
0100
0000
0000
1000
0000
0000
0001
0000
0000
0100
0000
0000
0010
0000
0000
1000
,
0000
0000
0001
0000
0000
0010
0000
0000
0100
0000
1000
0000
0100
0000
0000
0000
,
0010
0000
0000
0001
0000
0000
0100
0000
0000
0010
0000
0000
1000
0000
0000
0001
,
0000
0000
0100
0000
0000
0010
0000
0000
1000
0000
0100
0000
1000
0000
0000
0000
,
0001
0000
0000
0100
0000
0000
0010
0000
0000
1000
0000
0000
0001
0000
0000
0010
,
0000
0000
0100
0000
0000
1000
0000
0000
0001
0000
0100
0000
0001
0000
0000
0000
,
1000
0000
0100
0000
0010
0000
0001
0100
,
0010
0000
1000
0000
0001
0000
0010
0100
,
1000
0000
0010
0000
0100
0000
0001
0010
,
0100
0000
1000
0000
0010
0000
0100
0001
,
1000
0000
0100
0000
0010
0000
0001
1000
,
0010
0100
0001
1000
,
1000
0000
0000
0100
0000
0000
0010
0000
0000
0000
0001
0000
0001
0000
0000
0000
,
0100
0000
0000
0010
0000
0000
1000
0000
0000
0000
0001
0000
0001
0000
0000
0000
,
0010
0000
0000
0100
0000
0000
1000
0000
0000
0000
0010
0000
0010
0000
0000
0000
,
0100
0000
0000
0001
0000
0000
1000
0000
0000
0000
0100
0000
0100
0000
0000
0000
,
0010
0000
0000
0001
0000
0000
0100
0000
0000
0000
0010
0000
0010
0000
0000
0000
,
1000
0000
0000
0100
0000
0000
0010
0000
0000
0000
0001
0000
0001
0000
0000
0000
,
1000
0000
0000
0010
0000
0000
0100
0000
0000
0001
0000
0000
0010
0000
0000
0100
,
0000
0000
1000
0000
0000
0001
0000
0000
0100
0000
0010
0000
1000
0000
0000
0000
,
0100
0000
0000
0010
0000
0000
0001
0000
0000
1000
0000
0000
0010
0000
0000
0100
,
0000
0000
0001
0000
0000
0010
0000
0000
0100
0000
1000
0000
0001
0000
0000
0000
,
0100
0000
0000
0010
0000
0000
1000
0000
0000
0001
0000
0000
0100
0000
0000
0010
,
0000
0000
1000
0000
0000
0100
0000
0000
0010
0000
0001
0000
0100
0000
0000
0000
,
0010
0000
0000
1000
0000
0000
0001
0000
0000
0010
0000
0000
0100
0000
0000
1000
,
0000
0000
0001
0000
0000
0100
0000
0000
0010
0000
1000
0000
0001
0000
0000
0000
,
0000
0110
0000
0000
0000
0000
0000
0000
;

//---------------dance-single - ----------------
#NOTES:
     dance-single:
     :
     Challenge:
     14:
     :
0000
0000
0000
0000
,
0000
0000
0000
0000
,
0000
0000
0000
0000
,
0000
0000
0000
0000
,
0000
0000
0000
0000
,
1000
0000
0000
1100
0000
0000
0001
0000
0000
0101
0000
0000
0100
0000
0000
0110
,
0000
0000
0010
0000
0000
1010
0000
0000
1000
0000
0000
1001
0000
0001
0010
0001
,
0010
0000
0000
0011
0000
0000
0100
0000
0000
1100
0000
0000
0001
0000
0000
0101
,
0000
0000
1000
0000
0000
1010
0000
0000
0001
1000
0001
0100
0001
1000
0001
0000
,
0010
0001
0000
0011
0000
0000
0001
0100
0000
0110
0000
0000
0010
1000
0000
1010
,
0000
0000
1000
0001
0000
1001
0000
0000
0100
0010
0000
0110
0000
0100
0001
0100
,
0001
1000
0000
1001
0000
0000
0001
0100
0000
0101
0000
0000
0100
0010
0000
0110
,
0000
0000
0010
1000
0000
1010
0000
0000
0001
0010
0000
0011
0000
0001
0010
0100
,
1000
0010
0000
1000
0010
0000
0100
0000
0000
0000
0101
0000
0000
1100
0000
0000
,
0011
0000
0000
0110
0000
0000
1200
0000
0000
0000
0001
0000
0000
1300
0000
0000
,
0100
1000
0000
0100
1000
0000
0001
0000
0000
0000
0011
0000
0000
1010
0000
0000
,
1100
0000
0000
1001
0000
0000
0201
0000
0000
0000
1000
0000
0000
0301
0000
0000
,
0100
0010
0000
0100
0010
0000
1000
0000
0000
0000
0001
0000
0000
1000
0000
0000
,
1010
0000
0000
1100
0000
0000
0011
0000
0000
1001
0000
0000
0101
0000
0100
0000
,
0020
0000
0000
0000
1030
0001
0000
0010
0000
0001
0000
0100
0000
0001
0000
1000
,
0000
0010
1000
0000
0001
1000
0000
0001
0100
0000
0010
0000
0010
1000
0001
0000
,
0011
0000
0000
0110
0000
0000
1100
0000
0000
0110
0000
0000
0011
0000
0100
0000
,
1000
0001
0000
1000
0001
0000
0200
0000
0000
0000
0310
0000
0010
1000
0100
0000
,
1100
0000
0000
1001
0000
0000
0101
0000
0000
1001
0000
0000
1100
0000
1000
0000
,
0001
0010
0000
0001
0010
0000
0200
0000
0000
0000
1300
0000
1000
0010
0100
0000
,
0110
0000
0000
1010
0000
0000
0110
0000
0000
0101
0000
0000
0110
0000
0010
0000
,
1000
0100
0000
1000
0100
0000
0020
0000
0000
0000
0031
0000
0001
1000
0100
0000
,
0110
0000
0000
1100
0000
0000
0110
0000
0000
0011
0000
0000
0110
0000
0100
0000
,
2000
0000
0000
3020
0000
0000
0230
0000
0000
0000
0301
0000
0001
1000
0010
0000
,
2010
0000
0000
0001
0000
0000
0010
0000
0000
0001
0000
0000
3100
0000
0000
0000
,
1000
0001
0000
0010
0000
0100
0000
1000
0000
0000
0010
0000
0010
0100
0001
0000
,
0102
0000
0000
1000
0000
0000
0010
0000
0000
1000
0000
0000
0103
0000
0000
0000
,
0001
0010
0000
0001
0000
0100
0000
0010
0000
0000
1000
0000
1000
0001
0100
0000
,
0210
0000
0000
0001
0000
0000
1000
0000
0000
0001
0000
0000
0310
0000
0000
0000
,
0010
1000
0000
0100
0000
0010
0000
0001
0000
1000
0000
0000
0001
0100
0001
0000
,
0000
0000
0010
0100
0000
1100
0000
0000
1000
0001
0000
1000
0200
0000
0000
0000
,
1300
0000
1000
0000
0001
0100
0000
0010
0000
0100
0000
0001
0000
1000
0000
0100
,
0000
1000
0001
0000
0000
0011
0000
0000
0001
0010
0000
0100
1000
0000
0010
0100
,
0010
0100
0000
0001
0000
1000
0000
0100
0000
0010
0000
0001
0100
0010
0100
0010
,
0000
1000
0010
0100
0001
0010
0100
1000
0000
0000
0000
0000
0000
0001
0010
0100
,
0000
1100
0000
1100
0000
0011
0000
0011
0000
0001
1000
0000
1000
0100
0010
0000
,
0011
0000
0000
1100
0000
0000
0101
0000
0000
1100
0000
0000
0011
0000
0000
0000
,
0000
1000
0001
1000
0010
0100
0001
1000
0000
0010
0100
0000
0100
0001
0010
0000
,
0011
0000
0000
0101
0000
0000
1010
0000
0000
0101
0000
0000
0011
0000
0001
0000
,
0000
1000
0100
0000
1000
0100
0000
1000
0100
0000
0010
0000
0010
0001
1000
0000
,
1100
0000
0000
0011
0000
0000
1010
0000
0000
0011
0000
0000
1100
0000
0000
0000
,
0001
1000
0000
0001
1000
0000
0020
0000
0000
0000
0130
0000
0100
0001
0010
0000
,
0011
0000
0000
0101
0000
0000
1100
0000
0000
0101
0000
0000
0011
0000
0000
0000
,
1000
0100
1000
0100
0010
0001
0010
0001
0100
0010
0100
0010
1000
0001
1000
0001
,
0000
0000
1001
0000
0000
1100
0000
0000
0110
0000
0000
0011
0000
0000
1001
0000
;

//---------------dance-double - ----------------
#NOTES:
     dance-double:
     :
     Easy:
     5:
     :
00000000
00000000
00000000
00000000
,
00000000
00000000
00000000
00000000
,
00000000
00000000
00000000
00000000
,
00000000
00000000
00000000
00000000
,
00000000
00000000
00000000
00000000
,
10000000
10000000
00010000
01000000
,
00001000
00001000
00010000
00000100
,
00001000
00001000
00000001
00000100
,
00000010
00000010
00001000
00000100
,
00010000
00010000
00001000
00001000
,
00100000
00100000
00010000
00010000
,
10000000
10000000
00100000
00100000
,
01000000
01000000
00010000
00010000
,
00100000
00001000
00010000
00000000
,
00000100
00001000
00000001
00000000
,
00000010
00000100
00001000
00000000
,
00000010
00010000
00001000
00000000
,
01000000
00010000
10000000
00000000
,
01000000
00100000
00010000
00000000
,
01000000
00001000
00010000
00000000
,
00000010
00001000
00000001
00000000
,
00000010
00000100
00010000
00000100
,
00000010
00000100
00010000
00001000
,
00100000
00010000
10000000
00010000
,
00100000
00010000
10000000
01000000
,
00100000
00001000
00010000
00001000
,
00100000
00001000
00010000
00000100
,
00001000
00000001
00000100
00000001
,
00001000
00000001
00000100
00000010
,
00010000
00000000
00001000
00000000
,
00100000
00000000
01000000
00000000
,
10000000
00000000
00010000
00000000
,
01000000
00000000
00001000
00000000
,
00000100
00000000
00000001
00000000
,
00000010
00000000
00000100
00000000
,
00010000
00001000
00100000
00000000
,
00010000
10000000
01000000
00000000
,
00100000
00001000
00010000
00000000
,
00000010
00001000
00000001
00000000
,
00000100
00000000
00000010
00000000
,
00010000
00000000
00001000
00000000
,
00100000
01000000
00001000
00000100
,
00010000
01000000
00001000
00000100
,
00000010
00001000
00000100
00010000
,
01000000
10000000
00100000
01000000
,
00001000
00000100
00000001
00000010
,
00000100
00010000
01000000
10000000
,
00100000
00001000
00100000
10000000
,
01000000
00010000
00001000
00000100
,
00000000
00001001
00000000
00000000
00000000
00000000
00000000
00000000
;

//---------------dance-double - ----------------
#NOTES:
     dance-double:
     :
     Medium:
     8:
     :
00000000
00000000
00000000
00000000
,
00000000
00000000
00000000
00000000
,
00000000
00000000
00000000
00000000
,
00000000
00000000
00000000
00000000
,
00000000
00000000
00000000
00000000
,
10000000
00000000
10000000
00000000
10000000
00000000
10000000
00010000
,
00000000
00100000
00001000
00000000
00001000
00000000
00001000
00000000
,
00010000
00000000
00010000
00000000
00010000
00000000
00010000
00000100
,
00000000
00001000
00000001
00000000
00000001
00000000
00000001
00000000
,
00000100
00000000
00000100
00000000
00000010
00001000
00000100
00000000
,
00010000
00000000
00010000
00000000
00001000
01000000
00010000
00000000
,
10000000
00000000
10000000
00000000
01000000
00100000
00010000
00000000
,
01000000
00000000
01000000
00000000
00001000
00010000
00000010
00000000
,
00001000
00000000
00000001
00000000
,
00001000
00000100
00010000
00000000
,
00001000
00000000
00100000
00000000
,
00010000
00000000
10000000
00000000
01000000
00100000
01000000
00000000
,
10000000
00000000
00010000
00000000
,
01000000
00001000
00010000
00000000
,
00000100
00000000
00000010
00000000
,
00000001
00000000
00000100
00000000
00000010
00001000
00000010
00000000
,
00010000
00000000
00001000
00000000
00100000
00010000
00100000
00000000
,
01000000
10000000
01000000
00000000
00100000
00000000
00001000
00000000
,
00010000
00000000
00000010
00000000
00001000
00000001
00001000
00000000
,
00000100
00010000
00000100
00000000
00001000
00000000
00000010
00000000
,
00010000
00000000
00001000
00000000
00100000
00010000
01000000
00000000
,
00100000
10000000
01000000
00000000
00100000
00000000
00001000
00000000
,
00010000
00000000
00000010
00000000
00001000
00000001
00000100
00000000
,
00000010
00001000
00000100
00000000
00010000
00000000
00001000
00000000
,
00100000
00100000
00100000
00100000
,
00010000
10000000
01000000
00100000
,
00001000
00001000
00001000
00001000
,
00010000
00000010
00001000
00000001
,
00000100
00000100
00000100
00000100
,
00000010
00001000
00000100
00010000
,
00001000
00000000
00001000
00000000
01000000
00000000
01000000
00010000
,
10000000
00000000
10000000
00000000
01000000
00000000
01000000
00100000
,
00001000
00000000
00001000
00000000
00010000
00000000
00010000
00000010
,
00001000
00000000
00001000
00000000
00000001
00000000
00000001
00000010
,
00000100
00000100
00000100
00000100
,
00010000
00000000
00010000
00000000
00001000
00100000
00010000
00000000
,
10000000
00000000
01000000
00000000
00100000
00010000
01000000
00000000
,
00001000
00010000
00000010
00000000
00001000
00000000
00000001
00000000
,
00000010
00000000
00000100
00000000
00001000
00000010
00000100
00000000
,
00000001
00001000
00000100
00000000
00010000
00000000
00001000
00000000
,
00100000
00000000
00010000
00000000
10000000
01000000
00100000
00000000
,
00010000
01000000
00100000
00000000
10000000
00000000
00010000
00000000
,
01000000
00000000
00001000
00000000
00010000
00000010
00001000
00000000
,
00000100
00010000
00001000
00000000
00100000
00000000
01000000
00000000
,
00000000
10010000
00000000
00000000
00000000
00000000
00000000
00000000
;

//---------------dance-double - ----------------
#NOTES:
     dance-double:
     :
     Hard:
     10:
     :
00000000
00000000
00000000
00000000
,
00000000
00000000
00000000
00000000
,
00000000
00000000
00000000
00000000
,
00000000
00000000
00000000
00000000
,
00000000
00000000
00000000
00000000
,
10000000
01000000
00100000
00010000
01000000
00001000
00010000
00000000
,
00000100
00001000
00000010
00000100
00000001
00000010
00000100
00000000
,
00001000
00000001
00000100
00000010
00001000
00000100
00010000
00000000
,
00001000
00100000
00010000
10000000
00100000
01000000
00010000
00000000
,
10000000
01000000
00010000
01000000
10000000
01000000
00010000
00001000
,
00000100
00001000
00010000
01000000
00010000
00001000
00000100
00000000
,
00000001
00000100
00001000
00000100
00000001
00000100
00001000
00010000
,
01000000
00010000
00001000
00000100
00001000
00010000
01000000
00000000
,
00100000
00000000
00000000
00100000
00000000
00000000
00100000
00000000
00001000
00000000
00000000
00001000
00000000
00000000
00001000
00000000
,
00010000
00000000
00000000
00010000
00000000
00000000
00010000
00000000
00000100
00000000
00001000
00000000
00000100
00000000
00000000
00000000
,
00000010
00000000
00000000
00000010
00000000
00000000
00000010
00000000
00000001
00000000
00000000
00000001
00000000
00000000
00000001
00000000
,
00000100
00000000
00000000
00000100
00000000
00000000
00000100
00000000
00000010
00000000
00001000
00000000
00000010
00000000
00000000
00000000
,
00010000
00000000
00000000
00010000
00000000
00000000
00010000
00000000
00001000
00000000
00000000
00001000
00000000
00000000
00001000
00000000
,
00100000
00000000
00000000
00100000
00000000
00000000
00100000
00000000
00010000
00000000
10000000
00000000
00100000
00000000
00000000
00000000
,
01000000
00000000
00000000
01000000
00000000
00000000
01000000
00000000
00001000
00000000
00000000
00001000
00000000
00000000
00001000
00000000
,
00010000
00000000
00000000
00010000
00000000
00000000
00010000
00000000
00000100
00000000
00001000
00000000
00000001
00000000
00000000
00000000
,
00000100
00000010
00001000
00000100
00010000
00001000
00100000
00000000
,
10010000
01100000
10100000
11000000
,
00100000
00010000
01000000
00001000
00010000
00000010
00001000
00000000
,
00000011
00001100
00001010
00000101
,
00001000
00000100
00010000
00001000
00100000
00010000
10000000
00000000
,
11000000
01100000
00101000
00010100
,
00001000
00000001
00000100
00000010
00001000
00000100
00010000
00000000
,
00101000
10010000
01001000
00010010
,
00001000
00000001
00000010
00000000
00000100
00010000
00001000
00000000
,
00100000
00010000
10000000
00000000
00100000
01000000
00010000
00000000
,
00100000
00001000
00010000
00000000
00000100
00001000
00000001
00000000
,
00000100
00000010
00001000
00000000
00000100
00010000
00001000
00000000
,
00100000
00010000
10000000
00000000
00100000
01000000
00001000
00000000
,
00010000
01000000
10000000
00000000
00100000
01000000
00010000
00000000
,
00100000
00000000
00001000
00000000
00010000
00000100
00001000
00000000
,
00000001
00000000
00000100
00000000
00000010
00001000
00000100
00000000
,
00010000
00000000
00001000
00000000
00100000
00010000
10000000
00000000
,
00100000
00000000
01000000
00000000
00010000
00100000
00001000
00000000
,
00010000
00000000
00000100
00000000
00001000
00000010
00000100
00000000
,
00000001
00000000
00001000
00000000
00000100
00010000
00001000
00000000
,
00100000
01000000
00100000
00010000
01000000
00010000
00100000
01000000
,
10000000
00010000
01000000
00100000
10000000
01000000
00100000
00000000
,
00001000
00000100
00001000
00010000
01000000
00010000
00001000
00000100
,
00000001
00000010
00000100
00001000
00000010
00000100
00000001
00000000
,
00001000
00000100
00010000
00001000
00100000
00010000
10000000
01000000
,
00100000
00010000
01000000
00001000
00010000
00000010
00001000
00000000
,
00000001
00000010
00000100
00001000
00000010
00000100
00000001
00001000
,
00000100
00010000
00001000
00100000
00010000
10000000
01000000
00000000
,
00000000
10010000
00000000
00000000
00000000
00000000
00000000
00000000
;

//---------------dance-couple - ----------------
#NOTES:
     dance-couple:
     :
     Medium:
     3:
     :
00000000
00000000
00000000
00000000
,
00000000
00000000
00000000
00000000
,
00000000
00000000
00000000
00000000
,
00000000
00000000
00000000
00000000
,
00000000
00000000
00000000
00000000
,
10000001
00100000
00100000
00100000
,
00010001
00100000
00100000
00100000
,
10001000
00000100
00000100
00000100
,
10000001
00000100
00000100
00000100
,
01000010
00000000
10000000
00000000
00010000
01000000
00100000
00000000
,
10000010
00000000
00010000
00000000
00100000
01000000
10000000
00000000
,
01000010
00000000
00001000
00000000
00000001
00000010
00000100
00000000
,
01001000
00000000
00000001
00000000
00000100
00000010
00001000
00000000
,
00010100
00000000
00010000
00000000
01000000
00100000
10000000
00000000
,
00010100
00000000
00100000
00000000
01000000
00000000
10000000
00010000
,
01000100
00000000
01000000
00000000
00100000
10000000
01000000
00000000
,
00100100
00000000
00010000
00000000
01000000
00000000
00100000
10000000
,
01000001
00000000
00000001
00000000
00000010
00000100
00001000
00000000
,
01000001
00000000
00000100
00000000
00000010
00000000
00001000
00000100
,
01000010
00000000
00000010
00000000
00000001
00001000
00000010
00000000
,
01000100
00000000
00000001
00000000
00001000
00000000
00000100
00000010
,
01000100
00000000
00000000
00100000
00000000
00000000
00010000
00000000
00000000
10000000
00000000
00000000
00100000
00000000
00000000
01000000
,
00000100
00000000
00010000
00000000
00000000
00100000
00000000
00000000
01000000
00000000
10000000
00000000
01000000
00000000
00000000
00000000
,
00100100
00000000
00000000
00010000
00000000
00000000
10000000
00000000
00000000
00100000
00000000
00000000
01000000
00000000
00000000
00010000
,
00000100
00000000
10000000
00000000
00000000
01000000
00000000
00000000
00100000
00000000
00010000
00000000
00100000
00000000
00000000
00000000
,
01000001
00000000
00000000
00000010
00000000
00000000
00000100
00000000
00000000
00001000
00000000
00000000
00000001
00000000
00000000
00000100
,
01000000
00000000
00000010
00000000
00000000
00001000
00000000
00000000
00000001
00000000
00000010
00000000
00000001
00000000
00000000
00000000
,
01000100
00000000
00000000
00000010
00000000
00000000
00001000
00000000
00000000
00000001
00000000
00000000
00000010
00000000
00000000
00000100
,
01000000
00000000
00001000
00000000
00000000
00000010
00000000
00000000
00000100
00000000
00000001
00000000
00000100
00000000
00000000
00000000
,
01000010
00000000
10001000
00000000
,
00010001
00000000
00100100
00000000
,
00000010
00000000
00001000
00000000
,
00000001
00000000
00000100
00000000
,
01000000
00000000
10000000
00000000
,
00010000
00000000
01000000
00000000
,
10001000
00000000
00000000
01000100
00000000
00000000
00100010
00000000
00000000
00000000
00010001
00000000
00010001
00000000
00000000
00000000
,
01000100
00000000
00000000
00100010
00000000
00000000
10001000
00000000
00000000
00000000
00010001
00000000
00010001
00000000
00000000
00000000
,
00000010
00000000
00000000
00000100
00000000
00000000
00001000
00000000
00000000
00000000
00000010
00000000
00000010
00000000
00000000
00000000
,
00100000
00000000
00000000
01000000
00000000
00000000
10000000
00000000
00000000
00000000
00100000
00000000
00100000
00000000
00000000
00000000
,
00000100
00000000
00000000
00000001
00000000
00000000
00001000
00000000
00000000
00000000
00000100
00000000
00000100
00000000
00000000
00000000
,
01000000
00000000
00000000
00010000
00000000
00000000
10000000
00000000
00000000
00000000
01000000
00000000
01000000
00000000
00000000
00000000
,
00100001
00000000
00000000
00000100
00000000
00000000
00000010
00000000
00000000
00001000
00000000
00000000
00000100
00000000
00000000
00000010
,
00100000
00000000
00000001
00000000
00000000
00001000
00000000
00000000
00000010
00000000
00000100
00000000
00000001
00000000
00000000
00000000
,
00010010
00000000
00000000
01000000
00000000
00000000
00100000
00000000
00000000
10000000
00000000
00000000
01000000
00000000
00000000
00100000
,
00000010
00000000
00010000
00000000
00000000
10000000
00000000
00000000
00100000
00000000
01000000
00000000
00010000
00000000
00000000
00000000
,
00100100
00000000
00000000
00001000
00000000
00000000
00000001
00000000
00000000
00000100
00000000
00000000
00000010
00000000
00000000
00001000
,
00100000
00000000
00000001
00000000
00000000
00000010
00000000
00000000
00000100
00000000
00001000
00000000
00000001
00000000
00000000
00000000
,
01000100
00000000
00000000
10000000
00000000
00000000
00010000
00000000
00000000
01000000
00000000
00000000
00100000
00000000
00000000
10000000
,
00000100
00000000
00010000
00000000
00000000
00100000
00000000
00000000
01000000
00000000
10000000
00000000
00010000
00000000
00000000
00000000
,
00000000
01101001
00000000
00000000
00000000
00000000
00000000
00000000
;

//---------------dance-solo - ----------------
#NOTES:
     dance-solo:
     :
     Beginner:
     1:
     :
000000
000000
000000
000000
,
000000
000000
000000
000000
,
000000
000000
000000
000000
,
000000
000000
000000
000000
,
000000
000000
000000
000000
,
010000
000000
000000
000000
,
010000
000000
000000
000000
,
000010
000000
000000
000000
,
000010
000000
000000
000000
,
010000
000000
001000
000000
,
010000
000000
000010
000000
,
001000
000000
000010
000000
,
010000
000000
000010
000000
,
002000
000000
000000
000000
,
003000
000000
000000
000000
,
000020
000000
000000
000000
,
000030
000000
000000
000000
,
010010
000000
000000
000000
,
010000
000000
000010
000000
,
020000
000000
000000
000000
,
000000
000000
030000
000000
,
010000
000000
000010
000000
,
001000
000000
000000
000000
,
001000
000000
000010
000000
,
010000
000000
000000
000000
,
000010
000000
010000
000000
,
001000
000000
000000
000000
,
001000
000000
010000
000000
,
000010
000000
000000
000000
,
010000
000000
010000
000000
,
000010
000000
000000
000000
,
001000
000000
001000
000000
,
000010
000000
000000
000000
,
000010
000000
010000
000000
,
001000
000000
000000
000000
,
010000
000000
000000
000000
,
010000
000000
000000
000000
,
000010
000000
000000
000000
,
000010
000000
000000
000000
,
001000
000000
000000
000000
,
001000
000000
000000
000000
,
001000
000000
000010
000000
,
010000
000000
000000
000000
,
001000
000000
010000
000000
,
000010
000000
000000
000000
,
000010
000000
010000
000000
,
001000
000000
000000
000000
,
010000
000000
000010
000000
,
001000
000000
000000
000000
,
010010
000000
000000
000000
;

//---------------dance-solo - ----------------
#NOTES:
     dance-solo:
     :
     Easy:
     5:
     :
000000
000000
000000
000000
,
000000
000000
000000
000000
,
000000
000000
000000
000000
,
000000
000000
000000
000000
,
000000
000000
000000
000000
,
010000
000000
000000
000000
,
000010
000000
000000
000000
,
100000
000000
000001
000000
,
000100
000010
100000
000001
,
001000
000100
100000
000001
,
010000
001000
100000
000001
,
001000
000010
100000
000001
,
010000
000010
000100
000001
,
000000
100000
000000
000100
,
000000
010000
000000
000010
,
000000
100000
000000
001000
,
000000
000100
000000
000001
,
000000
010000
000000
000010
,
000000
001000
000000
000100
,
000000
100000
000000
001000
,
000000
000100
000000
000001
,
100000
000100
100000
000010
,
100000
000100
100000
000010
,
001000
010000
001000
000010
,
001000
010000
001000
000010
,
100000
000001
100000
000100
,
100000
000001
100000
000100
,
010000
000010
010000
000001
,
010000
000010
010000
000001
,
100000
000000
000100
000000
,
001000
000000
000001
000000
,
100000
000000
001000
000000
,
010000
000000
000001
000000
,
000100
000000
000010
000000
,
010000
000000
000100
000000
,
100000
100000
000000
000000
,
001000
001000
000000
000000
,
000100
000100
000000
000000
,
000001
000001
000000
000000
,
010000
010000
000000
000000
,
000010
000010
000000
000000
,
000100
000001
001000
000010
,
000100
000001
001000
000010
,
100000
001000
010000
000100
,
100000
001000
010000
000100
,
001000
000001
000100
000010
,
001000
000001
000100
000010
,
010000
001000
100000
000100
,
010000
001000
100000
000100
,
000000
010010
000000
000000
000000
000000
000000
000000
;

//---------------dance-solo - ----------------
#NOTES:
     dance-solo:
     :
     Medium:
     8:
     :
000000
000000
000000
000000
,
000000
000000
000000
000000
,
000000
000000
000000
000000
,
000000
000000
000000
000000
,
000000
000000
000000
000000
,
100000
000000
000001
001000
000100
000000
000010
000000
,
100000
000000
001000
000100
000001
000000
010000
000000
,
000100
000000
001000
000001
100000
000000
000010
000000
,
010000
000001
100000
001000
,
000100
000001
000100
000000
000010
000000
010000
000000
,
000100
100000
000100
000000
010000
000000
000010
000000
,
100000
000001
100000
000000
001000
000000
000100
000000
,
000001
010000
000001
000000
000100
000000
000010
000000
,
100000
001000
001000
001000
,
000100
000001
000001
000001
,
010000
000010
000010
000010
,
100000
000100
000100
000100
,
001000
000010
000010
000010
,
100000
000001
000001
000001
,
010000
001000
001000
001000
,
000100
000001
000001
000001
,
010000
000010
010000
000000
000100
100000
000100
000000
,
001000
000010
001000
000000
000001
100000
000001
000000
,
010000
001000
010000
000000
000001
000100
000001
000000
,
010000
000010
010000
000000
000100
100000
000100
000000
,
001000
000001
000100
000000
001000
100000
000100
000000
,
010000
000010
000100
000000
010000
000100
100000
000000
,
001000
010000
000001
000000
000100
000010
010000
000000
,
000100
100000
000010
000000
001000
000001
000100
000000
,
001000
001000
001000
001000
,
010000
010000
000001
000001
,
100000
100000
100000
100000
,
000010
000010
001000
001000
,
000100
000100
000100
000100
,
100000
100000
000010
000010
,
010000
000100
010000
000000
000010
000000
100000
000000
,
000001
001000
000001
000000
000010
000000
100000
000000
,
001000
010000
000001
000000
000100
000000
000010
000000
,
010000
000100
100000
000000
001000
000000
000100
000000
,
000001
100000
000100
000000
001000
000000
000010
000000
,
100000
000001
000100
000000
001000
000000
010000
000000
,
000001
000000
100000
000000
000010
010000
000100
000000
,
100000
000000
001000
000000
000100
000001
010000
000000
,
000010
000000
100000
000000
000100
001000
000010
000000
,
100000
000000
001000
000000
000100
000001
001000
000000
,
000010
100000
000100
000000
010000
000010
000100
000000
,
000001
100000
001000
000000
000100
000001
001000
000000
,
000010
100000
000100
000000
001000
000010
100000
000000
,
000001
000100
001000
000000
010000
000001
100000
000000
,
000000
001100
000000
000000
000000
000000
000000
000000
;

//---------------dance-solo - ----------------
#NOTES:
     dance-solo:
     :
     Hard:
     10:
     :
000000
000000
000000
000000
,
000000
000000
000000
000000
,
000000
000000
000000
000000
,
000000
000000
000000
000000
,
000000
000000
000000
000000
,
010000
000000
000010
000000
000010
000000
000000
000000
010000
000000
000000
010000
000000
000000
000000
000000
,
000001
000000
000100
000000
000100
000000
000000
000000
000010
000000
000000
000010
000000
000000
000000
000000
,
100000
000000
000100
000000
000100
000000
000000
000000
010000
000000
000000
010000
000000
000000
000000
000000
,
000010
000100
000001
001000
000100
100000
001000
010000
,
000001
000000
000000
000100
000000
000000
001000
000000
000000
100000
000000
000000
000001
000000
000000
000000
,
010000
000000
000000
000010
000000
000000
000100
000000
000000
000001
000000
000000
001000
000000
000000
000000
,
000100
000000
000000
100000
000000
000000
001000
000000
000000
000100
000000
000000
000001
000000
000000
000000
,
010000
000000
000000
000010
000000
000000
100000
000000
000000
000100
000000
000000
001000
000000
000000
000000
,
000010
000000
000000
000010
000000
000000
000010
000000
000000
000000
100000
000000
000001
000000
000000
000000
,
010000
000000
000000
010000
000000
000000
010000
000000
000000
000000
001000
000000
000100
000000
000000
000000
,
000001
000000
000000
000001
000000
000000
000001
000000
000000
000000
100000
000000
000100
000000
000000
000000
,
001000
000000
000000
001000
000000
000000
001000
000000
000000
000000
000010
000000
100000
000000
000000
000000
,
000001
000000
000000
000001
000000
000000
000001
000000
000000
000000
010000
000000
001000
000000
000000
000000
,
000100
000000
000000
000001
000000
000000
001000
000000
000000
000000
000010
000000
100000
000000
000000
000000
,
000100
000000
000000
010000
000000
000000
000001
000000
000000
000000
000100
000000
001000
000000
000000
000000
,
100000
000000
000000
000001
000000
000000
001000
000000
000000
000000
000010
000000
100000
000000
000000
000000
,
000001
000000
000000
000100
000000
000000
000010
000000
000000
000000
010000
000000
000100
000000
010000
000000
,
000001
000000
000000
000100
000000
000000
000010
000000
000000
000000
100000
000000
000001
000000
001000
000000
,
000100
000000
000000
100000
000000
000000
000010
000000
000000
000000
010000
000000
000001
000000
010000
000000
,
000100
000000
000000
100000
000000
000000
000010
000000
000000
000000
010000
000000
000001
000000
000100
000000
,
001000
000000
000000
010000
000000
000000
000001
000000
000000
000000
100000
000000
000010
000000
100000
000000
,
000100
000000
000000
010000
000000
000000
000001
000000
000000
000000
100000
000000
000010
000000
001000
000000
,
000100
000000
000000
100000
000000
000000
000010
000000
000000
000000
010000
000000
000001
000000
010000
000000
,
000100
000000
000000
100000
000000
000000
000010
000000
000000
000000
010000
000000
000001
000000
000100
000000
,
001000
000000
000000
000000
000100
001000
000000
000000
010000
000000
000001
000000
100000
000000
000000
000000
,
001000
000000
000000
000000
100000
001000
000000
000000
010000
000000
000001
000000
000100
000000
000000
000000
,
000010
000000
000000
000000
000100
000010
000000
000000
010000
000000
000001
000000
100000
000000
000000
000000
,
000010
000000
000000
000000
100000
000010
000000
000000
001000
000000
000100
000000
100000
000000
000000
000000
,
000010
000000
000000
000000
100000
000010
000000
000000
010000
000000
000001
000000
000100
000000
000000
000000
,
001000
000000
000000
000000
000100
001000
000000
000000
010000
000000
000001
000000
100000
000000
000000
000000
,
000010
010000
000010
010000
,
000010
000000
010000
000000
000010
000000
010000
000010
,
010000
000010
010000
000010
,
010000
000010
010000
000010
,
100000
001000
000001
001000
,
100000
000100
001000
000001
000100
001000
100000
000000
,
000001
000000
000000
010000
000000
000000
000010
000000
000000
000000
000100
000000
000000
000000
000001
000000
,
001000
000000
000010
100000
000000
000000
000100
000000
000000
000000
010000
000000
000001
000000
000100
000000
,
000010
000000
000000
010000
000000
000000
000001
000000
000000
000000
100000
000000
001000
000000
000100
000000
,
000001
000000
000000
100000
000000
000000
000100
000000
000000
000000
001000
000000
000010
000000
100000
000000
,
000001
000000
000000
010000
000000
000000
001000
000000
000000
000000
000100
000000
000001
000000
001000
000000
,
000010
000000
000000
100000
000000
000000
000100
000000
000000
000000
010000
000000
000010
000000
000100
000000
,
000001
000000
000000
010000
000000
000000
001000
000000
000000
000000
000100
000000
000001
000000
001000
000000
,
000100
000000
000000
100000
000000
000000
000010
000000
000000
000000
010000
000000
000001
000000
100000
000000
,
000000
010010
000000
000000
000000
000000
000000
000000
;

//---------------dance-solo - ----------------
#NOTES:
     dance-solo:
     :
     Challenge:
     14:
     :
000000
000000
000000
000000
,
000000
000000
000000
000000
,
000000
000000
000000
000000
,
000000
000000
000000
000000
,
000000
000000
000000
000000
,
000100
000000
000000
010100
000000
000000
010000
000000
000000
011000
000000
000000
001000
000000
000000
101000
,
000000
000000
100000
000000
000000
100010
000000
000000
000010
000000
000000
000110
000000
000000
000100
000001
,
000100
000000
000000
000101
000000
000000
000001
000000
000000
010001
000000
000000
010000
000000
000000
011000
,
000000
000000
001000
000000
000000
101000
000000
000010
010000
001000
010000
001000
100000
000100
001000
000000
,
000010
010000
000000
010010
000000
000000
000100
001000
000000
001100
000000
000000
000010
000100
000000
000110
,
000000
000000
000001
001000
000000
001001
000000
000000
100000
000010
000000
100010
000000
000100
010000
001000
,
100000
010000
000000
110000
000000
000000
000100
010000
000000
010100
000000
000000
000010
001000
000000
001010
,
000000
000000
000001
000100
000000
000101
000000
000000
000001
100000
000000
000100
100000
000010
001000
000100
,
010000
000001
000000
010000
000001
000000
001000
000000
000000
000000
000101
000000
000000
101000
000000
000000
,
010100
000000
000000
100001
000000
000000
010002
000000
000000
000000
000010
000000
000013
000000
000000
000000
,
001000
010000
000000
001000
010000
000000
000001
000000
000000
000000
001001
000000
000000
001100
000000
000000
,
100100
000000
000000
010010
000000
000000
000201
000000
000000
000000
001000
000000
001300
000000
000000
000000
,
000001
100000
000000
000001
100000
000000
001000
000000
010000
000100
010000
000000
000010
000000
000000
000000
,
000101
000000
000000
110000
000000
000000
001100
000000
000000
001001
000000
000000
100010
000000
010100
000000
,
200001
000000
000000
000000
300010
010000
000000
001000
000000
100000
000000
000100
000000
001000
000000
000010
,
000000
000001
000010
000000
000100
001000
000000
010000
100000
000000
000100
000000
000100
010000
001000
000000
,
100100
000000
000000
001001
000000
000000
000101
000000
000000
101000
000000
000000
010010
000000
000000
000000
,
000200
000000
000000
200300
000000
000000
302000
000000
000000
000000
010000
000000
013000
000001
000100
000000
,
000110
000000
000000
100001
000000
000000
110000
000000
000000
001100
000000
000000
000110
000000
000000
000000
,
000002
000000
000000
200003
000000
000000
300200
000000
000000
000000
001000
000000
001300
000010
010000
000000
,
011000
000000
000000
000011
000000
000000
100100
000000
000000
010010
000000
000000
101000
000000
000000
000000
,
000002
000000
000000
020003
000000
000000
030020
000000
000000
000000
100000
000000
100030
000100
010000
000000
,
001010
000000
000000
001100
000000
000000
100100
000000
000000
110000
000000
000000
000011
000000
000000
000000
,
100000
001000
000000
001000
000001
000000
010000
000100
000000
000100
000010
000000
100000
000010
001000
000000
,
100002
000000
000000
000010
000000
000000
001000
000000
000000
000100
000000
000000
100003
000000
000000
000000
,
000100
000010
000000
001000
000000
000100
000000
100000
000000
000001
010000
000000
000100
100000
000010
000000
,
201000
000000
000000
000010
000000
000000
010000
000000
000000
000001
000000
000000
301000
000000
000000
000000
,
000010
001000
000000
000100
000000
100000
000000
000001
000000
010000
000100
000000
100000
000001
010000
000000
,
020010
000000
000000
000100
000000
000000
100000
000000
000000
001000
000000
000000
030001
000000
000000
000000
,
000100
000001
000000
010000
000000
001000
000000
100000
000000
000010
001000
000000
000200
000000
000000
000000
,
100300
000000
000001
000010
000000
001000
000000
000100
000000
010000
000000
001000
100000
000000
000001
000000
,
000100
000000
000010
010000
000000
001000
000000
100000
000000
000100
000000
001000
000000
000001
000000
000101
,
000000
101000
000000
000001
000000
100000
000000
000100
000000
010000
000000
000010
001000
000000
000100
010000
,
000001
000010
000000
000000
000001
100000
000000
001000
000000
010000
001000
100000
000100
001000
000010
010000
,
000000
000001
000100
001000
100000
000010
001000
000100
000000
010000
000000
001000
010000
000000
000001
000100
,
000000
001100
000000
001010
000000
100010
000000
110000
000000
010000
100000
000000
000001
010000
001000
000000
,
100100
000000
000000
011000
000000
000000
000011
000000
000000
100010
000000
000000
100001
000000
000000
000000
,
000100
001000
000100
100000
010000
001000
010000
000001
000000
000100
000010
000000
100000
000001
010000
000000
,
101000
000000
000000
000101
000000
000000
010100
000000
000000
001100
000000
000000
100001
000000
000000
000000
,
000010
010000
001000
000000
100000
000100
000000
001000
000001
000000
010000
000000
000010
000100
001000
000000
,
001100
000000
000000
010010
000000
000000
101000
000000
000000
000011
000000
000000
010100
000000
000000
000000
,
000110
000000
000000
101000
000000
000000
001001
000000
000000
000000
100000
000000
000010
010000
000100
000000
,
011000
000000
000000
000101
000000
000000
101000
000000
000000
100001
000000
000000
010100
000000
000000
000000
,
010000
000010
010000
000010
100000
000001
100000
000001
010000
000010
010000
000010
100000
000001
100000
000001
,
000000
000000
100001
000000
000000
010010
000000
000000
001100
000000
000000
010010
000000
000000
100001
000000
;
