#TITLE:Gentleman;
#SUBTITLE:;
#ARTIST:PSY;
#TITLETRANSLIT:;
#SUBTITLETRANSLIT:;
#ARTISTTRANSLIT:;
#GENRE:;
#CREDIT:;
#BANNER:Gentleman-bn.png;
#BACKGROUND:Gentleman-bg.png;
#LYRICSPATH:;
#CDTITLE:;
#MUSIC:Gentleman.ogg;
#OFFSET:-0.100000;
#SAMPLESTART:53.584106;
#SAMPLELENGTH:20.000000;
#SELECTABLE:YES;
#DISPLAYBPM:126.000000;
#BPMS:0.000000=125.999992
;
#STOPS:127.000000=0.100000
;
#BGCHANGES:;
#KEYSOUNDS:;
#ATTACKS:;

//---------------dance-single - x scale 14----------------
#NOTES:
     dance-single:
     :
     Hard:
     14:
     0.632888,0.703450,0.523254,0.104651,0.300871,508.000000,448.000000,60.000000,12.000000,0.000000,0.000000,0.632888,0.703450,0.523254,0.104651,0.300871,508.000000,448.000000,60.000000,12.000000,0.000000,0.000000:
// measure 0
0000
0000
0000
0000
,  // measure 1
0000
0000
0000
0000
,  // measure 2
0000
0000
0000
0000
,  // measure 3
0000
0000
0000
0000
,  // measure 4
1001
0000
0000
0000
0101
0000
1000
0100
1000
0000
0010
0000
0100
0001
0010
0000
,  // measure 5
1000
0000
1100
0000
0010
0000
0100
0000
0001
0000
1000
0000
0001
0100
0010
0000
,  // measure 6
0011
0000
0000
0000
1010
0000
0001
0010
0001
0000
1000
0000
0100
1000
0010
0000
,  // measure 7
1000
0000
0001
0010
0001
0000
1000
0010
1000
0000
0100
0000
0001
0000
0100
0000
,  // measure 8
0110
0000
0000
0000
1000
0100
0000
0000
0001
0000
0001
0000
0001
0000
0100
0000
,  // measure 9
0010
0010
1000
0000
0100
0010
0010
1000
,  // measure 10
0100
0000
0000
0000
0010
1000
0000
0000
0001
0000
0001
0000
0001
0000
1000
0000
,  // measure 11
0010
0010
0100
0000
0010
1000
1000
0100
,  // measure 12
1000
0001
0000
0000
0100
0000
0100
0000
0010
0000
0010
0000
0010
0000
1000
0000
,  // measure 13
1000
0001
0001
0000
0010
0001
0100
1000
,  // measure 14
0001
0010
0000
0000
0010
0000
0010
0000
1000
0000
1000
0000
1000
0000
0001
0000
,  // measure 15
0001
0100
0100
0001
1000
0001
0100
0010
,  // measure 16
1010
0001
0100
0010
1000
0100
0001
0100
,  // measure 17
1000
0010
0001
0010
1000
0100
0010
0001
,  // measure 18
0011
1000
0100
0001
1000
0010
0001
0010
,  // measure 19
1000
0100
0001
0100
1000
0100
0010
0001
,  // measure 20
0101
0010
1000
0100
0001
0010
1000
0010
,  // measure 21
0001
0100
1000
0100
0001
0010
0100
1000
,  // measure 22
1100
0001
0100
0110
0010
0100
0001
0000
,  // measure 23
0010
0010
0010
0010
0010
0010
1001
0000
,  // measure 24
0011
0000
0000
0001
0010
0000
0000
0010
0100
0000
0000
0100
1000
0000
0000
1000
,  // measure 25
0001
0000
0000
0001
0100
0000
0000
0100
0010
0000
0000
0010
1000
0000
1000
0000
,  // measure 26
1100
0000
0000
0100
1000
0000
0000
1000
0001
0000
0000
0001
0010
0000
0000
0010
,  // measure 27
1000
0000
0000
1000
0001
0000
0000
0001
0100
0000
0000
0100
0010
0000
0010
0000
,  // measure 28
1000
0001
0000
1000
0001
0000
0100
0000
0000
0000
0010
0000
0010
0000
0010
0000
,  // measure 29
1000
0001
0000
1000
0001
0000
0100
0000
0000
0000
0010
0000
0010
0000
0010
0000
,  // measure 30
1000
0001
0000
1000
0001
0000
0100
0000
0000
0000
0010
0000
0010
0000
0010
0000
,  // measure 31
0110
0010
1010
0100
0101
0001
1001
0000
,  // measure 32
0110
0000
0000
0000
1001
0000
0010
1000
0100
0000
0100
0000
1000
0001
0010
0000
,  // measure 33
0001
0000
0101
0000
0100
0000
0010
0000
1000
0000
0001
0000
1000
0010
0100
0000
,  // measure 34
0011
0000
0000
0000
1010
0000
0100
0001
1000
0000
1000
0000
0010
0100
0001
0000
,  // measure 35
0010
0000
1000
0100
1000
0000
0001
0100
0001
0000
0010
0000
1100
0000
0000
0000
,  // measure 36
0101
0000
0000
0000
1100
0000
0010
1000
0100
0000
0100
0000
0001
0010
1000
0000
,  // measure 37
0100
0000
0110
0000
1000
0000
0001
0000
1000
0000
0010
0000
0100
0010
0001
0000
,  // measure 38
1010
0000
0000
0000
0011
0000
0100
1000
0010
0000
0010
0000
0001
0100
1000
0000
,  // measure 39
0100
0000
0001
0010
0001
0000
1000
0010
1000
0000
0100
0000
1001
0000
0000
0000
,  // measure 40
1100
0000
0001
0010
0100
0000
0100
0000
0102
0000
1000
0000
1003
0000
0000
0000
,  // measure 41
0010
0000
1000
0100
0010
0000
0010
0000
0021
0000
0001
0000
0031
0000
0000
0000
,  // measure 42
0010
1000
0001
0000
0100
0000
0100
0000
2010
0000
0001
0000
3001
0000
0000
0000
,  // measure 43
0100
1001
0210
0301
,  // measure 44
1010
0000
1000
0001
0010
0000
0010
0000
0021
0000
0100
0000
0130
0000
0000
0000
,  // measure 45
0100
0000
0010
0001
1000
0000
1000
0000
0102
0000
0010
0000
0013
0000
0000
0000
,  // measure 46
1000
0010
0001
0000
0100
0000
0100
0000
1200
0000
0001
0000
0301
0000
0000
0000
,  // measure 47
1000
0110
2001
3010
,  // measure 48
2100
3010
0201
0310
,  // measure 49
1020
0130
0012
0103
,  // measure 50
1000
0001
1000
0001
1000
0001
1000
0001
1000
0001
1000
0001
1000
0001
1000
0001
,  // measure 51
0010
0010
0010
0010
1001
0100
0110
0000
,  // measure 52
1001
0000
0000
0000
0101
0000
0010
0001
0100
0000
0100
0000
0010
1000
0001
0000
,  // measure 53
0010
0000
0011
0000
0010
0000
1000
0000
0001
0000
0100
0000
0001
0100
1000
0000
,  // measure 54
1010
0000
0000
0000
1100
0000
0001
1000
0100
0000
0100
0000
0010
0001
1000
0000
,  // measure 55
0100
0100
0001
0001
1000
1000
0110
0000
,  // measure 56
0011
0000
0000
0000
1010
0000
0100
0001
1000
0000
1000
0000
0010
0001
0100
0000
,  // measure 57
1000
0000
0110
0000
1000
0000
0010
0000
0001
0000
0100
0000
0010
0100
0001
0000
,  // measure 58
1100
0000
0000
0000
0101
0000
0010
0100
1000
0000
1000
0000
0010
0001
0100
0000
,  // measure 59
0010
0010
0100
0100
0001
0001
1001
0000
;

//---------------dance-single - x scale 3----------------
#NOTES:
     dance-single:
     :
     Beginner:
     3:
     0.169435,0.234483,0.174418,0.104651,0.000000,136.000000,116.000000,20.000000,12.000000,0.000000,0.000000,0.169435,0.234483,0.174418,0.104651,0.000000,136.000000,116.000000,20.000000,12.000000,0.000000,0.000000:
0000
0000
0000
0000
,
0000
0000
0000
0000
,
0000
0000
0000
0000
,
0000
0000
0000
0000
,
1001
0000
0100
0000
,
0010
0000
0100
0000
,
1001
0000
1000
0000
,
0002
0000
0000
0003
,
0000
0100
0000
0010
,
0000
0010
0000
0000
,
0000
1000
0000
0001
,
0000
0001
0000
0000
,
0000
0010
0000
0100
,
0000
0100
0000
0000
,
0000
0001
0000
1000
,
0000
1000
0000
0000
,
0110
0000
1000
0000
,
0010
0010
0010
0000
,
0110
0000
0100
0000
,
0001
0001
0001
0000
,
0110
0000
0001
0000
,
0010
0010
0010
0000
,
1001
0000
0100
0000
,
1000
1000
1000
0000
,
1001
0000
0100
0000
,
0100
0000
0100
0000
,
1001
0000
0010
0000
,
0010
0000
0010
0000
,
2000
0000
0000
3000
0000
0000
0100
0000
,
0200
0000
0000
0300
0000
0000
0001
0000
,
0002
0000
0000
0003
0000
0000
1000
0000
,
1000
0000
0001
0000
,
0110
0000
1000
0000
,
0001
0000
0100
0000
,
0110
0000
0010
0000
,
1000
1000
1000
0000
,
1001
0000
0010
0000
,
0100
0000
1000
0000
,
0110
0000
0001
0000
,
0100
0100
0100
0100
,
0000
0010
0020
0030
,
0000
1000
2000
3000
,
0000
0001
0002
0003
,
0000
0100
0200
0300
,
0000
1000
2000
3000
,
0000
0100
0200
0300
,
0000
0010
0020
0030
,
0000
0001
0001
0000
,
0110
0000
0110
0000
,
1001
0000
1001
0000
,
0020
0000
0030
0000
,
0100
0000
0010
0000
,
1001
0000
0010
0000
,
1000
0000
0100
0000
,
0110
0000
0100
0000
,
0001
0001
0001
0000
,
0110
0000
0001
0000
,
0010
0000
1000
0000
,
1001
0000
1000
0000
,
0100
0100
0100
0100
;

//---------------dance-single - x scale 7----------------
#NOTES:
     dance-single:
     :
     Easy:
     7:
     0.342607,0.442913,0.313953,0.348836,0.013081,275.000000,239.000000,36.000000,40.000000,0.000000,0.000000,0.342607,0.442913,0.313953,0.348836,0.013081,275.000000,239.000000,36.000000,40.000000,0.000000,0.000000:
0000
0000
0000
0000
,
0000
0000
0000
0000
,
0000
0000
0000
0000
,
0000
0000
0000
0000
,
1001
0000
0100
0000
0010
1000
0001
0000
,
1000
0020
0000
0000
0001
0000
0130
0000
,
1001
0000
1000
0000
0100
0010
0001
0000
,
2000
0000
3002
0000
0010
0010
0013
0000
,
0110
1000
0001
0100
,
0001
0000
0100
0000
0010
0010
0010
0000
,
0110
1000
0100
0001
,
0010
0000
1000
0000
0001
0001
0001
0000
,
1001
0001
0100
0010
,
1000
0000
0001
0000
0100
0100
0100
0000
,
0110
0010
0100
0001
,
1000
1000
2000
0000
0010
0000
3100
0000
,
1200
1300
0000
0000
0100
0000
0010
0000
,
1000
0100
0010
0001
,
0021
0031
0000
0000
1000
0000
0100
0000
,
1000
0010
0001
0100
,
0201
0301
0100
0000
0010
0000
1000
0000
,
0100
1000
0010
0001
,
2010
3010
0000
1100
0000
0101
0000
0000
,
1000
0001
1000
0001
0011
0000
1010
0000
,
1001
0000
0000
0100
0000
0010
0000
1000
,
0000
0001
0000
0010
0000
0001
1000
0000
,
0110
0000
0000
1000
0000
0010
0000
0100
,
0000
0001
0000
0100
0000
0001
1000
0000
,
0010
0000
0000
0010
0000
0000
0010
0000
0000
0000
0000
0000
1100
0000
0000
0000
,
0010
0000
0000
0010
0000
0000
0010
0000
0000
0000
0000
0000
0101
0000
0000
0000
,
0010
0000
0000
0010
0000
0000
0010
0000
0000
0000
0000
0000
1100
0000
0000
0000
,
1010
0000
0011
0000
0100
0100
0100
0000
,
0101
0000
1000
0000
0001
0010
0100
0000
,
0100
0002
0000
0000
0010
0000
1003
0000
,
1010
0000
0010
0000
0100
0001
1000
0000
,
0020
0000
1000
0000
0001
0031
0011
0000
,
0110
0000
1000
0000
0001
0100
0010
0000
,
1000
0200
0000
0000
0010
0000
0301
0000
,
1001
0000
0010
0000
1000
0100
0001
0000
,
2000
0000
0010
0000
0100
3100
1100
0000
,
0000
0000
0001
0100
0002
0000
0003
0000
,
0000
0000
1000
0100
2000
0000
3000
0000
,
0000
0000
0010
0100
0020
0000
0030
0000
,
0000
0020
0002
0033
,
0012
0000
1000
1000
2000
0000
3003
0000
,
1020
0000
0100
0100
0200
0000
0330
0000
,
0102
0000
0010
0010
0020
0000
0033
0000
,
0000
2000
3002
0203
,
0302
0023
0230
2300
,
3020
0230
0302
2003
,
3002
0000
0000
0003
,
1010
0000
0011
0000
1000
1000
1000
0000
,
0101
0000
0100
0000
0001
1000
0010
0000
,
0100
0020
0000
0000
1000
0000
0031
0000
,
1100
0000
0001
0000
0010
0100
1000
0000
,
0020
0000
0100
0000
1000
1030
0010
0000
,
0110
0000
0010
0000
0001
1000
0100
0000
,
1000
0002
0000
0000
0100
0000
0013
0000
,
1001
0000
0010
0000
0100
0001
1000
0000
,
0020
0000
0230
0000
0001
0001
0301
0000
;

//---------------dance-single - x scale 11----------------
#NOTES:
     dance-single:
     :
     Medium:
     11:
     0.474666,0.468967,0.366278,0.191860,0.013081,381.000000,339.000000,42.000000,22.000000,0.000000,0.000000,0.474666,0.468967,0.366278,0.191860,0.013081,381.000000,339.000000,42.000000,22.000000,0.000000,0.000000:
0000
0000
0000
0000
,
0000
0000
0000
0000
,
0000
0000
0000
0000
,
0000
0000
0000
0000
,
1001
0000
0110
0000
1000
0100
0010
0001
,
0100
0010
0100
0000
0001
0010
0001
1000
,
1100
0000
0101
0000
0010
0100
0001
1000
,
1010
0000
0011
0000
0100
0100
0010
0010
,
1001
0000
0011
0000
1000
0100
0010
0001
,
0010
0100
1000
0000
0010
0010
0100
0100
,
0101
0000
1010
0000
0001
0010
0100
1000
,
0100
0010
0001
0000
1000
1000
0001
0001
,
1100
0000
0010
0100
0001
0010
0100
1000
,
0010
0100
0001
0000
0001
0001
1000
1000
,
0110
0000
0100
0001
0010
0001
1000
0100
,
0010
1000
0001
0000
0100
0010
0100
0010
,
1001
0100
0000
0000
1000
0001
0100
0010
,
1000
0100
0001
0100
1000
0010
0001
0010
,
1001
0100
0000
0000
0010
0100
0001
1000
,
1010
0000
1000
0100
0010
0100
0010
0001
,
0101
0001
1000
0000
1000
0010
0100
0001
,
1000
0010
0001
0010
1000
0100
0001
0100
,
1100
0001
0000
1010
0000
1100
0010
0000
,
0001
0001
1000
1000
0011
0000
0110
0000
,
0101
0000
0010
0100
0000
0010
1000
0010
,
0000
0100
0001
0100
0000
0001
1000
0001
,
0011
0000
1000
0001
0000
0100
0010
0100
,
0000
0010
1000
0001
0000
1000
0010
0000
,
0010
0000
0000
0010
0000
0000
0010
0000
0000
0000
1000
0000
1000
0000
1000
0000
,
0010
0000
0000
0010
0000
0000
0010
0000
0000
0000
0001
0000
0001
0000
0001
0000
,
0010
0000
0000
0010
0000
0000
0010
0000
0000
0000
0100
0000
0100
0000
0100
0000
,
0010
0010
0100
0100
0001
1000
0110
0000
,
1001
0000
0110
0000
0010
1000
0001
0100
,
0001
0010
0100
1000
0010
0100
0001
1000
,
1100
0000
0101
0000
1000
0100
0010
0001
,
0100
0100
0010
0010
1000
0001
1000
0000
,
0011
0000
1010
0000
1000
0010
0001
0100
,
1000
0010
0100
0001
1000
0001
0100
0010
,
1010
0000
1001
0000
0010
0001
1000
0100
,
1000
1000
0001
0001
0010
0100
0010
0000
,
0000
1000
0010
0100
0002
0000
0003
0000
,
0000
0001
0010
0100
2000
0000
3000
0000
,
0000
0100
0010
1000
0002
0000
0003
0000
,
0000
0101
2200
3300
,
0000
0100
0001
0010
2000
0000
3000
0000
,
0000
1000
0001
0100
0020
0000
0030
0000
,
0000
1000
0100
0001
0020
0000
0030
0000
,
0000
0110
0022
0033
,
2000
3002
2003
3002
,
0203
0320
0230
0320
,
1030
1000
0001
0001
0100
0100
0010
0010
,
1000
1000
0100
0100
0010
0001
0010
0000
,
0011
0000
0101
0000
1000
0100
0010
0001
,
1000
0100
0001
0100
1000
0010
0001
0010
,
1001
0000
1010
0000
0100
0010
1000
0001
,
0010
0010
0010
0010
0001
1000
1000
0000
,
2100
0000
3002
0000
0103
0010
0100
0001
,
1000
0010
0001
0010
1000
0100
0001
0100
,
0120
0000
2030
0000
3010
0001
0100
0010
,
1000
1000
1000
1000
0001
0010
0010
0000
;
