#TITLE:GRID KNIGHT;
#SUBTITLE:;
#ARTIST:SAW WAVE SQUAD;
#TITLETRANSLIT:;
#SUBTITLETRANSLIT:;
#ARTISTTRANSLIT:;
#GENRE:;
#CREDIT:;
#BANNER:GRID KNIGHT-bn.png;
#BACKGROUND:GRID KNIGHT-bg.png;
#LYRICSPATH:;
#CDTITLE:;
#MUSIC:GRID KNIGHT.ogg;
#OFFSET:0.000000;
#SAMPLESTART:73.481636;
#SAMPLELENGTH:20.000000;
#SELECTABLE:YES;
#DISPLAYBPM:160.000000;
#BPMS:0.000000=160.039993
;
#STOPS:
;
#BGCHANGES:;
#KEYSOUNDS:;
#ATTACKS:;

//---------------dance-single - ----------------
#NOTES:
     dance-single:
     :
     Hard:
     14:
     0.625676,0.785985,0.434028,0.489268,0.911458,555.000000,500.000000,55.000000,62.000000,0.000000,0.000000,0.625676,0.785985,0.434028,0.489268,0.911458,555.000000,500.000000,55.000000,62.000000,0.000000,0.000000:
0000
0000
0000
0000
,
0000
0000
0000
0000
,
0000
0000
0000
0000
,
0000
0000
0000
0000
,
0000
0000
0000
0000
,
1001
0000
0000
1010
0000
0000
1000
0001
1000
0010
0000
0010
,
0100
0000
0000
0101
0000
0000
0001
0010
0001
1000
0000
1000
,
0010
0000
0000
0110
0000
0000
0100
0001
0100
0010
0000
0010
,
1000
0000
0000
1100
0000
0000
0001
1000
0001
0100
0000
0100
,
0020
0000
0000
0000
,
2000
0030
0002
3000
,
0200
0000
0000
0003
0000
0020
0000
0000
0000
0300
0000
0000
,
0200
0030
0302
2003
,
3002
0100
0100
0100
,
2003
0100
0100
3100
,
1001
0100
1001
0100
,
1010
0000
0000
0011
0000
0000
1000
0100
0010
0001
0000
0000
,
0110
0000
0010
1000
0000
0001
0100
0000
0010
0100
0000
0010
,
1000
0000
0100
1000
0000
0000
0002
0000
0203
0000
0320
0000
,
1030
0000
0010
0100
0000
0000
0001
0000
0010
0100
0000
0000
,
1000
0001
1000
0001
0000
0000
0100
0010
0100
0010
0000
0000
,
1010
0000
1000
0100
0000
1000
0001
0000
0100
0010
0000
0000
,
2000
0000
3002
0000
0023
0000
0230
0000
0320
0000
0032
0000
,
0103
0000
0010
0100
0000
0010
1000
0000
0100
0010
0000
0000
,
0001
0100
0001
0100
0000
0000
0010
1000
0010
1000
0000
0000
,
2100
0000
0000
3002
0000
0000
0103
0010
0100
0010
0000
0000
,
1020
0000
0000
0130
0000
0210
0000
0000
0301
1000
0100
1000
,
0020
0000
0000
0130
0000
0010
1000
0000
1000
0100
0000
0000
,
1000
0010
0100
0001
0000
0000
2000
0000
3020
0000
2030
0000
,
3001
0000
0010
0001
0000
0100
0010
0000
1000
0001
0000
0000
,
2000
0001
0000
3002
0100
0000
0203
0010
0000
0310
0000
0000
,
0101
0000
1000
0100
0000
0001
0100
0000
0010
1000
0000
0000
,
0001
0010
0100
1000
0000
0000
0001
0100
0010
1000
0000
0000
,
0110
0000
0100
0001
0000
0100
0001
0000
1000
0100
0000
0000
,
1100
0000
0010
1000
0000
0010
0100
0000
0001
0010
0000
0000
,
0011
0000
0100
0010
0000
1000
0010
0000
1000
0100
0000
0000
,
1001
0000
1000
0001
0000
0010
0100
0000
1000
0100
0000
0000
,
0011
0000
0001
0010
0000
0001
1000
0000
1000
0100
0000
0000
,
1100
0000
1000
0010
0000
0010
0100
0000
0100
0001
0000
0000
,
0011
0000
0010
0100
0000
0100
0010
0000
0001
0100
0000
0000
,
0001
1000
0001
1000
0001
1000
0001
1000
0001
1000
0001
1000
,
0020
0000
0000
1030
0100
1000
0100
0000
0000
0001
0000
0000
,
0200
0000
0000
0301
1000
0001
1000
0000
0000
0010
0000
0000
,
2000
0000
0000
3010
0001
0010
0001
0000
0000
0100
0000
0000
,
0002
0000
0000
0103
0010
0100
0010
0000
0000
1000
0001
1000
,
0002
0000
0000
0000
0000
0000
1003
0100
1000
0001
0100
0001
,
2000
0000
0000
0000
0000
0000
3001
0100
0001
1000
0100
1000
,
0020
0000
0000
0000
0000
0000
1030
0100
1000
0001
0100
0001
,
1000
0100
0010
0001
0010
0100
1000
0010
0100
0001
0000
0000
,
1100
0000
0000
0101
0000
0000
1000
0010
0100
0010
0100
0010
,
2000
0000
0000
3001
0010
0001
0100
0001
0100
0001
1000
0001
,
1000
0000
0000
0110
0000
0000
0100
0001
0010
0001
0010
0001
,
0200
0000
0000
0310
1000
0010
1000
0001
1000
0100
1000
0100
,
1000
0000
0000
0011
0000
0000
0100
0010
1000
0100
0010
0001
,
0200
0000
0000
0300
0000
0100
0001
0010
0001
0100
0010
1000
,
0100
1100
0012
1003
,
0001
0100
0001
0100
0010
0100
0020
0000
0000
0030
0000
0000
,
1010
0000
0000
0011
0000
0000
0100
0001
1000
0001
1000
0001
,
0010
0000
0000
0101
0000
0000
1000
0100
1000
0001
0010
0100
,
1000
0000
0000
1001
0000
0000
0010
1000
0100
1000
0100
1000
,
0002
0000
0000
0013
0100
1000
0010
0100
0001
1000
0001
0100
,
0020
0000
0000
0000
0000
0000
1030
0001
0100
0001
1000
0100
,
2000
0000
0000
0000
0000
0000
3001
1000
0010
1000
0001
0010
,
0200
0000
0000
0000
0000
0000
1300
0010
1000
0001
0010
0001
,
0100
0010
0100
0010
0100
0010
0100
0010
0100
0010
0000
0000
,
2002
0000
3000
0203
,
0020
0000
0000
0300
0000
2000
0030
0000
0000
3002
0000
0000
,
2000
0000
0000
0003
0000
0200
3000
0000
0000
2300
0000
0000
,
0002
0000
3000
0013
,
1002
0100
0100
0103
,
2001
0100
0100
3100
,
2100
3001
0102
1003
,
0000
1010
0000
0101
0000
1001
0000
0101
0000
1010
0000
1000
,
0010
0000
1000
0100
0000
1000
0001
0000
0010
0100
0000
0000
,
1000
0000
0100
1000
0000
0000
0101
0000
0000
1100
0000
0001
,
0100
0000
0100
0010
0000
0010
1000
0000
0001
0010
0000
0000
,
0001
0100
0001
0100
0000
0000
1000
0100
1000
0100
0000
0000
,
1000
0010
1000
0001
0010
0001
1000
0100
0010
0001
0000
0000
,
0001
0100
0001
1000
0100
1000
0001
0010
0100
1000
0000
0000
,
0000
1100
0000
0110
0000
0011
0000
0101
0000
1001
0000
1010
,
0000
1001
0000
0101
0000
0011
0000
0101
0000
1001
0000
2000
,
0002
0000
0000
0000
,
0000
0000
0000
0000
,
3003
0000
0000
0000
;

//---------------dance-single - ----------------
#NOTES:
     dance-single:
     :
     Medium:
     11:
     0.447556,0.589489,0.331439,0.552399,0.445865,397.000000,355.000000,42.000000,70.000000,0.000000,0.000000,0.447556,0.589489,0.331439,0.552399,0.445865,397.000000,355.000000,42.000000,70.000000,0.000000,0.000000:
0000
0000
0000
0000
,
0000
0000
0000
0000
,
0000
0000
0000
0000
,
0000
0000
0000
0000
,
0000
0000
0000
0000
,
1001
0000
0000
0110
0000
0000
1000
0000
0001
0100
0000
0010
,
1000
0000
0000
0101
0000
0000
0010
0000
0100
0001
0000
0000
,
0011
0000
0000
1100
0000
0000
0001
0000
0100
0010
0000
1000
,
0001
0000
0000
1010
0000
0000
1000
0000
0100
0010
0000
0000
,
0002
0000
0000
0000
,
0203
0000
0320
0000
,
2030
0000
0000
0000
0000
3020
0000
0000
0000
0000
0000
0000
,
0230
0000
0302
2003
,
3200
0000
0000
0000
,
0320
0000
0000
0000
,
0032
0000
2003
3000
,
1100
0011
0101
1010
,
1001
0100
0010
1000
,
0110
0000
0000
0001
0000
0000
0100
0000
0010
0000
1000
0000
,
0001
0000
1000
0100
0000
0000
1000
0000
0001
0100
0000
0000
,
0012
1003
2100
3001
,
0110
1000
0001
0100
,
0001
0000
0001
0000
0001
0000
1000
0000
1000
0000
1000
0000
,
1020
0100
0001
1030
,
0201
1000
0001
0310
,
1000
0000
0000
1001
0000
0000
0010
0000
0001
0100
0000
0000
,
2000
0000
0000
0000
0000
3002
0000
0000
0000
0203
0000
0000
,
0302
0000
0000
0000
0000
2003
0000
0000
0000
0000
0000
0000
,
3010
0000
0000
0100
0000
0000
0020
0000
0230
0000
0320
0000
,
1030
0000
0000
0010
0000
0202
0000
0000
0000
0300
0000
0000
,
2003
3100
0020
0031
,
1100
0010
0100
0001
,
0011
0000
0010
0001
0000
0000
1010
0000
1000
0010
0000
0000
,
0110
0000
0000
0010
0000
2002
0000
0000
0000
3000
0000
0000
,
0203
0000
0000
0000
0000
0320
0000
0000
0000
1030
0000
0001
,
0100
0000
0000
0010
0000
1000
0000
0000
0001
0100
0000
0000
,
0001
0000
0000
1000
0000
0100
0000
0000
0010
0001
0000
0000
,
1000
0000
0000
0100
0000
0000
1000
0000
0001
0100
0000
0000
,
0001
0000
0000
0010
0000
0001
1000
0000
0000
0010
0000
0000
,
0100
0000
0001
0100
0000
0000
0001
0000
1000
0100
0000
0000
,
1000
0000
0100
0010
0000
0001
0100
0000
0001
1000
0000
0000
,
0020
1030
0001
0100
,
0002
0103
0010
1000
,
0200
1300
0010
0001
,
2000
0000
0000
3001
0000
0000
0100
0000
0000
0010
0100
0010
,
0200
0000
0000
0000
0000
0000
0301
1000
0001
1000
0000
0000
,
0020
0000
0000
0000
0000
0000
1030
0001
1000
0001
0000
0000
,
2000
0000
3002
0103
,
0001
0000
1000
0001
0000
1000
0010
0100
0010
0100
0000
0000
,
1001
0000
0000
1010
0000
0000
0001
1000
0001
1000
0000
0010
,
0100
0000
0000
0001
0010
0001
0010
0000
0100
1000
0000
0001
,
0100
0000
0000
0011
0000
0000
0001
1000
0001
1000
0000
0010
,
0100
0000
0000
0010
1000
0010
1000
0000
0001
0010
0000
0100
,
1000
0000
0000
0110
0000
0000
0010
0000
0100
0001
0000
0100
,
0020
0000
0000
0030
0000
0010
1000
0000
0100
0010
0000
0001
,
0100
0010
1100
0101
,
1000
0000
0010
0100
0000
0010
0200
0000
0000
0300
0000
0000
,
0011
0000
0000
1100
0000
0000
0010
0100
0010
0100
0000
0001
,
1000
0000
0000
0101
0000
0000
0001
0010
0001
0010
0000
0100
,
1000
0000
0000
1010
0000
0000
0100
0001
0100
0001
0000
1000
,
0100
0000
0000
1000
0010
1000
0010
0000
0100
0001
0000
0100
,
0002
0000
0000
0000
0000
0000
1003
0100
1000
0100
0000
0000
,
2000
0000
0000
0000
0000
0000
3001
0100
0001
0100
0000
0000
,
0220
0000
0000
0300
0000
0000
1030
0001
1000
0001
0000
0000
,
0100
0000
0001
1000
0000
0001
1000
0010
0100
0010
0000
0000
,
2002
0000
3000
2003
,
3020
0000
0000
0000
0000
0230
0000
0000
0000
0302
0000
0000
,
0203
0000
0000
0000
0000
0320
0000
0000
0000
2030
0000
0000
,
3002
0000
0000
0023
,
0032
0000
0000
2003
,
3200
0000
0000
0000
0000
2300
0000
0000
0000
3002
0000
0000
,
0203
0000
0320
0030
,
0000
0100
0000
0100
0000
0100
0000
0100
0000
0100
0000
0100
,
0001
0000
0000
0011
0000
0000
1000
0000
0010
0100
0000
0000
,
0102
0000
0000
1003
0000
0000
2001
0000
0000
3010
0000
0100
,
0001
0000
0000
1000
0000
0020
0000
0000
1030
0001
0000
0000
,
0200
0010
1000
0301
,
0110
0000
1000
0010
0000
0100
0010
0000
1000
0001
0000
0000
,
1010
0001
1100
0001
,
0000
0010
0000
0010
0000
0010
0000
0100
0000
0100
0000
0100
,
0000
0001
0000
0001
0000
0001
0000
1000
0000
1000
0000
2000
,
0002
0000
0000
0000
,
0000
0000
0000
0000
,
3003
0000
0000
0000
;

//---------------dance-single - ----------------
#NOTES:
     dance-single:
     :
     Easy:
     7:
     0.351732,0.458491,0.434028,0.299874,0.039457,312.000000,257.000000,55.000000,38.000000,0.000000,0.000000,0.351732,0.458491,0.434028,0.299874,0.039457,312.000000,257.000000,55.000000,38.000000,0.000000,0.000000:
0000
0000
0000
0000
,
0000
0000
0000
0000
,
0000
0000
0000
0000
,
0000
0000
0000
0000
,
0000
0000
0000
0000
,
1001
0010
1000
0001
,
0100
0001
0010
1000
,
0110
0100
0001
1000
,
0001
0010
0100
1000
,
0020
0000
0000
0030
,
2000
3000
0002
0003
,
0200
0000
0000
0000
0000
0310
0000
0000
0000
0000
0000
0000
,
2000
3000
0002
0103
,
0020
0000
0000
0030
,
0200
0000
0000
0300
,
1001
0000
0110
0000
,
1001
1001
0110
0110
,
1001
0010
1000
0001
,
0100
0010
1000
0001
,
0011
1000
0100
0010
,
0011
1000
1010
0100
,
0001
0010
0100
1000
,
0010
0010
0100
0100
,
0001
1000
0100
1000
,
0010
0001
0100
1000
,
1100
0101
1000
0001
,
0011
1000
0010
0100
,
0110
1000
0001
0100
,
0001
0010
0100
0010
,
0001
0100
1000
0010
,
1100
0001
0100
0110
,
0101
1000
0010
0100
,
1001
1000
0010
0001
,
0100
0010
1000
0001
,
1000
0100
0010
0001
,
1000
0001
1000
0100
,
0010
1000
0100
0001
,
1001
0010
1000
0001
,
0101
1000
0100
0001
,
0100
0000
0000
0000
,
0000
0000
0000
0000
,
0020
0100
1030
0000
,
0200
0010
0301
0000
,
0002
1000
0103
0000
,
2000
0010
3001
0000
,
2200
0300
0010
3010
,
0202
0300
0010
0013
,
0022
0003
0100
0130
,
0001
1000
0020
0130
,
1001
0110
1000
0100
,
0011
0100
0001
1000
,
1010
0101
0010
1000
,
1100
0001
1000
0100
,
0011
0101
0010
0100
,
2001
0000
0100
3001
,
0002
1000
0200
0303
,
2000
0100
0020
3030
,
0110
1010
1000
0100
,
0011
1001
0010
0100
,
0101
1100
0001
0010
,
1001
0100
0010
1000
,
2020
3000
0100
0130
,
0202
0300
0010
0013
,
2200
3000
1000
0001
,
1300
0100
0020
0031
,
1002
0000
0000
0103
,
0020
0000
0000
0000
0000
1000
0000
0000
0000
0130
0000
0000
,
2000
0000
0000
0000
0000
0001
0000
0000
0000
3100
0000
0000
,
0002
0000
0000
1003
,
0120
0000
0000
0130
,
1000
0000
0000
0000
0000
0001
0000
0000
0000
0100
0000
0000
,
1001
0000
0110
0000
,
0000
0000
0000
0100
0000
0010
0000
1000
0000
0001
0000
0000
,
1001
0010
1000
0100
,
0001
1000
1100
0010
,
0101
1000
0100
0010
,
1001
0010
0100
0010
,
1010
0100
0001
1000
,
0011
0100
1000
0000
,
0000
1000
0000
1000
0000
0000
0000
0100
0000
0100
0000
0000
,
0000
0010
0000
0010
0000
0000
0000
0001
0000
0001
0000
0000
,
2002
0000
0000
0000
,
0000
0000
0000
0000
,
3003
0000
0000
0000
;

//---------------dance-single - ----------------
#NOTES:
     dance-single:
     :
     Beginner:
     3:
     0.169102,0.261995,0.047348,0.007891,0.000000,150.000000,144.000000,6.000000,1.000000,0.000000,0.000000,0.169102,0.261995,0.047348,0.007891,0.000000,150.000000,144.000000,6.000000,1.000000,0.000000,0.000000:
// measure 0
0000
0000
0000
0000
,  // measure 1
0000
0000
0000
0000
,  // measure 2
0000
0000
0000
0000
,  // measure 3
0000
0000
0000
0000
,  // measure 4
0000
0000
0000
0000
,  // measure 5
1001
0000
0100
0000
,  // measure 6
0100
0000
0100
0000
,  // measure 7
1001
0000
0100
0000
,  // measure 8
0100
0000
0100
0000
,  // measure 9
0010
0000
0000
0000
,  // measure 10
1000
0000
0001
0000
,  // measure 11
1000
0000
0000
0000
,  // measure 12
0010
0000
0100
0000
,  // measure 13
0001
0000
0000
0000
,  // measure 14
0000
0000
0000
0000
,  // measure 15
0100
0000
0100
0000
,  // measure 16
0010
0010
0010
0000
,  // measure 17
1001
0000
0000
0000
,  // measure 18
0010
0000
1000
0000
,  // measure 19
0001
0000
0000
0000
,  // measure 20
0100
0000
0010
0000
,  // measure 21
1000
0000
0000
0000
,  // measure 22
0001
0001
0001
0001
,  // measure 23
0001
0000
0000
0000
,  // measure 24
0010
0000
0000
0000
,  // measure 25
1000
1000
0000
0000
,  // measure 26
0001
0000
0100
0000
,  // measure 27
0010
0000
1000
0000
,  // measure 28
0000
0010
0010
0000
,  // measure 29
1000
0000
0000
0000
,  // measure 30
0010
0010
0010
0010
,  // measure 31
0010
0000
0000
0000
,  // measure 32
0100
0000
0100
0000
,  // measure 33
0001
0000
0000
0000
,  // measure 34
1000
0000
0100
0000
,  // measure 35
1000
0000
0001
0000
,  // measure 36
0100
0000
0100
0000
,  // measure 37
1001
0000
0000
0100
,  // measure 38
0100
0000
1000
0000
,  // measure 39
0010
0000
0000
0000
,  // measure 40
0000
0000
0000
0000
,  // measure 41
0010
0000
0000
0000
,  // measure 42
0100
0000
0000
0000
,  // measure 43
0001
0000
0000
0000
,  // measure 44
1000
0000
1000
0000
,  // measure 45
1000
0000
0000
0000
,  // measure 46
0100
0000
0000
0000
,  // measure 47
0010
0000
0100
0000
,  // measure 48
0010
0010
0010
0000
,  // measure 49
0001
0001
0001
0001
,  // measure 50
0001
0000
1000
0000
,  // measure 51
0100
0100
0100
0100
,  // measure 52
0100
0000
1000
0000
,  // measure 53
0010
0010
0010
0010
,  // measure 54
0010
0000
0100
0000
,  // measure 55
0001
0001
0001
0000
,  // measure 56
1000
1000
1000
0000
,  // measure 57
0001
0001
0001
0000
,  // measure 58
1000
1000
1000
0000
,  // measure 59
0001
0001
0001
0000
,  // measure 60
0100
0100
0100
0000
,  // measure 61
0010
0000
0000
0000
,  // measure 62
0010
0000
0000
0000
,  // measure 63
1000
0000
0000
0000
,  // measure 64
0100
0100
0100
0000
,  // measure 65
1001
0000
0000
0000
,  // measure 66
1000
0000
0001
0000
,  // measure 67
0100
0000
0100
0000
,  // measure 68
0100
0000
0000
0000
,  // measure 69
0010
0000
0000
0000
,  // measure 70
1000
0000
0100
0000
,  // measure 71
0001
0000
0000
0000
,  // measure 72
0000
1000
1000
1000
,  // measure 73
1000
0000
0000
0000
,  // measure 74
0001
0000
0100
0000
,  // measure 75
0001
0000
1000
0000
,  // measure 76
0010
0000
0000
0000
,  // measure 77
1001
0000
0000
0000
,  // measure 78
0100
0000
0100
0000
,  // measure 79
0000
1000
1000
1000
,  // measure 80
0000
0001
0001
0001
,  // measure 81
0002
0000
0000
0000
,  // measure 82
0000
0000
0000
0000
,  // measure 83
0003
0000
0000
0000
;
