#TITLE:GORGEOUS 2012;
#SUBTITLE:;
#ARTIST:THE SURRENDERS;
#TITLETRANSLIT:;
#SUBTITLETRANSLIT:;
#ARTISTTRANSLIT:;
#GENRE:;
#CREDIT:;
#BANNER:GORGEOUS 2012-bn.png;
#BACKGROUND:GORGEOUS 2012-bg.png;
#LYRICSPATH:;
#CDTITLE:;
#MUSIC:GORGEOUS 2012.ogg;
#OFFSET:0.000000;
#SAMPLESTART:49.773998;
#SAMPLELENGTH:20.000000;
#SELECTABLE:YES;
#DISPLAYBPM:135.000000;
#BPMS:0.000000=135.100006
,4.000000=135.000000
;
#STOPS:
;
#BGCHANGES:;
#KEYSOUNDS:;
#ATTACKS:;

//---------------dance-single - ----------------
#NOTES:
     dance-single:
     :
     Beginner:
     4:
     0.128290,0.184787,0.098685,0.000000,0.000000,91.000000,81.000000,10.000000,0.000000,0.000000,0.000000,0.128290,0.184787,0.098685,0.000000,0.000000,91.000000,81.000000,10.000000,0.000000,0.000000,0.000000:
0000
0000
0000
0000
,
0000
0000
0000
0000
,
0000
0000
0000
0000
,
0000
0000
0000
0000
,
0000
0000
0000
0000
,
0000
0000
0000
0000
,
1000
1000
1000
0000
,
0010
0010
0000
0000
,
1000
0000
0010
0000
,
1000
0000
0000
0001
,
0000
0000
0100
0000
,
0100
0000
0001
0000
,
0100
0000
1000
0000
,
0100
0000
1001
0000
,
1001
0000
0010
0000
,
0010
0000
1000
0000
,
0010
0000
0001
0000
,
0010
0000
1001
0000
,
0000
0110
0000
0000
,
0000
0000
0000
0000
,
1001
0000
1000
0000
,
0110
0000
0100
0000
,
0000
0110
0000
0000
,
0000
0000
0000
0000
,
1001
0000
0000
0000
,
1000
0000
0010
0000
,
0010
0000
1000
0000
,
0010
0000
1000
0000
,
0001
0001
0001
0001
,
0000
0010
0000
0100
,
0000
1000
1000
1000
,
0000
0010
0000
0010
,
0000
1000
1000
1000
,
0000
0100
0000
0010
,
0000
0001
0001
0001
,
0000
0100
0000
0100
,
0000
0000
0000
0100
,
0000
0000
0010
0000
,
0110
0000
0000
0001
,
0000
0000
1000
0000
,
0000
0000
0000
0000
,
0000
0000
0000
0000
,
0000
0000
0000
0000
,
0000
0000
0000
0000
,
1001
0000
0000
0000
,
0001
0001
0000
1000
,
0000
0100
0000
0001
,
0000
0010
0000
1000
,
0000
0000
0001
0000
,
0001
0000
0100
0100
,
0000
1000
0000
0000
,
0100
0000
0001
0000
,
1000
0000
0000
0000
,
0010
0000
1000
0000
;

//---------------dance-single - ----------------
#NOTES:
     dance-single:
     :
     Medium:
     8:
     0.363723,0.371301,0.246711,0.148027,0.000000,258.000000,233.000000,25.000000,15.000000,0.000000,0.000000,0.363723,0.371301,0.246711,0.148027,0.000000,258.000000,233.000000,25.000000,15.000000,0.000000,0.000000:
0000
0000
0000
0000
,
0000
0000
0000
0000
,
0000
0000
0000
0000
,
0000
0000
0000
0000
,
1001
0010
0100
0100
,
1000
0000
0001
0000
0010
0000
1000
0100
,
0010
0010
0010
0010
,
1001
0100
0100
0100
,
1001
0100
1001
0010
,
0100
0010
1001
0110
,
1001
0002
0010
1003
,
0200
0000
0310
1000
,
1001
0002
0010
1003
,
0100
0000
1001
0000
0010
1000
0001
0000
,
1001
0020
0001
0130
,
0001
1000
0100
0000
0010
0001
0100
0000
,
2001
0000
0100
3100
,
0001
0000
1000
0000
0010
0001
1000
0000
,
0002
1000
0003
0000
0002
1000
0003
0000
,
0002
1000
0003
0000
0002
1000
0003
0000
,
0001
1000
0100
0000
0010
0001
0100
0000
,
0010
0001
0100
0000
0010
1000
0001
0000
,
2000
0001
3000
0000
2000
0001
3000
0000
,
2000
0001
3000
0000
2000
0001
3000
0000
,
0001
1000
0100
0000
0010
0001
0100
0000
,
0001
1000
0100
0000
0010
0001
0100
0000
,
0000
1001
0000
0000
0000
0100
0000
0000
,
0000
1001
0000
0000
0100
0000
0000
0000
,
0010
0100
1000
0000
0001
1000
0100
0000
,
1000
0001
1000
0000
0001
1000
0001
0000
,
0100
0100
0100
0100
,
1001
0100
1001
0100
,
0010
1000
0110
0000
0001
1000
0100
0000
,
0010
0000
0010
0000
0001
1000
0100
0000
,
0001
0100
0100
0100
,
1001
0010
0010
0010
,
0001
1000
0100
0000
0010
0001
1000
0000
,
0010
0000
0010
0000
1000
0001
0100
0000
,
0001
1000
0001
0000
1000
0001
1000
0000
,
0010
1000
0001
0000
0010
0001
0100
0000
,
0001
1000
0010
0100
0010
0100
0001
0000
,
0010
0100
0010
0000
0001
0100
0010
0000
,
1000
0100
0010
0000
0010
0001
1000
0000
,
0010
1000
0001
0000
1000
0001
0100
0000
,
0010
0000
0010
0000
1000
0001
0110
0000
,
0001
1000
0001
0000
0100
0010
1000
0000
,
0001
0001
0001
0001
,
0010
1001
0100
1001
,
0010
1000
0001
0000
1000
0001
1000
0000
,
0001
1000
0100
0000
0010
0001
0100
0000
,
0001
0001
0001
0001
,
0100
1001
0010
1001
,
2002
0000
0000
3003
,
0000
1001
0000
0000
0100
0000
0110
0000
;

//---------------dance-single - ----------------
#NOTES:
     dance-single:
     :
     Hard:
     10:
     0.442671,0.503908,0.434212,0.069079,0.014803,314.000000,270.000000,44.000000,7.000000,0.000000,0.000000,0.442671,0.503908,0.434212,0.069079,0.014803,314.000000,270.000000,44.000000,7.000000,0.000000,0.000000:
0000
0000
0000
0000
,
0000
0000
0000
0000
,
0000
0000
0000
0000
,
0000
0000
0000
0000
,
1001
0110
1000
1000
,
0001
0000
1000
0000
0110
0000
1001
1100
,
0010
0010
0010
0010
,
1001
0100
0100
0100
,
1001
0100
1001
0010
,
0100
0110
1001
0110
,
0101
2000
0010
3001
,
0200
0000
0000
0000
0310
1000
0001
0000
,
1100
0010
0001
1000
0001
0100
0001
0000
,
0100
0010
0100
0010
1000
0001
0100
0000
,
1001
0020
1000
0130
,
1000
0001
0100
0000
0010
1000
0100
0000
,
1010
0100
0001
1000
0001
0010
0001
0000
,
0010
0100
0010
0100
1000
0001
0010
0000
,
2000
0000
0000
0000
,
0000
0000
0000
0000
0000
0000
0000
0000
0000
0000
0001
0000
3000
0100
0000
0000
,
0100
0001
0100
0000
0010
1000
0100
0000
,
0010
0000
1000
0000
0100
0000
0000
0000
0000
0000
0001
0000
0000
1000
0000
0000
,
0002
0000
0000
0000
,
0000
0000
0000
0000
0000
0000
0000
0000
0000
0000
1000
0000
0003
0100
0000
0000
,
0100
0001
0100
0000
0010
1000
0100
0000
,
1000
0001
0100
0000
0010
1000
0100
0000
,
0000
1001
0000
0000
0000
0100
0000
0000
,
0000
0011
0000
0100
0100
0000
1100
0000
,
0010
0100
0001
0100
0001
1000
0010
0000
,
0001
1000
0001
1000
0010
0100
0010
1000
,
0001
0100
0010
0100
0010
0100
0010
0000
,
1100
0101
1100
0101
,
1001
1100
1001
0000
1000
0010
0100
0000
,
1000
0001
1000
0001
0100
0010
0100
0001
,
1000
0010
0100
0000
0100
0000
0100
0000
,
0011
1100
1001
0110
,
0001
1000
0010
0100
0010
0100
0001
1000
,
0010
0100
0010
0100
0001
0100
0010
0000
,
1000
0100
0010
0100
0010
0001
1000
0100
,
0010
1000
0001
1000
0001
1000
0010
0100
,
0001
1000
0010
0100
0010
0100
0001
1000
,
0010
0100
0010
0100
0001
0100
0010
0000
,
1000
0100
0010
0100
0010
0001
1000
0100
,
0010
1000
0001
1000
0001
1000
0010
0000
,
1000
0000
1000
0000
0001
1000
0110
0000
,
0001
1000
0001
1000
0010
0100
0010
1000
,
0001
0100
0010
0100
0010
0100
0010
0000
,
1100
0101
1100
0101
,
1001
1100
1001
0000
1000
0010
0100
0000
,
1000
0001
1000
0001
0100
0010
0100
0001
,
1000
0010
0100
0000
0100
0000
0100
0000
,
0011
0000
1100
0000
1001
0000
0110
1000
,
0100
2200
0000
0000
0000
0000
0000
3300
,
0000
1001
0000
0010
0100
0000
1001
0000
;

//---------------dance-double - ----------------
#NOTES:
     dance-double:
     :
     Easy:
     5:
     0.179042,0.263981,0.098685,0.167764,0.000000,127.000000,117.000000,10.000000,17.000000,0.000000,0.000000,0.179042,0.263981,0.098685,0.167764,0.000000,127.000000,117.000000,10.000000,17.000000,0.000000,0.000000:
00000000
00000000
00000000
00000000
,
00000000
00000000
00000000
00000000
,
00000000
00000000
00000000
00000000
,
00000000
00000000
00000000
00000000
,
00000000
00000000
00000000
00000000
,
00000000
00000000
00000000
00000000
,
10000000
00010000
00100000
00000000
,
00001000
00010000
00000100
00000010
,
00000001
00001000
00000200
00000000
,
00000000
00000000
00000300
00000000
,
00002001
00000000
00003100
00000000
,
00010000
00001000
01000000
01000000
,
00200000
00000000
10300000
00000000
,
00010000
00100000
00001000
00010000
,
00000200
00000000
00001300
00000000
,
00000001
00000100
00001000
01000000
,
00100000
00000000
10000000
00000000
,
01000000
01000000
00100000
00001000
,
00022000
00000000
00000000
00000000
,
00033000
00000000
00000000
00000000
,
00010000
00000100
00001000
00000010
,
00000100
00000100
00000100
00000010
,
00000220
00000000
00000000
00000000
,
00000330
00000000
00000000
00000000
,
00000001
00000000
00001000
00000000
,
00000100
00100000
00001000
01000000
,
01100000
00000000
10010000
00000000
,
10000000
00000000
10000000
00000000
,
10000000
01000000
00010000
00000000
,
00001000
00000010
00000001
00000000
,
00001000
00001000
00000100
00010000
,
00002000
00000000
00003000
00000000
,
00100000
00010000
00100000
00000000
,
00010000
10000000
00100000
01000000
,
00020000
00000000
00000000
00000000
,
00000000
00000000
00030000
00000000
,
20000000
00000000
31000000
00000000
,
00200000
00000000
00301000
00001000
,
00020000
00000000
00030100
00000000
,
00002000
00000000
00003001
00000000
,
00000001
00000100
00001000
00000000
,
01000000
00100000
10000000
00000000
,
10010000
00000000
10010000
00000000
,
10000000
01000000
00100000
00010000
,
00002000
00000000
00003000
00000000
,
00000100
00000010
00000001
00000000
,
00000001
00001000
00000001
00000100
,
00000020
00000000
00000030
00000000
,
00010000
00001000
00100000
00000000
,
00010000
01000000
10000000
01000000
,
00020000
00000000
00000000
00030000
,
01000000
00001000
00010000
00000000
,
00011000
00000000
00000000
00000000
,
00011000
00000000
00011000
00000000
;

//---------------dance-double - ----------------
#NOTES:
     dance-double:
     :
     Medium:
     7:
     0.281956,0.397822,0.276317,0.167764,0.000000,200.000000,172.000000,28.000000,17.000000,0.000000,0.000000,0.281956,0.397822,0.276317,0.167764,0.000000,200.000000,172.000000,28.000000,17.000000,0.000000,0.000000:
00000000
00000000
00000000
00000000
,
00000000
00000000
00000000
00000000
,
00000000
00000000
00000000
00000000
,
00000000
00000000
00000000
00000000
,
00000000
00000000
00000000
00000000
,
00000000
00000000
00000000
00000000
,
00000010
00000010
00000010
00000000
00001001
00000000
00000110
00000000
,
00000010
00010000
00001000
00000000
00011000
00000000
00110000
00000000
,
00000000
10010000
02200000
00000000
,
00000000
00000000
00000000
03300000
00000000
00000000
11000000
00000000
,
10000000
01000000
00010000
00001000
,
00000010
00000000
00000001
00000000
00001000
00000010
00001000
00000000
,
00000000
00000100
00010000
00001000
,
00100000
00000000
00010000
00000000
01000000
00010000
00100000
00000000
,
11000000
00000000
01010000
00000000
10000000
00010000
00100000
00000000
,
00010000
01000000
00100000
00000000
10000000
01000000
00010000
00000000
,
00000000
00001000
00000010
00000000
00000000
00000100
00000010
00000000
,
00001001
00000000
00001001
00000000
00000010
00010000
00001000
00000000
,
00022000
00000000
00000000
00000000
00000000
00000000
00000000
00000000
00000000
00000000
00000000
00000000
00000000
00000000
00000000
00000000
00000000
00000000
00000000
00000000
00000000
00000000
00000000
00000000
00000000
00000000
00000000
00000000
00000000
00000000
00000000
00000000
00000000
00000000
00000000
00000000
00000000
00000000
00000000
00000000
00000000
00000000
00000000
00000000
00000000
00000000
00000000
00000000
00000000
00000000
00000000
00000000
00000000
00000000
00000000
00000000
00000000
00000000
00000000
00000000
00000000
00000000
00000000
00003000
,
00030000
00000000
00000000
00000000
00000000
00101000
00000000
00000000
,
00100000
00010000
10000000
01000000
,
00100000
00010000
00100000
00000000
00000000
00000000
00001000
00000000
,
00022000
00000000
00000000
00000000
,
00033000
00000000
00000000
00000000
00000000
00010100
00000000
00000000
,
00000100
00001000
00000010
00000100
,
00000001
00000000
00001000
00000000
00000100
00000000
00010000
00001000
,
00100000
00010000
00000000
01000000
10000000
01000000
00000000
10000000
,
00010000
00100000
00000000
00000000
00011000
00000000
00000000
00000000
,
00010000
00000100
00000010
00000001
,
00000100
00000010
00001000
00000100
,
00020000
00001000
00000100
00031000
,
02000000
00000000
03000000
00000000
,
00010000
10000000
00100000
10000000
,
01000000
00100000
00010000
00100000
,
00002000
00010000
00100000
00013000
,
00000200
00000000
00000000
00000300
,
00000000
00001100
00000000
00000001
00000000
00001000
00000100
00000000
,
00000000
00011000
00000000
00100000
00000000
00010000
01000000
00000000
,
00000000
01100000
00000000
10000000
00000000
01000000
10000000
00000000
,
00000000
11000000
00000000
00010000
00000000
00100000
00001000
00000000
,
00010000
00000100
00001000
00000000
00000100
00001000
00000001
00000000
,
00000100
00000010
00001000
00000000
00000001
00000100
00001000
00000000
,
00000110
00000000
00001100
00000000
,
00011000
00110000
10010000
11000000
,
00220000
00000000
00330000
00000000
,
00010000
00000100
00000010
00001000
,
00000002
00001000
00000100
00001003
,
00000200
00000000
00000300
00000000
,
00010000
00001000
00100000
00010000
,
01000000
00100000
10000000
00010000
,
02000000
00001000
00010000
03001000
,
00020000
00000000
00000000
00000000
00030000
00000000
00000000
00001000
,
00010000
00000200
00000000
00000000
00000000
00000300
00000000
00001000
,
00000100
00000010
00000000
00000001
00001000
00000000
00001001
00000000
;

//---------------dance-double - ----------------
#NOTES:
     dance-double:
     :
     Hard:
     11:
     0.422934,0.583472,0.325659,0.118421,0.133224,300.000000,267.000000,33.000000,12.000000,0.000000,0.000000,0.422934,0.583472,0.325659,0.118421,0.133224,300.000000,267.000000,33.000000,12.000000,0.000000,0.000000:
00000000
00000000
00000000
00000000
,
00000000
00000000
00000000
00000000
,
00000000
00000000
00000000
00000000
,
00000000
00000000
00000000
00000000
,
00000000
00000000
00000000
00000000
,
00000000
00000000
00000000
00000000
,
00010000
00000000
00001000
00000000
00000100
00000000
00000000
00000000
00000010
00000000
00000000
00001000
00000000
00000000
00000100
00000000
,
00000010
00000001
00000100
00001000
00010000
00001000
00010000
00100000
,
00000000
01000000
01100000
00000000
20200000
00000000
00000000
00000000
,
00000000
30300000
00000000
11000000
,
00110000
00000000
00000000
00000000
00100000
00001000
00100000
00000000
00001000
00000000
00000000
00000000
00010000
00000000
00000100
00000000
,
00000010
00000000
00000100
00001000
00000010
00000100
00000101
00000000
,
00000000
00000010
00000100
00010000
01000000
00010000
00100000
01000000
,
10000000
00010000
10000000
00000000
01000000
00000000
00100000
00000000
00001000
00000000
00010000
00000000
00011000
00000000
00000000
00000000
,
01001000
00000000
00010100
00000000
00010000
00000010
00001000
00000100
,
00000010
00000001
00000010
00000000
00000001
00000000
00001000
00000000
00000100
00000000
00010000
00000000
00011000
00000000
00000000
00000000
,
00000000
00001000
01000000
00100000
01000000
00010000
10000000
00000000
,
10100000
00000000
01010000
00000000
00011000
00010000
00001000
00000100
,
00000010
00002002
00000000
00000000
,
00000000
00000000
00000000
00000000
00003003
00000000
00000000
00000000
00000000
00000000
00000010
00000000
00000000
00000100
00000000
00000000
,
00010000
00000000
00000100
00010000
01000000
10000000
01000000
00100000
,
10000000
00000000
01000000
00000000
00100000
00000000
00010000
00000000
00001000
00000000
00000100
00000000
00000000
00000010
00000000
00000000
,
00000001
00002002
00000000
00000000
,
00000000
00000000
00000000
00000000
00003003
00000000
00000000
00000000
00000000
00000000
00000100
00000000
00000000
00010000
00000000
00000000
,
00001000
00000000
00100000
01000000
10000000
00000000
00100000
01000000
,
00010000
00000000
01000000
00001000
00010000
00000000
00000000
00001000
,
00010000
00011000
00000000
00010000
00000100
00010100
00000000
00000100
,
00001000
00001100
00000000
00001000
00001001
00000000
00000110
00000000
,
00000000
00000000
00000010
00001000
00000000
00001000
00000100
00000000
00010000
00000000
00000000
00001000
00000000
00000000
01000000
00000000
,
00010000
00000000
00000000
01000000
00000000
00000000
00100000
00000000
10000000
00000000
01000000
00000000
00010000
00000000
01000000
00000000
,
10000000
00000000
00100000
10000000
00000000
00010000
00000000
00100000
,
01000000
00010000
00001000
00000010
00000100
00001000
00000010
00000000
,
00000202
00000000
00000000
00000000
00000303
00000000
00000000
00000000
00000001
00000000
00000000
00000100
00000000
00000000
00000010
00000000
,
00001000
00000000
00000000
00010000
00000000
00000000
01000000
00000000
00100000
00000000
10000000
00000000
00100000
00000000
01000000
00000000
,
02200000
00000000
00000000
00000000
,
00000000
00000000
00000000
00000000
03300000
00000000
00000000
00010000
,
10000000
00000000
00000000
01000000
00000000
00000000
00010000
00000000
00000000
00001000
00000000
00000000
00000100
00000000
00000100
00000000
,
00000010
00000000
00000000
00001000
00000000
00000000
00000001
00000000
00000000
00000100
00000000
00000000
00000001
00000000
00000001
00000000
,
00001000
00000000
00000000
00000100
00000000
00000000
00010000
00000000
00000000
00001000
00000000
00000000
01000000
00000000
01000000
00000000
,
00100000
00000000
00000000
10000000
00000000
00000000
01000000
00000000
00000000
00100000
00000000
00000000
00010000
00000000
00000000
00000000
,
00100000
00010000
01000000
00000000
00001000
00010000
00000100
00001000
,
00001100
00001000
00000001
00000000
00000010
00000001
00000100
00000001
,
00000011
00000000
00000000
00001000
00001100
00000000
00000000
00010000
,
00011000
00001000
01001000
01000000
01010000
00010000
10010000
10000000
,
00100000
00000000
10000000
01000000
00000000
01000000
00100000
00000000
00000000
00000000
00010000
00100000
01000000
00000000
00100000
00000000
,
00010000
00000000
00000000
00001000
00000000
00000000
00000100
00000000
00000010
00000000
00000100
00000000
00000010
00000000
00000001
00000000
,
00000010
00000000
00000001
00000100
00000000
00000010
00000000
00010000
,
00001000
00100000
00010000
10000000
01000000
00100000
00010000
00000000
,
20020000
00000000
00000000
00000000
30030000
00000000
00000000
00000000
00010000
00000000
00000000
10000000
00000000
00000000
10000000
00000000
,
01000000
00000000
00000000
00100000
00000000
00000000
00010000
00000000
10000000
00000000
01000000
00000000
00010000
00000000
00001000
00000000
,
00000010
00000001
00000100
00001000
00010000
00001000
00010000
00100000
,
10000000
01000000
00100000
00010000
00001000
00000100
00000010
00000001
,
00001000
00001100
00000000
00000000
00000000
00000000
00000000
00010000
,
00001000
00011000
00000000
00100000
00110000
00000000
10010000
00000000
;

//---------------dance-single - ----------------
#NOTES:
     dance-single:
     :
     Challenge:
     14:
     0.689382,0.702387,0.592107,0.236843,0.463817,489.000000,429.000000,60.000000,24.000000,0.000000,0.000000,0.689382,0.702387,0.592107,0.236843,0.463817,489.000000,429.000000,60.000000,24.000000,0.000000,0.000000:
0000
0000
0000
0000
,
0000
0000
0000
0000
,
0000
0000
0000
0000
,
0000
0000
0000
0000
,
0010
0001
0100
0000
0010
1000
0100
0000
,
0010
0000
0001
0000
0100
0000
0001
0000
1000
0000
0010
1000
0000
0100
1000
0000
,
1001
0000
1100
0000
0101
0000
0100
0000
0010
0000
0000
1000
0001
0000
0010
0000
,
0001
0100
0010
1000
0100
0010
0001
1000
,
0010
1000
1100
0001
0101
0100
0010
1000
,
0100
0000
0010
0000
0100
0000
1000
0000
0001
1000
0001
1000
0001
0010
0100
0010
,
0001
0000
0000
1000
0100
1000
0100
0000
0110
0000
0000
0000
0010
0001
0010
0001
,
0010
0000
0001
0100
1000
0100
0001
0000
1000
0000
1010
0000
0101
0000
0000
0000
,
0000
1000
0000
0001
0100
0000
0100
0000
0010
1000
0001
0000
0010
0000
1001
0000
,
0010
0100
0010
0100
0010
0000
1000
0001
1000
0001
1000
0100
0010
0000
0001
0000
,
0000
0000
1000
0100
1000
0001
0100
0001
0000
0000
0010
0000
0010
0001
0010
0100
,
1000
0010
1000
0010
0100
0001
0100
0001
0010
0000
0110
0000
2100
0000
0000
0000
,
3002
0000
0100
0000
0103
0000
0001
0000
1000
0010
1000
0010
1000
0000
0001
0000
,
0011
0000
0000
0000
1000
0001
0000
0000
1000
0100
0010
0100
0010
0000
0001
0000
,
1001
0000
0100
0000
0110
0000
0000
0010
1000
0000
0001
0000
1000
0000
0100
0000
,
0010
0000
0001
0000
0100
0000
0010
0000
1000
0000
1100
0000
0000
0011
0000
0000
,
1001
0000
1000
0000
0100
0000
0010
0000
0001
0100
0001
0100
0000
0010
1000
0010
,
1000
0000
0001
0000
0100
0000
0001
1000
0000
0000
1010
0000
0000
0110
0000
0000
,
0101
0000
0010
0000
1100
0000
0000
1000
0001
0000
0010
0000
0100
0000
1000
0000
,
0010
0000
0100
0000
0001
0000
1000
0000
0100
0000
0110
0000
0000
0011
0000
0000
,
1001
0010
1000
0100
1000
0001
0100
0010
,
1000
0001
0010
0001
0100
0010
1000
1100
,
0110
0110
0000
0011
1001
1001
0000
1010
,
1010
1100
0000
0011
0101
0000
1001
0000
,
0010
0000
1000
0100
0000
1000
0100
0000
0020
0000
0000
0032
0000
0000
0203
0000
,
0320
0000
0000
2030
0000
0000
3200
0000
1000
0000
1300
0000
0001
0010
0001
0000
,
0100
0001
0010
1000
0010
0001
0100
1000
,
0100
0000
0001
0000
0010
0000
0100
0000
1000
0000
0010
0100
0000
0001
1000
0000
,
1100
0000
1001
0000
0101
0000
0001
0010
0100
0000
1000
0010
0000
0100
0001
0000
,
0020
0000
0000
0032
0000
0000
2003
0000
0100
0000
3100
0000
1000
0001
0010
0000
,
0200
0010
0010
0001
0001
1000
1300
0100
,
1000
0000
0001
0000
1000
0000
0100
0000
0010
0001
0010
0001
0010
0100
1000
0100
,
1000
0001
0000
1000
0001
0000
1000
0001
0000
1000
0001
0000
0100
0000
0100
0000
,
0001
1000
0000
0001
1000
0000
0001
1000
0000
0001
1000
0000
0010
0000
0010
0000
,
0100
0010
0000
0100
0010
0000
0100
0010
0000
0100
0010
0000
1000
0000
1000
0000
,
0010
0100
0000
0010
0100
0000
0010
0100
0000
0010
0100
0000
0001
0000
0001
0000
,
2010
0000
0000
0000
3001
0000
1000
0100
0000
1000
0001
0000
0100
0000
0010
0000
,
0120
0000
0000
0000
1030
0000
0010
1000
0000
0001
0100
0000
0001
0000
0010
0000
,
0201
0010
0310
1000
1002
0100
0103
0001
,
0011
0001
0101
0100
0110
0010
1010
1000
,
1001
0000
0001
0010
0000
0100
1000
0000
0000
0000
0001
0100
0001
0000
1000
0100
,
2000
0000
0000
3020
0000
0000
0230
0000
0001
0000
0301
0000
0100
0010
1000
0000
,
0010
0001
0010
1000
0100
0001
0100
1000
,
0010
0000
0100
0000
0001
0000
0010
0000
0100
0000
1000
0001
0000
1000
0001
0000
,
0011
0000
0110
0000
1100
0000
1000
0010
0100
0000
0010
1000
0000
0001
0100
0000
,
0002
0000
0000
0023
0000
0000
0230
0000
1000
0000
1300
0000
0010
0100
0001
0000
,
1000
1000
0100
0100
0010
0010
0001
0001
,
0010
0001
0100
0001
1000
0100
1000
0010
,
0110
1001
0000
0000
1100
0000
0000
0011
,
0101
1010
0000
1100
0011
0000
2002
0000
,
0000
0000
0000
3003
;

//---------------dance-single - ----------------
#NOTES:
     dance-single:
     :
     Easy:
     6:
     0.248121,0.422370,0.266448,0.098685,0.000000,176.000000,149.000000,27.000000,10.000000,0.000000,0.000000,0.248121,0.422370,0.266448,0.098685,0.000000,176.000000,149.000000,27.000000,10.000000,0.000000,0.000000:
// measure 0
0000
0000
0000
0000
,  // measure 1
0000
0000
0000
0000
,  // measure 2
0000
0000
0000
0000
,  // measure 3
0000
0000
0000
0000
,  // measure 4
0000
0000
0000
0000
,  // measure 5
0000
0000
0000
0000
,  // measure 6
1000
0001
0010
0100
,  // measure 7
0010
0001
0100
0010
,  // measure 8
1000
0020
0200
0000
,  // measure 9
0000
0000
0000
0330
,  // measure 10
1001
0100
1001
0100
,  // measure 11
1000
0010
0100
0001
,  // measure 12
0000
0011
1000
0001
,  // measure 13
0100
0010
1000
1000
,  // measure 14
0000
1100
1000
0010
,  // measure 15
0100
0010
1000
0001
,  // measure 16
0000
0101
0010
0100
,  // measure 17
0001
0010
0100
1000
,  // measure 18
2002
0000
0000
0000
,  // measure 19
0000
0000
0000
3003
,  // measure 20
0001
1000
0100
0100
,  // measure 21
1000
0001
0100
0100
,  // measure 22
0220
0000
0000
0000
,  // measure 23
0000
0000
0000
0330
,  // measure 24
0010
1000
0001
0001
,  // measure 25
0010
0001
1000
1000
,  // measure 26
1100
0000
0101
0000
,  // measure 27
1100
0000
0101
0000
,  // measure 28
1001
1000
0100
0010
,  // measure 29
0001
0100
0010
1000
,  // measure 30
0002
0000
1000
0103
,  // measure 31
1000
0010
0100
0001
,  // measure 32
0010
1001
1000
0100
,  // measure 33
1000
0010
0100
0001
,  // measure 34
2000
0000
0000
0000
,  // measure 35
0010
0010
0100
3100
,  // measure 36
1000
0100
1000
1000
,  // measure 37
0001
0100
0001
0000
,  // measure 38
0010
0001
0100
0100
,  // measure 39
0010
1000
0100
0000
,  // measure 40
1100
0001
1000
0100
,  // measure 41
0011
1000
0001
0010
,  // measure 42
0101
1000
1010
0001
,  // measure 43
1001
0110
1001
0110
,  // measure 44
1001
0000
0000
0000
,  // measure 45
0010
0010
1000
0001
,  // measure 46
0200
0000
0010
0301
,  // measure 47
0100
0001
0010
0100
,  // measure 48
1000
0110
0001
1000
,  // measure 49
0010
0100
0001
1000
,  // measure 50
0020
0000
0000
0000
,  // measure 51
0100
1000
0100
1030
,  // measure 52
1010
0000
0011
0000
,  // measure 53
1100
0000
0101
0000
;
