#VERSION:0.83;
#TITLE:GIRIGILI門前雀羅;
#SUBTITLE:;
#ARTIST:Cheki-ROWS;
#TITLETRANSLIT:GIRIGILI Burning 24H!;
#SUBTITLETRANSLIT:;
#ARTISTTRANSLIT:;
#GENRE:;
#ORIGIN:;
#CREDIT:;
#BANNER:GIRIGILI Burning 24H!.png;
#BACKGROUND:GIRIGILI Burning 24H!-bg.png;
#PREVIEWVID:;
#JACKET:GIRIGILI Burning 24H!-jacket.png;
#CDIMAGE:;
#DISCIMAGE:;
#LYRICSPATH:;
#CDTITLE:;
#MUSIC:GIRIGILI Burning 24H!.ogg;
#OFFSET:0.000000;
#SAMPLESTART:27.570000;
#SAMPLELENGTH:20.000000;
#SELECTABLE:YES;
#DISPLAYBPM:148.000000;
#BPMS:0.000=148.148,
4.000=147.997,
155.500=147.702,
163.000=147.810,
167.500=150.000,
168.000=148.080;
#STOPS:155.500=0.200,
163.000=0.200,
167.500=0.200,
168.000=0.207;
#DELAYS:;
#WARPS:;
#TIMESIGNATURES:0.000=4=4;
#TICKCOUNTS:0.000=4;
#COMBOS:0.000=1;
#SPEEDS:0.000=1.000=0.000=0;
#SCROLLS:0.000=1.000;
#FAKES:;
#LABELS:0.000=Song Start;
#BGCHANGES:;
#KEYSOUNDS:;
#ATTACKS:
;

//---------------dance-single - ----------------
#NOTEDATA:;
#CHARTNAME:;
#STEPSTYPE:dance-single;
#DESCRIPTION:;
#CHARTSTYLE:;
#DIFFICULTY:Beginner;
#METER:4;
#RADARVALUES:0.122188,0.179307,0.020610,0.000000,0.000000,83.000000,81.000000,2.000000,0.000000,0.000000,0.000000,0.000000,0.000000,0.000000,0.122188,0.179307,0.020610,0.000000,0.000000,83.000000,81.000000,2.000000,0.000000,0.000000,0.000000,0.000000,0.000000,0.000000;
#CREDIT:;
#DISPLAYBPM:148.000000;
#NOTES:
0000
0000
0000
0000
,
0000
0000
0000
0000
,
0000
0000
0000
0000
,
0001
0000
0000
0000
,
0001
0000
0000
0000
,
1000
0000
0000
0000
,
1000
0000
0000
0000
,
0100
0000
0010
0000
,
0100
0000
0000
0000
,
1000
0000
1000
0000
,
0100
0000
0000
0000
,
0001
0000
0001
0000
,
0010
0000
0000
0000
,
1000
0000
1000
0000
,
0100
0000
0010
0000
,
0001
0000
0001
0000
,
0010
0000
0100
0000
,
0010
0000
0000
0000
,
0100
0100
0000
0000
,
1000
0000
0001
0000
,
1000
0000
0000
0000
,
0010
0000
0000
0000
,
0100
0100
0000
0000
,
0001
0000
0100
0000
,
0010
0000
0000
0000
,
0001
0000
0100
0000
,
0010
0000
0000
0000
,
1000
0000
0100
0000
,
0010
0000
0000
0000
,
0001
0000
1000
0000
,
0100
0000
0000
0000
,
0010
0000
0100
0000
,
1000
1000
1000
0000
,
0001
0000
0000
0000
,
1000
0000
0000
0000
,
1001
0000
0000
0000
,
0110
0000
0000
0000
,
0100
0000
0010
0000
,
0100
0000
0100
0000
,
0000
0000
0000
0000
0000
0000
0000
0010
,
0000
0000
0000
0000
,
0000
0000
0000
0100
,
0000
0000
0000
0000
,
0000
0000
0001
0000
,
0000
0000
1000
0000
,
0000
0000
0010
0000
,
0000
0000
0100
0000
,
0000
0001
0000
0010
,
0000
0100
0000
1000
,
0000
0100
0000
0010
,
0000
0010
0010
0000
,
0000
0000
0001
0000
,
0000
0000
0100
0000
,
0000
0000
1000
0000
,
0010
0000
1000
0000
,
0100
0000
0100
0000
,
0010
0000
0010
0000
,
0001
0000
0001
0000
,
1000
0000
0000
0000
,
0000
0000
0000
0000
;

//---------------dance-single - ----------------
#NOTEDATA:;
#CHARTNAME:;
#STEPSTYPE:dance-single;
#DESCRIPTION:;
#CHARTSTYLE:;
#DIFFICULTY:Easy;
#METER:5;
#RADARVALUES:0.263514,0.300134,0.092745,0.020610,0.000000,179.000000,170.000000,9.000000,2.000000,0.000000,0.000000,0.000000,0.000000,0.000000,0.263514,0.300134,0.092745,0.020610,0.000000,179.000000,170.000000,9.000000,2.000000,0.000000,0.000000,0.000000,0.000000,0.000000;
#CREDIT:;
#DISPLAYBPM:148.000000;
#NOTES:
0000
0000
0000
0000
,
0000
0000
0000
0000
,
0000
0000
0000
0000
,
1000
0000
1000
1000
,
0001
0000
0001
0001
,
0010
0000
0010
0010
,
0100
0000
0100
0100
,
1000
0001
1000
0100
,
0010
0100
0010
0100
,
1000
0000
0001
0100
,
0001
0001
1000
0000
,
0001
0000
0010
0100
,
0010
0010
1000
0000
,
0001
0000
1000
0010
,
1000
1000
0001
0000
,
1000
0000
0100
0010
,
0100
0100
1000
0001
,
2000
0000
3000
1000
,
0001
0001
0010
0100
,
1000
0000
0001
0000
,
1000
0001
0100
0010
,
0002
0000
0003
0001
,
1000
0100
0010
0001
,
1000
1000
0010
0100
,
0110
0000
0000
0000
,
1000
1001
0000
0000
,
0001
1001
0000
0000
,
0100
0110
0000
0000
,
0010
0110
0000
0000
,
1000
1001
0000
0000
,
0100
0110
0000
0000
,
0001
1001
0000
0000
,
0010
0110
0000
0000
,
1000
1000
0001
0001
,
1000
1000
0100
0100
,
0010
0000
0001
0000
,
1000
0100
1000
0010
,
0001
0000
0100
0000
,
0001
0001
1000
0001
,
1000
0100
0010
0100
,
1000
0010
0001
0000
,
1000
0001
0100
0010
,
0100
0000
0010
0000
,
1000
0000
0100
1000
,
0010
0001
0100
0000
,
0001
0000
1000
0100
,
0010
1000
0001
0001
,
0100
0100
0010
0010
,
1000
1000
0001
0001
,
1000
0001
0100
0010
,
1000
0100
0001
0000
,
1000
0000
0100
0000
,
0010
0100
1000
0000
,
0001
0000
0100
0000
,
0010
0100
0001
0001
,
1000
1000
0100
1000
,
0010
0100
0001
0001
,
1000
0001
0100
0100
,
0010
0100
0000
0000
,
0000
0000
0000
0000
;

//---------------dance-single - ----------------
#NOTEDATA:;
#CHARTNAME:;
#STEPSTYPE:dance-single;
#DESCRIPTION:;
#CHARTSTYLE:;
#DIFFICULTY:Medium;
#METER:7;
#RADARVALUES:0.393063,0.391011,0.123660,0.061830,0.000000,267.000000,255.000000,12.000000,6.000000,0.000000,0.000000,0.000000,0.000000,0.000000,0.393063,0.391011,0.123660,0.061830,0.000000,267.000000,255.000000,12.000000,6.000000,0.000000,0.000000,0.000000,0.000000,0.000000;
#CREDIT:;
#DISPLAYBPM:148.000000;
#NOTES:
0000
0000
0000
0000
,
0000
0000
0000
0000
,
0000
0000
0000
0000
,
1001
0000
1100
0000
,
1001
0000
0101
0000
,
1001
1000
0001
0001
,
1000
0001
0100
0010
,
0110
1000
0110
0001
,
1000
0000
0100
0000
1000
0100
1000
0100
,
0010
0000
0001
0100
0010
0000
1000
0000
,
0100
0000
1000
0020
0000
0000
0000
0030
,
0001
0000
0100
0000
0010
1000
0100
0000
,
0010
0001
0100
0000
1000
0000
0001
0000
,
0100
0000
1000
0010
0100
0000
0001
0000
,
0010
0000
0001
0200
0000
0000
0000
0300
,
0010
0000
1000
0000
0001
0100
0001
0000
,
0010
0000
1000
0000
0100
1000
0010
0100
,
0001
0000
1000
0000
0001
0100
0001
0000
,
1000
0000
0001
0000
1000
0100
1000
0000
,
0010
0010
0000
0000
0100
0100
0000
0000
,
0010
0010
0000
0000
0001
0001
0000
0000
,
1000
0000
0001
0100
0001
0000
1000
0000
,
0010
0100
0001
1000
,
0010
1000
0100
0000
0010
0001
0100
0000
,
1000
0000
0001
0000
1000
0001
1000
0001
,
1000
1000
0100
0000
0001
0000
0100
0000
,
0001
0001
0100
0000
0010
0000
1000
0000
,
0100
0100
0010
0000
1000
0000
0001
0000
,
1000
1000
0100
0000
0010
0000
0100
0000
,
0100
0100
0010
0000
0100
0100
0010
0000
,
0001
0001
0010
0000
0001
0001
0010
0000
,
1000
1000
0100
0000
1000
1000
0100
0000
,
1000
0000
0010
0000
0100
0001
0100
0001
,
0100
0001
0010
0100
,
1000
0100
0001
1001
,
1000
0000
0100
0000
1000
0100
0010
0000
,
0001
0000
1000
0000
0001
1000
0000
0000
,
0001
0000
1000
0000
0010
0100
0001
0000
,
1000
0001
0100
1000
0010
0000
0100
0000
,
1000
0001
1000
0010
,
0100
0000
0001
0000
0010
0001
0000
0000
,
1000
0000
0001
0100
0010
0000
1000
0000
,
0001
1000
0001
1000
0001
0000
0100
0000
,
0010
1000
0100
0000
1000
0000
0001
0000
,
1000
0001
0100
0000
0010
0000
1000
0000
,
0100
1000
0010
0000
0100
0000
0001
0000
,
0100
0010
0100
0000
1000
0000
0100
0000
,
0001
0100
1000
0100
,
0001
0010
0100
0000
1000
0000
0010
0000
,
0001
0010
1000
0001
,
0100
0010
0100
0000
1001
0000
0000
0000
,
2000
3001
0110
0000
,
0200
0301
1001
0000
,
0020
1030
0110
0000
,
0200
0301
0010
0001
,
0010
1000
0001
0100
,
1000
0001
0100
0001
,
0100
1000
0001
1000
,
0001
0100
0001
0100
0000
0000
0000
0000
,
0000
0000
0000
0000
;

//---------------dance-single - ----------------
#NOTEDATA:;
#CHARTNAME:;
#STEPSTYPE:dance-single;
#DESCRIPTION:;
#CHARTSTYLE:;
#DIFFICULTY:Hard;
#METER:12;
#RADARVALUES:0.547639,0.541400,0.226711,0.041220,0.139118,372.000000,350.000000,22.000000,4.000000,0.000000,0.000000,0.000000,0.000000,0.000000,0.547639,0.541400,0.226711,0.041220,0.139118,372.000000,350.000000,22.000000,4.000000,0.000000,0.000000,0.000000,0.000000,0.000000;
#CREDIT:;
#DISPLAYBPM:148.000000;
#NOTES:
0000
0000
0000
0000
,
0000
0000
0000
0000
,
0000
0000
0000
0000
,
0010
0000
0001
0100
1000
0000
1000
0100
,
0010
0000
0010
1000
0100
0000
0010
0000
,
0100
0000
1000
0010
0100
0000
0010
0100
,
0001
0000
0001
0010
1000
0000
0001
0000
,
1000
0000
0001
1000
0100
0000
1000
0100
,
0010
0001
0100
0010
0001
0000
1001
0000
,
1000
0000
0010
0001
0100
0000
0001
1000
,
0100
0000
0010
0000
0100
0010
1000
0000
,
0001
0100
1000
0100
0001
0010
0100
1000
,
0001
0000
0100
0000
0001
0000
0000
1000
0001
0000
0100
0000
0010
0000
0100
0000
,
1000
0000
0001
0000
1000
0100
1000
0000
,
0001
0000
0010
0000
0001
0000
0000
0100
0010
0000
1000
0000
0100
0000
0000
0000
,
1000
1000
0010
0010
0100
0100
0001
0001
,
0010
0000
0010
0000
0001
0000
0001
0000
1000
0100
1000
0000
0100
0000
0010
0000
,
0001
0100
1000
0000
0000
0001
1000
0000
,
1000
0100
0001
0000
0000
1000
0001
0000
,
1010
1010
0000
0000
0011
0011
0000
0000
,
1000
0000
0010
0000
0100
0000
0000
0001
0000
0000
0010
0000
0001
0000
0010
0000
,
1000
0010
0100
0000
0000
0010
0110
0000
,
1001
0000
0110
0000
1001
0100
0100
0000
,
0001
0000
0100
0000
1000
0000
0001
0100
0001
0000
1000
0000
0100
0000
0010
0000
,
0100
0001
0100
0000
1000
0010
0100
0000
,
0001
0000
0010
0000
0001
0000
0000
1000
0010
0000
1000
0000
0010
0000
0000
0000
,
1000
0000
0100
0000
1000
0000
0000
0001
0100
0000
0001
0000
0100
0000
0000
0000
,
1000
0000
0100
0000
0001
0000
0000
1000
0010
0000
0100
0000
0010
0000
0000
0000
,
0001
0000
0100
0000
1000
0000
0000
0001
0010
0000
0100
0000
0010
0000
0000
0000
,
1000
0001
1000
0000
0001
1000
0100
1000
,
0001
0100
0010
0000
1000
0100
0100
0000
,
0100
0000
1000
0000
0010
0000
0000
1000
0100
0000
1000
0000
0010
0000
0000
0000
,
0100
1000
0100
0010
0100
0001
0100
0000
,
0100
0100
0100
0100
0001
0001
0100
0100
,
1000
1000
1000
1000
0010
0000
1001
0000
,
0001
0000
1000
0000
0010
0000
0000
0100
0000
0000
0001
0000
1000
0000
0000
0000
,
1000
0000
0100
0000
0010
0000
0000
0001
0000
0000
1000
0000
0100
0000
0000
0000
,
0001
0000
0010
0000
1000
0000
0000
0100
0000
0000
0001
0000
0010
0000
0000
0000
,
1000
0000
0100
0000
0001
0000
0000
0100
0000
0000
0010
0000
0010
0000
0000
0000
,
1100
1010
0011
0101
,
1100
0000
1001
0000
0010
0100
0000
1000
,
0100
0000
0001
0100
1000
0000
0010
0000
,
0100
0000
0001
0000
1000
0001
1000
0000
0001
0000
0100
0000
0010
0000
0000
0100
,
0010
0100
0001
0000
1000
0100
0010
0000
,
0010
0000
0001
0000
1000
0000
0000
0000
0100
0000
1000
0000
0001
0000
0000
1000
,
0010
1000
0100
0000
0001
0100
0010
0000
,
0010
0000
1000
0000
0001
0000
0000
0000
1000
0000
0100
0000
0100
0000
0000
0010
,
0000
0000
0100
0000
0100
0000
0000
0000
0001
0000
0100
0000
0100
0000
0000
0010
,
0000
0000
0100
0000
0100
0000
0000
0000
1000
0000
0010
0000
0010
0000
0000
0100
,
0000
0010
0010
0000
1001
0000
0110
0000
,
1000
0000
0001
0000
1000
0000
0000
0000
0012
0000
0000
0000
0103
0000
0000
1000
,
0100
0000
0010
0000
0100
0000
0000
0000
2010
0000
0000
0000
3001
0000
0000
1000
,
0100
0000
1000
0000
0001
0100
0000
0000
1002
0000
0000
0000
0103
0000
0000
1000
,
0010
0000
0100
0000
0010
0000
0000
0000
2001
0000
0000
0000
3100
0000
0000
0001
,
1000
0010
0100
0010
0001
1000
0100
0000
,
0100
0000
1000
0000
0010
0000
0000
0000
0010
0000
0100
0000
0001
0000
0000
0100
,
0001
1000
0100
0000
1000
0010
0001
0000
,
0001
0000
0010
0000
0100
0000
0000
0000
0100
0000
0001
0000
1000
0000
0000
0100
,
1000
0010
0100
1000
0000
0000
0000
0000
,
0000
0000
0000
0000
;

//---------------dance-double - ----------------
#NOTEDATA:;
#CHARTNAME:;
#STEPSTYPE:dance-double;
#DESCRIPTION:;
#CHARTSTYLE:;
#DIFFICULTY:Easy;
#METER:5;
#RADARVALUES:0.263514,0.300134,0.092745,0.020610,0.000000,179.000000,170.000000,9.000000,2.000000,0.000000,0.000000,0.000000,0.000000,0.000000,0.263514,0.300134,0.092745,0.020610,0.000000,179.000000,170.000000,9.000000,2.000000,0.000000,0.000000,0.000000,0.000000,0.000000;
#CREDIT:;
#DISPLAYBPM:148.000000;
#NOTES:
00000000
00000000
00000000
00000000
,
00000000
00000000
00000000
00000000
,
00000000
00000000
00000000
00000000
,
00000010
00000000
00001000
00001000
,
00000100
00000000
00010000
00010000
,
00001000
00000000
01000000
01000000
,
00100000
00000000
10000000
10000000
,
00010000
10000000
01000000
00100000
,
00010000
00100000
00010000
00100000
,
00001000
00000000
00010000
00001000
,
00000100
00000100
00000010
00000000
,
00001000
00000000
00000001
00001000
,
00000001
00000001
00000100
00000000
,
00001000
00000000
00010000
00001000
,
00010000
00010000
01000000
00000000
,
00100000
00000000
00010000
01000000
,
00100000
00100000
01000000
10000000
,
02000000
00000000
03000000
00100000
,
01000000
01000000
00010000
00100000
,
00001000
00000000
00010000
00000000
,
00000100
00000010
00000001
00001000
,
00000020
00000000
00000030
00000100
,
00000001
00000100
00000010
00001000
,
00010000
00010000
01000000
00100000
,
01100000
00000000
00000000
00000000
,
10000000
10010000
00000000
00000000
,
00100000
01100000
00000000
00000000
,
00001000
00011000
00000000
00000000
,
00010000
00011000
00000000
00000000
,
00000100
00000110
00000000
00000000
,
00001000
00001001
00000000
00000000
,
00000010
00000110
00000000
00000000
,
00001000
00011000
00000000
00000000
,
00001000
00001000
00010000
00010000
,
00100000
00100000
01000000
01000000
,
10000000
00000000
01000000
00000000
,
10000000
00010000
10000000
00100000
,
01000000
00000000
00001000
00000000
,
00010000
00010000
00001000
00010000
,
00001000
00000100
00000001
00000010
,
00000100
00000010
00000100
00000000
,
00010000
00001000
00100000
00010000
,
01000000
00000000
00100000
00000000
,
10000000
00000000
00100000
10000000
,
01000000
00010000
00001000
00000000
,
00010000
00000000
00001000
00000100
,
00001000
00000100
00000010
00000010
,
00001000
00001000
00000100
00000100
,
00000001
00000001
00000100
00000100
,
00010000
00001000
00100000
00010000
,
01000000
10000000
01000000
00000000
,
00100000
00000000
01000000
00000000
,
00001000
00010000
00001000
00000000
,
00000100
00000000
00000010
00000000
,
00000100
00000001
00001000
00001000
,
00000010
00000010
00000100
00001000
,
00010000
00100000
01000000
01000000
,
00100000
10000000
00010000
00010000
,
01000000
00010000
00000000
00000000
,
00000000
00000000
00000000
00000000
;

//---------------dance-double - ----------------
#NOTEDATA:;
#CHARTNAME:;
#STEPSTYPE:dance-double;
#DESCRIPTION:;
#CHARTSTYLE:;
#DIFFICULTY:Medium;
#METER:8;
#RADARVALUES:0.393063,0.391011,0.123660,0.061830,0.000000,267.000000,255.000000,12.000000,6.000000,0.000000,0.000000,0.000000,0.000000,0.000000,0.393063,0.391011,0.123660,0.061830,0.000000,267.000000,255.000000,12.000000,6.000000,0.000000,0.000000,0.000000,0.000000,0.000000;
#CREDIT:;
#DISPLAYBPM:148.000000;
#NOTES:
00000000
00000000
00000000
00000000
,
00000000
00000000
00000000
00000000
,
00000000
00000000
00000000
00000000
,
00001001
00000000
00001100
00000000
,
00011000
00000000
00110000
00000000
,
01100000
00100000
01000000
01000000
,
00010000
10000000
01000000
00100000
,
00110000
00010000
00011000
00001000
,
00010000
00000000
00001000
00000000
00000100
00000010
00000100
00000010
,
00001000
00000000
00000100
00001000
00000001
00000000
00000010
00000000
,
00000100
00000000
00000010
00000200
00000000
00000000
00000000
00000300
,
00010000
00000000
00001000
00000000
00000100
00001000
01000000
00000000
,
00100000
01000000
00010000
00000000
00100000
00000000
01000000
00000000
,
10000000
00000000
00100000
10000000
00010000
00000000
00100000
00000000
,
00001000
00000000
00010000
00002000
00000000
00000000
00000000
00003000
,
00010000
00000000
00000100
00000000
00001000
00000010
00001000
00000000
,
00000100
00000000
00001000
00000000
00000001
00000010
00000100
00001000
,
00000100
00000000
00010000
00000000
00001000
00010000
00001000
00000000
,
00010000
00000000
01000000
00000000
10000000
00100000
10000000
00000000
,
00010000
00010000
00000000
00000000
00100000
00100000
00000000
00000000
,
00001000
00001000
00000000
00000000
00000100
00000100
00000000
00000000
,
00000010
00000000
00001000
00000100
00001000
00000000
00000001
00000000
,
00000100
00001000
00010000
00100000
,
01000000
00010000
10000000
00000000
10000000
00100000
01000000
00000000
,
00010000
00000000
00100000
00000000
00001000
00010000
00001000
00010000
,
00001000
00001000
00010000
00000000
00000100
00000000
00000010
00000000
,
00000100
00000100
00001000
00000000
00000010
00000000
00000100
00000000
,
00000001
00000001
00000010
00000000
00000001
00000000
00001000
00000000
,
00000100
00000100
00001000
00000000
00000010
00000000
00000100
00000000
,
00010000
00010000
01000000
00000000
00010000
00010000
01000000
00000000
,
00100000
00100000
10000000
00000000
00100000
00100000
10000000
00000000
,
01000000
01000000
00100000
00000000
01000000
01000000
00100000
00000000
,
00010000
00000000
00100000
00000000
00001000
00000100
00001000
00000100
,
00001000
00000100
00000001
00000010
,
00000100
00000010
00000001
00001001
,
00001000
00000000
00000010
00000000
00000100
00010000
01000000
00000000
,
00100000
00000000
10000000
00000000
01000000
10000000
00000000
00000000
,
01000000
00000000
00100000
00000000
00010000
00001000
00000100
00000000
,
00000010
00000001
00000100
00000010
00001000
00000000
00000100
00000000
,
00010000
00001000
00010000
00001000
,
00000100
00000000
00000010
00000000
00010000
00001000
00000000
00000000
,
00010000
00000000
01000000
00100000
00010000
00000000
10000000
00000000
,
00100000
01000000
00100000
01000000
00100000
00000000
10000000
00000000
,
01000000
00010000
00001000
00000000
00000100
00000000
00000001
00000000
,
00000010
00000001
00000100
00000000
00000010
00000000
00000100
00000000
,
00000001
00000010
00001000
00000000
00010000
00000000
00001000
00000000
,
00000100
00000010
00000100
00000000
00001000
00000000
00010000
00000000
,
00100000
01000000
00010000
00100000
,
01000000
10000000
01000000
00000000
10000000
00000000
00100000
00000000
,
01000000
00010000
00100000
00001000
,
00010000
00001000
00010000
00000000
00011000
00000000
00000000
00000000
,
00002000
00013000
00001100
00000000
,
00000200
00001300
00000110
00000000
,
00000020
00000031
00001001
00000000
,
00000200
00001300
00000100
00010000
,
00001000
00010000
00001000
01000000
,
00100000
01000000
00010000
00100000
,
01000000
10000000
00100000
01000000
,
00010000
00100000
00010000
00100000
00000000
00000000
00000000
00000000
,
00000000
00000000
00000000
00000000
;

//---------------dance-double - ----------------
#NOTEDATA:;
#CHARTNAME:;
#STEPSTYPE:dance-double;
#DESCRIPTION:;
#CHARTSTYLE:;
#DIFFICULTY:Hard;
#METER:12;
#RADARVALUES:0.544694,0.541400,0.226711,0.041220,0.133965,370.000000,348.000000,22.000000,4.000000,0.000000,0.000000,0.000000,0.000000,0.000000,0.544694,0.541400,0.226711,0.041220,0.133965,370.000000,348.000000,22.000000,4.000000,0.000000,0.000000,0.000000,0.000000,0.000000;
#CREDIT:;
#DISPLAYBPM:148.000000;
#NOTES:
00000000
00000000
00000000
00000000
,
00000000
00000000
00000000
00000000
,
00000000
00000000
00000000
00000000
,
00000100
00000000
00000010
00000100
00001000
00000000
00001000
00000100
,
00000001
00000000
00000001
00000010
00000100
00000000
00010000
00000000
,
00001000
00000000
00010000
00001000
00000100
00000000
00001000
00010000
,
01000000
00000000
00100000
00010000
01000000
00000000
00100000
00000000
,
01000000
00000000
10000000
01000000
00010000
00000000
00100000
00001000
,
00010000
00000100
00001000
00000010
00000100
00000000
00001001
00000000
,
00000010
00000000
00000100
00000001
00000010
00000000
00000001
00000100
,
01000000
00000000
00100000
00000000
10000000
01000000
00100000
00000000
,
10000000
00100000
00010000
00100000
10000000
01000000
00100000
00001000
,
00010000
00000000
00001000
00000000
00010000
00000000
00000000
00000010
00000100
00000000
00000001
00000000
00000010
00000000
00000001
00000000
,
00001000
00000000
00000100
00000000
00000010
00000001
00000010
00000000
,
00000100
00000000
00010000
00000000
00000100
00000000
00000000
00001000
00000010
00000000
00000100
00000000
00010000
00000000
00000000
00000000
,
01000000
01000000
00100000
00100000
01000000
01000000
00010000
00010000
,
00100000
00000000
00100000
00000000
01000000
00000000
01000000
00000000
10000000
00010000
10000000
00000000
00100000
00000000
01000000
00000000
,
00010000
00100000
00001000
00000000
00000000
00010000
00001000
00000000
,
00000100
00000010
00000100
00000000
00000000
00000001
00000010
00000000
,
00000110
00000110
00000000
00000000
00001100
00001100
00000000
00000000
,
00010000
00000000
00001000
00000000
00000010
00000000
00000000
00000100
00000000
00000000
00010000
00000000
00001000
00000000
01000000
00000000
,
00100000
01000000
00010000
00000000
00000000
01000000
01010000
00000000
,
10100000
00000000
11000000
00000000
01010000
00010000
00010000
00000000
,
00100000
00000000
00001000
00000000
00100000
00000000
00001000
00010000
00001000
00000000
00000000
00000000
00000100
00000000
00000010
00000000
,
00000100
00000001
00000010
00000000
00000100
00000010
00000001
00000000
,
00001000
00000000
00000100
00000000
00001000
00000000
00000000
00000010
00000100
00000000
00000010
00000000
00000100
00000000
00000000
00000000
,
00001000
00000000
00010000
00000000
00001000
00000000
00000000
00100000
00010000
00000000
00100000
00000000
00010000
00000000
00000000
00000000
,
00100000
00000000
00010000
00000000
01000000
00000000
00000000
00100000
10000000
00000000
00010000
00000000
01000000
00000000
00000000
00000000
,
00100000
00000000
10000000
00000000
01000000
00000000
00000000
00100000
00001000
00000000
00010000
00000000
00001000
00000000
00000000
00000000
,
00000100
00000001
00000100
00000000
00000010
00000100
00000001
00000100
,
00000001
00000010
00000100
00000000
00001000
00000010
00000010
00000000
,
00000100
00000000
00001000
00000000
00010000
00000000
00000000
00001000
00010000
00000000
00001000
00000000
00000100
00000000
00000000
00000000
,
00010000
00001000
00100000
00010000
10000000
00100000
00010000
00000000
,
00100000
00100000
00100000
00100000
10000000
10000000
01000000
01000000
,
00100000
00100000
00100000
00100000
00010000
00000000
00011000
00000000
,
00001000
00000000
00010000
00000000
00100000
00000000
00000000
01000000
00000000
00000000
00010000
00000000
00100000
00000000
00000000
00000000
,
00001000
00000000
00010000
00000000
00000100
00000000
00000000
00000010
00000000
00000000
00000100
00000000
00001000
00000000
00000000
00000000
,
00000010
00000000
00000100
00000000
00000001
00000000
00000000
00001000
00000000
00000000
00000001
00000000
00000100
00000000
00000000
00000000
,
00000001
00000000
00000010
00000000
00000100
00000000
00000000
00010000
00000000
00000000
00001000
00000000
00001000
00000000
00000000
00000000
,
00011000
00001010
01010000
00110000
,
10100000
00000000
11000000
00000000
10000000
00100000
00000000
01000000
,
00100000
00000000
10000000
01000000
00010000
00000000
00001000
00000000
,
00010000
00000000
00001000
00000000
00000100
00000001
00000100
00000000
00000001
00000000
00000010
00000000
00000001
00000000
00000000
00000100
,
00000001
00000010
00000100
00000000
00010000
00001000
00010000
00000000
,
00001000
00000000
01000000
00000000
00100000
00000000
00000000
00000000
01000000
00000000
00010000
00000000
10000000
00000000
00000000
00100000
,
01000000
00010000
00100000
00000000
10000000
01000000
00100000
00000000
,
00100000
00000000
00001000
00000000
00010000
00000000
00000000
00000000
00001000
00000000
00100000
00000000
00100000
00000000
00000000
00001000
,
00000000
00000000
00000100
00000000
00000100
00000000
00000000
00000000
00000010
00000000
00000100
00000000
00000100
00000000
00000000
00000001
,
00000000
00000000
00001000
00000000
00001000
00000000
00000000
00000000
00000010
00000000
00000100
00000000
00000100
00000000
00000000
00010000
,
00000000
01000000
01000000
00000000
00110000
00000000
10100000
00000000
,
00100000
00000000
00010000
00000000
00100000
00000000
00000000
00000000
20100000
00000000
00000000
00000000
31000000
00000000
00000000
10000000
,
00100000
00000000
01000000
00000000
00100000
00000000
00000000
00000000
00120000
00000000
00000000
00000000
01030000
00000000
00000000
00001000
,
00010000
00000000
00000100
00000000
00001000
00000000
00000000
00000000
00000120
00000000
00000000
00000000
00001030
00000000
00000000
00000001
,
00000010
00000000
00000100
00000000
00000010
00000000
00000000
00000000
00001200
00000000
00000000
00000000
00010300
00000000
00000000
00000010
,
00000100
00001000
01000000
00100000
10000000
01000000
00100000
00000000
,
00100000
00000000
00010000
00000000
01000000
00000000
00000000
00000000
01000000
00000000
00001000
00000000
00010000
00000000
00000000
00000100
,
00001000
00000100
00000010
00000000
00000001
00000010
00001000
00000000
,
00000010
00000000
00000100
00000000
00001000
00000000
00000000
00000000
00001000
00000000
00000010
00000000
00000100
00000000
00000000
00000001
,
00000100
00000010
00001000
00000100
00000000
00000000
00000000
00000000
,
00000000
00000000
00000000
00000000
;

//---------------dance-single - ----------------
#NOTEDATA:;
#CHARTNAME:;
#STEPSTYPE:dance-single;
#DESCRIPTION:;
#CHARTSTYLE:;
#DIFFICULTY:Challenge;
#METER:13;
#RADARVALUES:0.691909,0.751945,0.618302,0.020610,0.175185,470.000000,410.000000,60.000000,2.000000,0.000000,0.000000,0.000000,0.000000,0.000000,0.691909,0.751945,0.618302,0.020610,0.175185,470.000000,410.000000,60.000000,2.000000,0.000000,0.000000,0.000000,0.000000,0.000000;
#CREDIT:;
#DISPLAYBPM:148.000000;
#NOTES:
// measure 0
0000
0000
0000
0000
,  // measure 1
0000
0000
0000
0000
,  // measure 2
0000
0000
0000
0000
,  // measure 3
1001
0000
0100
0010
1010
0000
1000
0001
,  // measure 4
0011
0000
0001
0100
0110
0000
0010
0000
,  // measure 5
1010
0000
1000
0100
0110
0000
0010
0001
,  // measure 6
1001
0000
1000
0001
0101
0000
0100
0000
,  // measure 7
0110
0000
0010
1000
1100
0000
0001
0100
,  // measure 8
0010
0010
1000
1000
0001
0001
0100
0100
,  // measure 9
0001
0001
1000
0100
0010
0010
0001
0100
,  // measure 10
0010
0000
1000
0000
0100
0000
1000
0001
0000
0001
0100
0000
0010
0000
1000
0000
,  // measure 11
0000
0001
0001
0001
1000
0010
0100
0010
,  // measure 12
1000
0100
0010
0002
0000
0100
0100
0103
,  // measure 13
0000
0000
0001
0000
1000
0100
1000
0000
0010
0000
0010
0000
0000
0000
0100
0001
,  // measure 14
0100
0010
1000
0002
0000
0010
0010
0013
,  // measure 15
0000
0000
0001
1000
0001
0000
1000
0000
0100
0000
0010
0001
0010
0000
0100
0000
,  // measure 16
1000
0000
0010
0100
0010
0000
1000
0000
0001
0000
0100
0000
0010
0000
1000
0000
,  // measure 17
0000
1001
0100
1000
0010
0100
0001
0010
,  // measure 18
0100
1000
0010
0100
0010
1000
0001
0010
,  // measure 19
0011
0011
0000
0100
1010
1010
0000
0001
,  // measure 20
1000
0000
0010
0000
0100
0000
0001
0010
0000
0001
1000
0000
0010
0000
0100
0000
,  // measure 21
0001
1000
0100
0010
0001
0100
0010
0000
,  // measure 22
1010
0100
0001
0000
0101
0010
1000
0000
,  // measure 23
0100
0000
0100
0000
1100
0000
0000
0000
0001
1000
0001
0000
0100
0000
0010
0000
,  // measure 24
1000
0100
0010
0001
0100
0010
1000
0000
,  // measure 25
0100
0000
1000
0000
0001
0000
0000
0001
0100
0000
0010
0000
1000
0000
0000
0000
,  // measure 26
0001
0000
1000
0000
0010
0000
0000
0010
1000
0000
0100
0000
0001
0000
0000
0000
,  // measure 27
0010
0000
0001
0000
0100
0000
0000
0100
0001
0000
1000
0000
0010
0000
0000
0000
,  // measure 28
1000
1000
0001
0001
0100
0010
1001
0000
,  // measure 29
1001
0000
0100
0000
0010
0000
0000
0010
1000
0000
0100
0000
1000
0000
0001
0000
,  // measure 30
0010
0100
0010
0001
0100
0010
1000
0000
,  // measure 31
0001
0100
0010
0100
0001
1000
0010
1000
,  // measure 32
0001
0100
0001
0100
0001
0100
0001
0100
0001
0000
0101
0000
0101
0000
0000
0000
,  // measure 33
1000
1000
0001
0001
0100
0100
0010
0010
,  // measure 34
1000
1000
0001
0001
0010
0010
0100
0100
,  // measure 35
1000
0000
0010
0100
0010
0000
1000
0000
0100
0000
0001
0010
0001
0000
0100
0000
,  // measure 36
0010
0000
1000
0001
1000
0000
0010
0000
0100
0001
0100
0001
0100
0000
0000
0000
,  // measure 37
0110
0000
0000
0001
1000
0000
0100
0000
0010
0001
0010
0001
1000
0000
0010
0000
,  // measure 38
0100
0000
0001
1000
0001
0000
0010
0000
0100
1000
0100
1000
0010
0000
1001
0000
,  // measure 39
1100
0101
0011
1010
,  // measure 40
0110
0000
0000
0000
1001
0000
0000
0000
0001
1000
0100
0000
0001
0000
1000
0000
,  // measure 41
0010
0100
0010
0000
1000
0000
0001
0100
0001
0000
1000
0000
0010
0000
1100
0000
,  // measure 42
0101
0000
1000
0000
0010
0100
0010
0100
0001
0000
0010
0000
0100
0000
0010
0000
,  // measure 43
0001
0100
0010
1000
0100
0010
0001
1000
,  // measure 44
0001
0100
0010
1000
0100
0010
0001
1000
,  // measure 45
0010
0100
0010
1000
0100
0010
0100
0010
,  // measure 46
0001
0100
0010
1000
0001
0101
0101
1000
,  // measure 47
0001
1100
1100
0000
0010
1010
1010
0100
,  // measure 48
0010
0011
0011
0000
0001
1001
1001
0100
,  // measure 49
0010
0110
0110
0000
0101
0000
1010
0000
,  // measure 50
0001
1000
0010
0100
0110
0000
0010
1000
,  // measure 51
1100
0000
0001
0100
0101
0000
1000
0100
,  // measure 52
1100
0000
0001
0000
1010
0000
0001
1000
,  // measure 53
1100
0000
0010
0100
0110
0000
0100
0001
,  // measure 54
0101
0000
0010
0000
1001
0000
1000
0100
,  // measure 55
1100
0000
0010
0001
0101
0000
1000
0001
,  // measure 56
1100
0000
0100
0000
0011
0000
1000
0001
,  // measure 57
1010
0000
0010
0100
0001
0001
1000
1000
,  // measure 58
0010
0010
0100
0100
0000
0000
0000
0000
;
