#VERSION:0.83;
#TITLE:GIRIGILI Burning 24H! (JUMPSTREAM Special);
#SUBTITLE:;
#ARTIST:Cheki-ROWS;
#TITLETRANSLIT:;
#SUBTITLETRANSLIT:;
#ARTISTTRANSLIT:;
#GENRE:;
#ORIGIN:;
#CREDIT:;
#BANNER:GIRIGILI Burning 24H! (JUMPSTREAM Special)-bn.png;
#BACKGROUND:GIRIGILI Burning 24H! (JUMPSTREAM Special)-bg.png;
#PREVIEWVID:;
#JACKET:GIRIGILI Burning 24H! (JUMPSTREAM Special)-jacket.png;
#CDIMAGE:;
#DISCIMAGE:;
#LYRICSPATH:;
#CDTITLE:;
#MUSIC:GIRIGILI Burning 24H! (JUMPSTREAM Special).ogg;
#OFFSET:0.000000;
#SAMPLESTART:27.570000;
#SAMPLELENGTH:20.000000;
#SELECTABLE:YES;
#DISPLAYBPM:148.000000;
#BPMS:0.000=148.148,
4.000=147.997,
155.500=147.702,
162.500=147.810,
167.000=150.000,
167.500=148.080;
#STOPS:155.500=0.200,
162.500=0.200,
167.000=0.200,
167.500=0.207;
#DELAYS:;
#WARPS:;
#TIMESIGNATURES:0.000=4=4;
#TICKCOUNTS:0.000=4;
#COMBOS:0.000=1;
#SPEEDS:0.000=1.000=0.000=0;
#SCROLLS:0.000=1.000;
#FAKES:;
#LABELS:0.000=Song Start;
#BGCHANGES:;
#KEYSOUNDS:;
#ATTACKS:
;

//---------------dance-single - ----------------
#NOTEDATA:;
#CHARTNAME:;
#STEPSTYPE:dance-single;
#DESCRIPTION:;
#CHARTSTYLE:;
#DIFFICULTY:Challenge;
#METER:16;
#RADARVALUES:1.020198,1.033594,2.246496,0.051525,0.355523,693.000000,475.000000,218.000000,5.000000,0.000000,0.000000,0.000000,0.000000,0.000000,1.020198,1.033594,2.246496,0.051525,0.355523,693.000000,475.000000,218.000000,5.000000,0.000000,0.000000,0.000000,0.000000,0.000000;
#CREDIT:;
#DISPLAYBPM:148.000000;
#NOTES:
// measure 0
0000
0000
0000
0000
,  // measure 1
0000
0000
0000
0000
,  // measure 2
0000
0000
0000
0000
,  // measure 3
0000
0000
0000
0000
,  // measure 4
0000
0000
0000
0000
,  // measure 5
1010
0100
0010
0001
0011
0100
0001
1000
,  // measure 6
1100
0010
0001
1000
0101
0010
1000
0100
,  // measure 7
0110
0010
0001
0100
1001
0010
1000
0100
,  // measure 8
1100
1100
0011
0011
0101
0110
1010
1100
,  // measure 9
1001
0101
0001
1000
1010
1100
0010
0100
,  // measure 10
0110
0000
1010
0000
0010
0000
1000
0100
0000
1000
0001
0000
0011
0000
1010
0000
,  // measure 11
0000
0000
1001
0000
0010
0100
0010
0000
1010
0000
0110
0000
0101
0000
0001
0000
,  // measure 12
0011
1001
1010
0210
0000
0301
0011
1100
,  // measure 13
0000
0000
1001
0000
1000
0010
1000
0000
1100
0000
0101
0000
0001
0000
0100
0000
,  // measure 14
0110
1010
1100
1002
0000
0013
0011
0101
,  // measure 15
0000
0000
1000
0010
1000
0000
0010
0100
0010
0000
0100
0001
0100
0000
0001
1000
,  // measure 16
0001
0011
0011
1100
1100
0110
1001
1010
,  // measure 17
0000
0110
1010
0101
0011
1001
0110
0101
,  // measure 18
0011
1100
0011
0101
1010
1100
1001
0011
,  // measure 19
1001
0110
0000
0001
0110
1001
0000
0100
,  // measure 20
1010
0000
1010
0000
1010
0000
0001
0010
0000
0100
1000
0000
1100
0000
1100
0000
,  // measure 21
0011
1010
0101
1100
1001
0100
0110
0000
,  // measure 22
1010
0001
0101
0000
1100
0001
0011
0000
,  // measure 23
1001
0000
0110
0000
1001
0000
0001
0010
0100
0000
1000
0000
1100
0000
0011
0000
,  // measure 24
0101
0101
0011
0011
1100
1100
1010
1010
,  // measure 25
1001
0000
1100
0000
1001
0000
0001
0010
0001
0000
0101
0000
0110
0000
0000
0000
,  // measure 26
1010
0000
0110
0000
1010
0000
1000
0100
1000
0000
1001
0000
0011
0000
0000
0000
,  // measure 27
0101
0000
0110
0000
0101
0000
0001
1000
0001
0000
1010
0000
1100
0000
0000
0000
,  // measure 28
1010
0101
0011
1001
0110
1010
1100
0000
,  // measure 29
0011
0000
0101
0000
1001
0000
1000
0010
0100
0000
0110
0000
1010
0000
1100
0000
,  // measure 30
1010
0011
0110
1100
1001
0011
1001
0000
,  // measure 31
0110
0000
1001
0000
0110
0000
0001
0010
0001
0000
0011
0000
1100
0000
0110
0000
,  // measure 32
0001
0100
0001
0100
0010
1000
0010
1000
0100
0000
1100
0000
0101
0000
0000
0000
,  // measure 33
0011
0011
1100
1100
0101
0101
1010
1010
,  // measure 34
0011
1100
0110
0011
0101
1001
1010
0110
,  // measure 35
1001
0000
0010
0100
0001
0000
0010
0100
1000
0010
1000
0010
0100
0000
0001
1000
,  // measure 36
0000
1000
0100
1000
0010
0100
0001
1000
0001
0010
0001
0010
0000
0001
0100
0010
,  // measure 37
1000
0000
0000
0001
0010
0001
0100
0010
1000
0001
1000
0001
1000
0010
0100
0000
,  // measure 38
0001
0010
0100
0010
0001
0100
0010
1000
0001
0010
0100
1000
0001
0000
1010
0000
,  // measure 39
1100
0001
0011
0100
0110
0010
1010
1000
,  // measure 40
0011
0000
0010
0000
1001
0000
0100
0000
0001
1000
0100
0000
1100
0000
0101
0000
,  // measure 41
0001
0010
0100
0000
1000
0001
1000
0010
0100
0001
0010
0000
1001
0000
0110
0000
,  // measure 42
1000
0010
0100
0001
1000
0100
0010
0001
0100
0000
0101
0000
1010
0000
0101
0000
,  // measure 43
0011
0000
1100
0000
1001
0000
0101
0000
0012
0000
1000
0000
1003
0000
0001
0010
,  // measure 44
0001
0100
0010
1000
0010
0100
0001
1000
0001
0000
0011
0000
0110
0000
1100
0000
,  // measure 45
1001
0110
2010
0000
0001
3001
1000
0010
,  // measure 46
1000
0000
0100
0000
0110
0000
1001
0000
0010
0000
1010
0000
0101
0000
0001
0010
,  // measure 47
0100
0000
1100
0000
0011
0000
0100
0010
1000
0000
1001
0000
0110
0000
0010
0100
,  // measure 48
0001
0000
0011
0000
1010
0000
0100
0010
0001
0000
0101
0000
1100
0000
0010
1000
,  // measure 49
0001
0000
0110
0000
1001
0000
0010
0100
0010
0000
1010
0000
0101
0000
0010
0000
,  // measure 50
1001
0110
1010
1100
1001
0010
0100
0001
,  // measure 51
0011
1000
0001
0100
0110
0010
1000
0100
,  // measure 52
1100
0010
0001
1000
0101
0001
0010
0100
,  // measure 53
1100
1000
0001
0010
1001
0100
0010
1000
,  // measure 54
0011
0100
0001
1000
1010
0010
1000
0100
,  // measure 55
0110
0010
0001
1000
0101
0010
0100
0001
,  // measure 56
1100
0100
1000
0001
1001
1000
0010
0100
,  // measure 57
1010
0010
0100
0001
0011
0011
1100
1100
,  // measure 58
0010
0100
0010
0100
0001
1000
0001
1000
0200
0000
0000
0000
0000
0000
0000
0000
,  // measure 59
0300
0000
0000
0000
;
