#TITLE:GAME;
#SUBTITLE:;
#ARTIST:SLAKE;
#TITLETRANSLIT:;
#SUBTITLETRANSLIT:;
#ARTISTTRANSLIT:;
#GENRE:;
#CREDIT:;
#BANNER:GAME-bn.png;
#BACKGROUND:GAME-bg.png;
#LYRICSPATH:;
#CDTITLE:;
#MUSIC:GAME.ogg;
#OFFSET:0.000000;
#SAMPLESTART:24.686001;
#SAMPLELENGTH:20.000000;
#SELECTABLE:YES;
#DISPLAYBPM:95.000000:175.000000;
#BPMS:0.000000=175.000000
,204.000000=165.000000
,208.000000=135.000000
,212.000000=105.000000
,214.000000=95.000000
;
#STOPS:
;
#BGCHANGES:;
#KEYSOUNDS:;
#ATTACKS:;

//---------------dance-single - ----------------
#NOTES:
     dance-single:
     :
     Hard:
     13:
     0.746324,0.733326,0.401867,0.025927,0.550946,403.000000,372.000000,31.000000,2.000000,0.000000,0.000000,0.746324,0.733326,0.401867,0.025927,0.550946,403.000000,372.000000,31.000000,2.000000,0.000000,0.000000:
0000
0000
0000
0000
,
0000
0000
0000
0000
,
1000
0000
0010
0100
1010
0000
0001
0001
,
0000
0000
1000
0010
0110
0001
0000
0100
,
0100
0000
0010
1000
0101
0000
0001
0001
,
0000
0000
0010
0001
1001
0100
0000
1000
,
1000
0000
0000
0000
0001
0000
0000
1000
0010
0000
0100
0000
0001
0000
0000
0000
,
0010
0000
0000
0000
0100
0000
0000
0000
1000
0000
0001
0100
0001
0000
1000
0000
,
0001
0000
0000
0001
0100
0000
0000
0100
0010
0000
0000
0010
1000
0000
0000
1000
,
0010
0000
0000
0010
0100
0000
0000
0100
0001
1000
0001
1000
0001
1000
0001
1000
,
0100
0000
0010
0000
0001
0000
0000
1000
0000
0001
1000
0000
0010
0000
0000
0000
,
0100
0000
0010
0000
1000
0000
0000
0001
0000
0010
0001
0000
0100
0000
0000
0000
,
1000
0000
0001
0000
0010
0000
0000
0001
0000
0100
0001
0000
1000
0000
0010
0000
,
0010
0000
0001
0000
1000
0000
0000
0100
0000
0010
0100
0000
1000
0000
0000
0000
,
0001
0000
0100
0000
1000
0000
0000
0001
0000
0010
0001
0000
0100
0000
0000
0000
,
0010
0000
1000
0000
0100
0000
0000
1000
0000
0001
1000
0000
0010
0000
0000
0000
,
1000
0000
0100
0000
0010
0000
0000
0001
0000
1000
0001
0000
0100
0000
0010
0000
,
0010
0000
0000
1000
0001
0000
0100
0000
2002
0000
0000
0000
3003
0000
0000
0000
,
1010
0000
0000
0000
0011
0000
0000
1000
0100
1000
0100
0000
0010
0000
0000
0000
,
0001
0000
0000
1000
0010
0000
1100
0000
0000
0000
0001
0000
0001
0000
0000
0000
,
0010
0000
0001
0000
1000
0000
0000
0100
0000
1000
0100
0000
0010
0000
0000
0000
,
0001
0000
0010
0000
1000
0000
0000
0100
0000
0010
0100
0000
0001
0000
0000
0000
,
1100
0000
0000
0000
0101
0000
0000
0001
1000
0001
1000
0000
0010
0000
0000
0000
,
1000
0000
0000
0010
0100
0000
1010
0000
0000
0000
0001
0000
0001
0000
0000
0000
,
0010
0000
0001
0000
0100
0000
0000
1000
0000
0001
1000
0000
0010
0000
0100
0000
,
0001
0000
0100
0000
1000
0000
0000
0000
0010
0100
0010
0000
0110
0000
0000
0000
,
1001
0000
0000
0000
1100
0000
0000
0010
0100
0010
0100
0000
0001
0000
0000
0000
,
0010
0000
0000
0001
1000
0000
0011
0000
0000
0000
0100
0000
0100
0000
0000
0000
,
0010
0000
1000
0000
0001
0000
0000
1000
0100
1000
0100
0000
0010
0000
0000
0000
,
0001
0000
0100
0000
1000
0000
0000
0001
0010
0001
0010
0000
0100
0000
0000
0000
,
1100
0000
0000
0000
0011
0000
0000
1000
0001
1000
0001
0000
0010
0000
0000
0000
,
0100
0000
0000
0010
0001
0000
0110
0000
0000
0000
1000
0000
1000
0000
0000
0000
,
0001
0000
1000
0000
0100
0000
0000
0010
0100
0010
0100
0000
1000
0000
0001
0000
,
0010
0000
0001
0000
0100
0000
0000
0001
1000
0001
1000
0000
0100
0000
0000
0000
,
1000
0000
0001
0000
0010
0000
0000
0100
0000
1000
0001
0000
0100
0000
0000
0000
,
0001
0000
0010
0000
0100
0000
0000
1000
0000
0001
0010
0000
1000
0000
0000
0000
,
0001
0000
0100
0000
0010
0000
0000
0100
0000
0001
1000
0000
0010
0000
1000
0000
,
1000
0000
0001
0000
0010
0000
0000
0001
0000
1000
0100
0000
0010
0000
0000
0000
,
1000
0000
0100
0000
0010
0000
0000
0001
0000
1000
0010
0000
0100
0000
0000
0000
,
0001
0000
0010
0000
0100
0000
0000
0010
0000
1000
0001
0000
0100
0000
0000
0000
,
0001
0000
1000
0000
0100
0000
0000
1000
0000
0010
0100
0000
0001
0000
0000
0000
,
0110
0000
0000
0000
1001
0000
0000
0000
0000
0000
0001
0000
1000
0100
0000
0000
,
1010
0000
0000
0000
0110
0000
0000
0001
0100
0001
0100
0000
0010
0000
0000
0000
,
1000
0000
0000
0001
0010
0000
1001
0000
0001
0000
0100
0000
0100
0000
0000
0000
,
0010
0000
1000
0000
0001
0000
0000
1000
0100
1000
0100
0000
0010
0000
0000
0000
,
0100
0000
1000
0000
0001
0000
0000
0100
0010
0100
0010
0000
1000
0000
0000
0000
,
0101
0000
0000
0000
1010
0000
0000
1000
0001
1000
0001
0000
0100
0000
0000
0000
,
0001
0000
0000
1000
0010
0000
1100
0000
0001
0000
0100
0000
0100
0000
0000
0000
,
0010
0000
1000
0000
0100
0000
0000
1000
0001
1000
0001
0000
0100
0000
0010
0000
,
1000
0000
0001
0000
0010
0000
0000
0100
1000
0100
1000
0000
0001
0000
0000
0000
,
0010
0010
0010
0010
0010
0010
0010
0000
,
1001
0000
0001
0000
0100
0000
0000
0010
0000
1000
0100
0000
0010
0000
0001
0000
,
0101
0100
0010
1000
1100
0001
0100
0010
,
1010
0010
1000
0100
0011
0001
1000
0100
;

//---------------dance-single - ----------------
#NOTES:
     dance-single:
     :
     Medium:
     10:
     0.594467,0.592267,0.544465,0.077781,0.226860,321.000000,279.000000,42.000000,6.000000,0.000000,0.000000,0.594467,0.592267,0.544465,0.077781,0.226860,321.000000,279.000000,42.000000,6.000000,0.000000,0.000000:
0000
0000
0000
0000
,
0000
0000
0000
0000
,
1000
0000
0001
0000
1010
0000
0001
1000
,
0100
0000
0010
0000
1100
0001
0000
0000
,
0100
0000
0010
0000
0101
0000
0001
0100
,
1000
0000
0001
0000
0011
0100
0000
0000
,
1000
0000
0001
0000
0110
0000
0010
1000
,
0100
0000
0001
0000
1001
0010
0100
0000
,
1100
0101
1100
0101
,
0001
0000
0000
0001
1000
0000
0000
1000
0001
0000
0010
0000
0100
0000
1000
0000
,
0010
0000
1000
0000
0001
0000
0000
0100
0000
0000
0010
0000
1000
0000
0000
0000
,
0001
0000
0010
0000
0100
0000
0000
0010
0000
0000
0001
0000
1000
0000
0000
0000
,
0100
0000
1000
0000
0001
0000
0000
0100
0000
0000
0010
0000
1000
0000
0001
0000
,
0001
0000
0000
0100
0000
0000
0010
0000
0220
0000
0000
0000
0330
0000
0000
0000
,
1000
0000
0001
0000
0010
0000
0000
0001
0000
0000
0100
0000
1000
0000
0000
0000
,
0010
0000
1000
0000
0100
0000
0000
1000
0000
0000
0001
0000
0010
0000
0000
0000
,
0100
0000
1000
0000
0010
0000
0000
0100
0000
0000
0001
0000
1000
0000
0010
0000
,
0010
0000
0000
1000
0000
0000
0001
0000
2002
0000
0000
0000
3003
0000
0000
0000
,
1100
0000
0000
0000
0101
0000
0000
0010
0000
0000
0100
0000
0000
0000
0000
0000
,
0001
0000
0000
1000
0000
0000
0110
0000
0000
0010
0000
0000
0000
0000
0000
0000
,
1000
0100
0001
0000
1000
0010
0100
0000
,
0010
1000
0001
0000
0010
0001
0100
0000
,
0011
0000
0000
0000
1010
0000
0000
0001
0000
0000
1000
0000
0000
0000
0000
0000
,
0010
0000
0000
0100
0000
0000
1001
0000
0000
0001
0000
0000
0000
0000
0000
0000
,
1000
0010
0100
0000
0001
0010
1000
0001
,
1000
0100
0001
0000
0100
0010
0110
0000
,
1001
0000
0000
0000
0011
0000
0000
1000
0000
0000
0010
0000
0000
0000
0000
0000
,
0100
0000
0000
0001
0000
0000
1100
0000
0000
0010
0000
0000
0000
0000
0000
0000
,
0100
0001
1000
0000
0001
0010
1000
0000
,
0010
1000
0100
0000
0001
0100
0010
0000
,
0110
0000
0000
0000
0101
0000
0000
0001
0000
0000
0010
0000
0000
0000
0000
0000
,
1000
0000
0000
0100
0000
0000
1010
0000
0000
0001
0000
0000
0000
0000
0000
0000
,
0010
0001
1000
0000
0010
0100
0001
1000
,
0010
1000
0100
0000
1000
0001
1001
0000
,
0110
0000
0100
0000
0001
0000
0000
1000
0000
0000
0100
0000
0010
0000
0000
0000
,
0001
0000
0010
0000
1000
0000
0000
0001
0000
0000
1000
0000
0100
0000
0000
0000
,
1000
0000
0010
0000
0100
0000
0000
0001
0000
0000
1000
0000
0001
0000
0100
0000
,
0100
0000
0000
0010
0000
0000
1000
0000
0202
0000
0000
0000
0303
0000
0000
0000
,
0010
0000
0001
0000
1000
0000
0000
0001
0000
0000
0100
0000
0010
0000
0000
0000
,
1000
0000
0100
0000
0001
0000
0000
0010
0000
0000
0100
0000
1000
0000
0000
0000
,
0010
0000
0100
0000
0001
0000
0000
0010
0000
0000
0001
0000
1000
0000
0000
0000
,
1100
0000
0011
0000
0000
0100
1001
0000
,
0011
0000
0000
0000
0101
0000
0000
1000
0000
0000
0100
0000
0000
0000
0000
0000
,
0001
0000
0000
1000
0000
0000
0101
0000
0000
0100
0000
0000
0000
0000
0000
0000
,
0001
0010
0100
0000
0010
0001
1000
0000
,
0010
0100
0001
0000
1000
0100
0001
0000
,
1010
0000
0000
0000
1100
0000
0000
0010
0000
0000
1000
0000
0000
0000
0000
0000
,
0100
0000
0000
0010
0000
0000
1001
0000
0000
0001
0000
0000
0000
0000
0000
0000
,
0010
0001
0100
0000
0001
1000
0010
0100
,
0010
1000
0001
0000
0010
0001
0100
0000
,
1000
0001
1000
0001
1000
0001
0100
0000
,
1001
0010
0001
0000
0100
0010
1000
0000
,
1100
0001
0100
0000
0011
1000
0010
0000
,
0101
0010
0001
0000
1010
1000
0100
0000
;

//---------------dance-single - ----------------
#NOTES:
     dance-single:
     :
     Easy:
     7:
     0.450017,0.487750,0.505574,0.090744,0.000000,243.000000,204.000000,39.000000,7.000000,0.000000,0.000000,0.450017,0.487750,0.505574,0.090744,0.000000,243.000000,204.000000,39.000000,7.000000,0.000000,0.000000:
0000
0000
0000
0000
,
0000
0000
0000
0000
,
1000
0010
1001
0100
,
0010
1000
0110
0000
,
0001
0010
1100
0001
,
0100
0010
0101
0000
,
1000
0001
1010
0100
,
0001
1000
0011
0000
,
0010
0010
0100
0100
,
0001
1000
0100
1001
,
0010
1000
0100
0010
,
0001
0100
0001
0010
,
0001
0100
0010
1000
,
0100
1000
0010
0100
,
0010
1000
0100
0010
,
0001
0100
0010
0100
,
0001
0010
1000
0100
,
0010
0001
1000
0001
,
1100
1100
0001
0100
,
0010
1000
0101
0101
,
0001
0010
0001
0100
,
1000
0001
0010
0100
,
0011
0011
0100
1000
,
0010
0100
1010
1010
,
1000
0001
0010
0100
,
2000
3002
0013
0110
,
1100
1100
0010
1000
,
0100
0010
0011
0011
,
0001
0100
1000
0010
,
1000
0001
0010
0100
,
0101
0101
1000
0001
,
0010
1000
1010
1010
,
0010
0100
0010
1000
,
0200
0320
0031
1001
,
0010
1000
0100
0001
,
0010
0001
0100
0010
,
0100
0010
1000
0100
,
1000
0001
0010
0100
,
1000
0010
1000
0100
,
0010
0001
0100
1000
,
0010
1000
0001
0100
,
0002
1003
0000
1001
,
0110
0110
1000
0001
,
0010
0100
1001
1001
,
0100
0001
0010
1000
,
0010
1000
0100
0001
,
1001
1001
1000
0010
,
1000
0100
0110
0110
,
0010
0001
0100
1000
,
0020
0230
0301
1000
,
0010
0010
0010
0010
,
1001
0001
0100
0010
,
1010
1000
1100
0001
,
0101
0010
0011
0100
;

//---------------dance-single - ----------------
#NOTES:
     dance-single:
     :
     Beginner:
     4:
     0.216675,0.277418,0.064817,0.000000,0.000000,117.000000,112.000000,5.000000,0.000000,0.000000,0.000000,0.216675,0.277418,0.064817,0.000000,0.000000,117.000000,112.000000,5.000000,0.000000,0.000000,0.000000:
// measure 0
0000
0000
0000
0000
,  // measure 1
0000
0000
0000
0000
,  // measure 2
1000
0000
0001
0000
,  // measure 3
0000
0000
0001
0000
,  // measure 4
0100
0000
0010
0000
,  // measure 5
0000
0000
0010
0000
,  // measure 6
1000
0000
0100
0000
,  // measure 7
0000
0000
0100
0000
,  // measure 8
0010
0000
0010
0000
,  // measure 9
0001
0001
0001
0001
,  // measure 10
0000
0100
0000
0100
,  // measure 11
0000
0010
0000
0010
,  // measure 12
0000
1000
0000
1000
,  // measure 13
0001
0000
1001
0000
,  // measure 14
0000
0010
0000
0010
,  // measure 15
0000
1000
0000
1000
,  // measure 16
0000
0001
0000
0001
,  // measure 17
0100
0000
0110
0000
,  // measure 18
0001
0001
0001
0000
,  // measure 19
1000
1000
1000
0000
,  // measure 20
0000
0010
0000
0010
,  // measure 21
0000
0100
0000
0100
,  // measure 22
0010
0010
0010
0000
,  // measure 23
0100
0100
0100
0000
,  // measure 24
0000
0001
0000
0000
,  // measure 25
1000
1000
0000
0000
,  // measure 26
0100
0100
0100
0000
,  // measure 27
1000
1000
1000
0000
,  // measure 28
0000
0001
0000
0001
,  // measure 29
0000
0010
0000
0010
,  // measure 30
0001
0001
0001
0000
,  // measure 31
0100
0100
0100
0000
,  // measure 32
0000
0010
0000
0000
,  // measure 33
1000
1000
0000
0000
,  // measure 34
0000
0001
0000
1000
,  // measure 35
0000
0001
0000
1000
,  // measure 36
0000
0010
0000
0100
,  // measure 37
0010
0000
1001
0000
,  // measure 38
0000
0010
0000
1000
,  // measure 39
0000
0010
0000
1000
,  // measure 40
0000
0001
0000
0100
,  // measure 41
0001
0000
0110
0000
,  // measure 42
0010
0010
0010
0000
,  // measure 43
1000
1000
1000
0000
,  // measure 44
0000
0100
0000
0010
,  // measure 45
0000
0001
0000
1000
,  // measure 46
0001
0001
0001
0000
,  // measure 47
0010
0010
0010
0000
,  // measure 48
0000
0001
0000
0000
,  // measure 49
1000
1000
0000
0000
,  // measure 50
0010
0100
0010
0000
,  // measure 51
1001
0000
0000
0000
,  // measure 52
0001
0000
0010
0000
,  // measure 53
1000
0000
0100
0000
;
