#TITLE:Frozen Ray;
#SUBTITLE:(DIRTYHERTZ Mix);
#ARTIST:dj TAKA;
#TITLETRANSLIT:;
#SUBTITLETRANSLIT:;
#ARTISTTRANSLIT:;
#GENRE:;
#CREDIT:;
#BANNER:Frozen Ray DIRTYHERTZ Mix.png;
#BACKGROUND:Frozen Ray DIRTYHERTZ Mix-bg.png;
#LYRICSPATH:;
#CDTITLE:;
#MUSIC:Frozen Ray DIRTYHERTZ Mix.ogg;
#OFFSET:0.000000;
#SAMPLESTART:16.200001;
#SAMPLELENGTH:20.000000;
#SELECTABLE:YES;
#BPMS:0.000000=133.000000
;
#STOPS:
;
#BGCHANGES:;
#KEYSOUNDS:;
#ATTACKS:;

//---------------dance-single - ----------------
#NOTES:
     dance-single:
     :
     Beginner:
     1:
     0.108539,0.151004,0.000000,0.000000,0.000000,80.000000,80.000000,0.000000,0.000000,0.000000,0.000000,0.108539,0.151004,0.000000,0.000000,0.000000,80.000000,80.000000,0.000000,0.000000,0.000000,0.000000:
0000
0000
0000
0000
,
0000
0000
0000
0000
,
0000
0000
0000
0000
,
0000
0000
0000
0000
,
0000
0000
0000
0000
,
0001
0000
0000
0000
,
1000
0000
0000
0000
,
0010
0000
0000
0000
,
0010
0000
0000
0000
,
1000
0000
1000
0000
,
0001
0000
0000
0000
,
0010
0000
0010
0000
,
0100
0000
0000
0000
,
1000
0000
0001
0000
,
1000
0000
0000
0000
,
0001
0000
0100
0000
,
0001
0000
0000
0000
,
1000
0000
0000
0000
,
0001
0000
0000
1000
,
1000
0000
0000
0000
,
0010
0000
0000
0000
,
0100
0000
0000
0001
,
0001
0000
0000
1000
,
1000
0000
0000
0000
,
0100
0000
0000
0000
,
0010
0000
0000
0001
,
0001
0000
1000
0000
,
1000
0000
0001
0000
,
0001
0000
0010
0000
,
0010
0000
0100
0000
,
0100
0000
1000
0000
,
0001
0000
1000
0000
,
0001
0000
0000
0000
,
0100
0100
0100
0000
,
0000
0000
0000
0000
,
0001
0001
0001
0000
,
0000
0000
0000
0000
,
1000
0000
0000
0001
,
0001
0000
0000
0100
,
0100
0000
0000
0010
,
0010
0000
0000
0000
,
1000
0000
1000
0000
,
0001
0000
0000
0000
,
0010
0000
0010
0000
,
0100
0000
0000
0000
,
1000
1000
1000
0000
,
1000
0000
0000
0000
,
0001
0001
0001
0000
,
0001
0000
0000
0000
,
0100
0100
0100
0000
,
0100
0000
0010
0000
,
0010
0000
1000
0000
,
1000
0000
0001
0001
,
0001
0000
0000
0000
;

//---------------dance-single - ----------------
#NOTES:
     dance-single:
     :
     Easy:
     3:
     0.127533,0.201339,0.028491,0.246925,0.000000,94.000000,91.000000,3.000000,26.000000,0.000000,0.000000,0.127533,0.201339,0.028491,0.246925,0.000000,94.000000,91.000000,3.000000,26.000000,0.000000,0.000000:
0000
0000
0000
0000
,
0000
0000
0000
0000
,
0000
0000
0000
0000
,
0000
0000
0000
0000
,
0000
0000
0000
0000
,
0200
0000
0000
0300
,
0002
0000
0000
0003
,
2000
0000
0000
3000
,
0002
0000
0000
0003
,
1000
0000
0100
0000
,
0001
0000
0100
0000
,
1000
0000
0001
0000
,
0010
0000
0001
0001
,
0001
0000
1000
0000
,
0010
0000
1000
0000
,
0100
0000
1000
0000
,
0001
1000
0001
1000
,
0002
0000
0000
0003
,
2000
0000
0000
3000
,
0020
0000
0000
0030
,
0200
0000
0000
0300
,
0002
0000
0000
0003
,
2000
0000
0000
3000
,
0020
0000
0000
0030
,
2000
0000
0000
3000
,
0001
0001
1000
1000
,
0002
0000
0000
0003
,
1000
1000
0001
0001
,
2000
0000
0000
3000
,
0010
0100
0010
0000
,
1000
0001
1000
0000
,
0002
0003
2000
3000
,
0001
1000
0001
1000
,
0002
0000
0000
0003
,
0200
0000
0000
0300
,
0020
0000
0000
0030
,
2000
0000
0000
3000
,
0001
1000
0001
1000
,
0001
0000
0000
0000
,
2002
0000
0000
0000
,
0000
0000
0000
3003
,
1001
0000
0100
0100
,
0100
0000
0001
0001
,
0001
0000
1000
1000
,
1000
0000
0001
0000
,
1000
0000
0010
0010
,
0010
0000
0100
0100
,
0100
0000
0010
0000
,
0200
0000
0000
0300
,
0001
0002
0000
0003
,
2000
0000
0000
3000
,
0010
0000
0010
0000
,
0200
0000
0300
0001
,
1001
0000
0000
0000
;

//---------------dance-single - ----------------
#NOTES:
     dance-single:
     :
     Medium:
     7:
     0.302551,0.402678,0.275417,0.218434,0.000000,223.000000,194.000000,29.000000,23.000000,0.000000,0.000000,0.302551,0.402678,0.275417,0.218434,0.000000,223.000000,194.000000,29.000000,23.000000,0.000000,0.000000:
0000
0000
0000
0000
,
0000
0000
0000
0000
,
0000
0000
0000
0000
,
0000
0000
0000
0000
,
0000
0000
0000
0000
,
1001
0001
1000
1000
,
0110
0100
0001
1000
,
1100
0100
0010
0001
,
0101
0001
1000
0100
,
1001
0000
0100
0000
0010
1000
0100
0000
,
0101
0000
1000
0000
0001
0100
1000
0000
,
0110
0000
1000
0000
0010
0100
0001
0000
,
1100
0000
1000
0000
0001
0100
1000
0100
,
0001
0000
1001
0000
0001
1000
0100
0000
,
0100
0000
1010
0000
1000
0010
0100
0000
,
0100
0000
0101
0000
0010
1000
0100
0000
,
0100
1000
0001
0000
0001
0000
0100
0000
,
1001
0000
0001
1000
,
0110
0000
1000
0100
,
1001
0000
1000
0001
,
0110
0000
1000
0010
,
1010
0000
0001
0100
,
0101
0000
1000
0100
,
1100
0000
0010
0001
,
0011
0000
0001
1000
,
1001
0000
0001
0100
1000
0100
0001
0000
,
2000
3200
0320
0030
,
0110
0000
0010
0001
0100
0001
0100
0000
,
0002
2003
3020
0030
,
0110
0000
0010
1000
0100
1000
0100
0000
,
0020
0032
2003
3000
,
1001
0000
1000
0100
0001
0100
1000
0000
,
0110
0000
1001
0000
0100
0001
0010
0001
,
0020
0000
0000
0000
0000
0000
0031
0100
,
0002
0000
0000
0000
0000
0000
1003
0100
,
2000
0000
0000
0000
0000
0000
3010
0100
,
0020
0100
0100
0130
,
2000
0001
0001
3001
,
0001
1000
0100
1000
,
0001
0010
0001
0100
,
1000
0100
0001
1000
,
0001
0000
0010
0000
0000
0000
0010
0100
,
0001
0000
0002
0000
0000
0000
0103
1000
,
0010
0000
0020
0000
0000
0000
0130
1000
,
0001
0000
0002
0000
0000
0000
1003
0010
,
0100
0000
0200
0000
0000
0000
0301
1000
,
0001
0000
0002
0000
0000
0000
1003
0100
,
0020
0030
0200
0300
,
0020
0030
0002
0003
,
1100
0000
0101
0000
0000
0001
1000
0000
,
1000
0001
0000
0010
0000
0010
0001
0000
,
0100
0000
0000
0010
0000
0000
1000
0100
,
0000
0000
0000
0101
0000
0001
1000
0000
,
1100
0000
0000
0000
;

//---------------dance-single - ----------------
#NOTES:
     dance-single:
     :
     Hard:
     10:
     0.385312,0.453013,0.161451,0.455862,0.066480,284.000000,267.000000,17.000000,48.000000,0.000000,0.000000,0.385312,0.453013,0.161451,0.455862,0.066480,284.000000,267.000000,17.000000,48.000000,0.000000,0.000000:
0000
0000
0000
0000
,
0000
0000
0000
0000
,
0000
0000
0000
0000
,
0000
0000
0000
0000
,
0000
0000
0000
0000
,
0010
0000
0000
0002
0000
0000
0100
0000
0103
0000
0000
0020
0000
0000
1000
0000
,
1030
0000
0000
0200
0000
0000
0010
0000
0310
0000
0000
0002
0000
0000
1000
0000
,
1003
0000
0000
0002
0000
0000
0100
0000
0103
0000
0000
2000
0000
0000
0100
0000
,
3100
0000
0000
0002
0000
0000
0010
0000
0013
0000
0000
0100
0000
0000
1000
0000
,
0001
1000
0010
0100
0001
1000
0010
0100
,
0001
0010
1000
0010
0001
1000
0100
1000
,
0010
0001
0010
1000
0100
0010
0001
1000
,
0100
0010
0001
0010
1000
0010
0001
1000
,
0001
0100
1000
0100
0001
1000
0001
0010
,
0100
1000
0001
0100
0010
1000
0001
0100
,
1000
0100
0010
1000
0100
1000
0010
1000
,
0100
1000
0001
0010
0001
0100
0001
0010
,
1002
0000
0000
0103
0000
1000
0000
0000
,
2001
0000
0000
3100
0000
0001
0000
0000
,
2100
0000
0000
3100
0000
1000
0000
0000
,
0201
0000
0000
0301
0000
0100
0000
0000
,
0012
0000
0000
1003
0000
0100
0000
0000
,
2010
0000
0000
3001
0000
0100
0000
0000
,
2001
0000
0000
3100
0000
0001
0000
0000
,
1002
0000
0000
1003
0000
0100
0000
0000
,
1000
0010
0100
0001
1000
1000
1000
0000
,
0100
0010
0001
1000
0100
0100
0100
0000
,
0010
0100
1000
0001
0010
0010
0010
0000
,
0001
0100
0010
1000
0001
0001
0001
0000
,
1000
0001
0100
0010
1000
0001
0100
0010
,
1000
0100
0001
0100
1000
0001
0010
0001
,
0100
1000
0100
0001
0010
0100
1000
0001
,
0100
0010
1000
0001
0010
0100
1000
1000
,
2000
0000
0000
0001
0000
0000
0001
0000
0001
0000
0000
3001
0000
0000
0000
0000
,
0020
0000
0000
0100
0000
0000
0100
0000
0100
0000
0000
0130
0000
0000
0000
0000
,
2000
0000
0000
0001
0000
0000
0001
0000
0001
0000
0000
3001
0000
0000
0000
0000
,
1001
0011
1001
1010
,
0021
1000
0001
1030
,
0012
0100
0010
0103
,
0200
0000
0001
0300
,
0020
0230
0302
2003
,
3020
0000
0130
0002
0000
1003
0100
0001
,
0200
0000
1300
0020
0000
0130
0001
0010
,
0200
0000
1300
0002
0000
0013
1000
0010
,
0002
0000
0103
0020
0000
0130
0001
0100
,
2000
0000
3100
0002
0000
0103
0010
1000
,
0200
0000
0310
0200
0000
0310
0001
0010
,
0200
0000
1300
0002
0000
1003
0010
0100
,
0002
0000
2000
0003
,
3020
0000
0230
0000
0000
0301
2000
0000
,
0000
3002
0000
2003
0000
3010
1000
0100
,
1001
0000
0000
0110
0000
0000
1000
0002
,
0000
0000
0000
0203
0000
0310
1000
0100
,
1001
0000
0000
0000
;

//---------------dance-double - ----------------
#NOTES:
     dance-double:
     :
     Easy:
     3:
     0.124819,0.176172,0.009497,0.218434,0.000000,92.000000,91.000000,1.000000,23.000000,0.000000,0.000000,0.124819,0.176172,0.009497,0.218434,0.000000,92.000000,91.000000,1.000000,23.000000,0.000000,0.000000:
00000000
00000000
00000000
00000000
,
00000000
00000000
00000000
00000000
,
00000000
00000000
00000000
00000000
,
00000000
00000000
00000000
00000000
,
00000000
00000000
00000000
00000000
,
00000002
00000000
00000000
00000003
,
00002000
00000000
00000000
00003000
,
00000200
00000000
00000000
00000300
,
00020000
00000000
00000000
00030000
,
00010000
00000000
01000000
00000000
,
10000000
00000000
01000000
00000000
,
10000000
00000000
01000000
00000000
,
00010000
00000000
00001000
00001000
,
00001000
00000000
00010000
00000000
,
00001000
00000000
00010000
00000000
,
00001000
00000000
00000100
00000000
,
00000001
00000010
00000001
00000010
,
00000002
00000000
00000000
00000003
,
00002000
00000000
00000000
00003000
,
00000020
00000000
00000000
00000030
,
00000200
00000000
00000000
00000300
,
00002000
00000000
00000000
00003000
,
00020000
00000000
00000000
00030000
,
00200000
00000000
00000000
00300000
,
20000000
00000000
00000000
30000000
,
00010000
00010000
10000000
10000000
,
02000000
00000000
00000000
03000000
,
00010000
00010000
00001000
00001000
,
00020000
00000000
00000000
00030000
,
00001000
00000100
00001000
00000000
,
00000100
00000001
00000100
00000000
,
00000001
00000000
00001000
00000000
,
00000001
00000010
00000001
00000010
,
00000002
00000000
00000000
00000003
,
00002000
00000000
00000000
00003000
,
00000200
00000000
00000000
00000300
,
00002000
00000000
00000000
00003000
,
00010000
00001000
00010000
00001000
,
00010000
00000000
00000000
00000000
,
20000000
00000000
00000000
00000000
,
00000000
00000000
00000000
30000000
,
10000000
00000000
01000000
01000000
,
01000000
00000000
00010000
00010000
,
00010000
00000000
00001000
00001000
,
00001000
00000000
00000100
00000000
,
00000001
00000000
00000010
00000010
,
00000010
00000000
00000100
00000100
,
00000100
00000000
00001000
00000000
,
00000002
00000000
00000000
00000003
,
00000100
00000200
00000000
00000300
,
00002000
00000000
00000000
00003000
,
00010000
00000000
00010000
00000000
,
00002000
00000000
00003000
00010000
,
00011000
00000000
00000000
00000000
;

//---------------dance-double - ----------------
#NOTES:
     dance-double:
     :
     Medium:
     8:
     0.294411,0.402678,0.208937,0.085474,0.000000,217.000000,195.000000,22.000000,9.000000,0.000000,0.000000,0.294411,0.402678,0.208937,0.085474,0.000000,217.000000,195.000000,22.000000,9.000000,0.000000,0.000000:
00000000
00000000
00000000
00000000
,
00000000
00000000
00000000
00000000
,
00000000
00000000
00000000
00000000
,
00000000
00000000
00000000
00000000
,
00000000
00000000
00000000
00000000
,
00000001
00000100
00001000
00000100
,
00001000
00010000
00100000
00010000
,
00001000
00000010
00001000
00010000
,
00100000
10000000
01000000
00010000
,
10010000
00000000
10000000
00000000
10000000
01000000
00010000
00000000
,
00001000
00000100
00000001
00000000
00000010
00000000
00000001
00000000
,
00001001
00000000
00000100
00000000
00001000
00010000
01000000
00000000
,
10000000
00100000
00010000
00000000
00100000
00000000
10000000
00000000
,
01000000
00000000
10010000
00000000
10000000
01000000
00010000
00000000
,
00010000
01000000
10000000
00000000
01000000
00000000
00010000
00000000
,
00001000
00000000
00011000
00000000
00010000
00001000
00000100
00000000
,
00000001
00000010
00001000
00000000
00000010
00000001
00000100
00000001
,
00001001
00000000
00000100
00001000
,
00011000
00000000
00010000
01000000
,
10010000
00000000
10000000
00100000
,
01100000
00000000
01000000
00001000
,
00011000
00000000
00001000
00000100
,
00001001
00000000
00000001
00000010
,
00000110
00000000
00000100
00010000
,
00011000
00000000
00001000
00010000
,
00011000
00000000
00010000
01000000
10000000
01000000
10000000
00000000
,
01000000
00100000
00010000
00000000
,
10010000
00000000
10000000
01000000
00010000
01000000
00010000
00000000
,
00001000
00010000
00001000
00000000
,
00011000
00000000
00001000
00000100
00000001
00000100
00000001
00000000
,
00000001
00000100
00001000
00000000
,
00001001
00000000
00000001
00000100
00001000
00000100
00001000
00000000
,
00011000
00000000
00101000
00000000
00001000
00010000
00001000
00010000
,
02000000
00000000
00000000
00000000
00000000
00000000
13000000
01000000
,
20000000
00000000
00000000
00000000
00000000
00000000
31000000
00010000
,
00002000
00000000
00000000
00000000
00000000
00000000
00013000
00001000
,
00000200
00001000
00001000
00001000
,
00000001
00000001
00000001
00000001
,
00000010
00000010
00000010
00000310
,
00000001
00000100
00001000
00010000
,
00001000
00010000
01000000
10000000
,
01000000
00000000
00100000
00000000
00000000
00000000
10000000
01000000
,
00010000
00000000
00020000
00000000
00000000
00000000
00031000
00000100
,
00001000
00000000
00020000
00000000
00000000
00000000
00031000
00000100
,
00000001
00000000
00000002
00000000
00000000
00000000
00001003
00000100
,
00000010
00000000
00000020
00000000
00000000
00000000
00000031
00000100
,
00001000
00000000
00002000
00000000
00000000
00000000
00013000
01000000
,
10000000
00000000
01000000
00000000
,
10000000
00000000
00100000
00000000
,
10010000
00000000
11000000
00000000
00000000
10000000
01000000
00000000
,
01000000
00010000
00000000
00001000
00000000
00010000
00001000
00000000
,
00000100
00000000
00000000
00000001
00000000
00000000
00000010
00000001
,
00000000
00000000
00000000
00000101
00000000
00000001
00001000
00000000
,
00001001
00000000
00000000
00000000
;

//---------------dance-double - ----------------
#NOTES:
     dance-double:
     :
     Hard:
     10:
     0.362248,0.453013,0.085474,0.227931,0.066480,267.000000,258.000000,9.000000,24.000000,0.000000,0.000000,0.362248,0.453013,0.085474,0.227931,0.066480,267.000000,258.000000,9.000000,24.000000,0.000000,0.000000:
00000000
00000000
00000000
00000000
,
00000000
00000000
00000000
00000000
,
00000000
00000000
00000000
00000000
,
00000000
00000000
00000000
00000000
,
00000000
00000000
00000000
00000000
,
00001000
00000000
00000000
00000001
00000000
00000000
00000100
00000000
00001000
00000000
00000000
00010000
00000000
00000000
00001000
00000000
,
00000100
00000000
00000000
00001000
00000000
00000000
00010000
00000000
01000000
00000000
00000000
10000000
00000000
00000000
00100000
00000000
,
00010000
00000000
00000000
00100000
00000000
00000000
10000000
00000000
00010000
00000000
00000000
00100000
00000000
00000000
01000000
00000000
,
10000000
00000000
00000000
00100000
00000000
00000000
00010000
00000000
00001000
00000000
00000000
00010000
00000000
00000000
00100000
00000000
,
10000000
01000000
00100000
01000000
00010000
00001000
00010000
00001000
,
00000010
00000001
00000010
00000100
00001000
00000100
00010000
00001000
,
00000100
00001000
00010000
00000100
00001000
00000010
00001000
00000001
,
00000010
00000100
00001000
00000010
00000100
00001000
00010000
01000000
,
00010000
01000000
10000000
01000000
10000000
00100000
10000000
00100000
,
01000000
00010000
01000000
00100000
00010000
00001000
00010000
00001000
,
00000010
00000001
00000010
00000100
00001000
00000100
00010000
00001000
,
00000100
00001000
00010000
00001000
00000100
00001000
00010000
00001000
,
00011000
00000000
00000000
00010000
00000000
01000000
00000000
00000000
,
00200000
00000000
00000000
01300000
00000000
10000000
00000000
00000000
,
20000000
00000000
00000000
30100000
00000000
00010000
00000000
00000000
,
00002000
00000000
00000000
00003010
00000000
00000001
00000000
00000000
,
00002000
00000000
00000000
00003001
00000000
00000100
00000000
00000000
,
00000020
00000000
00000000
00001030
00000000
00000100
00000000
00000000
,
00020000
00000000
00000000
00031000
00000000
00010000
00000000
00000000
,
00002000
00000000
00000000
00013000
00000000
01000000
00000000
00000000
,
10000000
00010000
10000000
10000000
01000000
00010000
01000000
00000000
,
00010000
00001000
00010000
00010000
00001000
00000010
00001000
00000000
,
00000010
00000100
00000010
00000010
00000100
00010000
00000100
00000000
,
00010000
00001000
00010000
00010000
00001000
01000000
00001000
00000000
,
00001000
01000000
00010000
00100000
00001000
01000000
00010000
00100000
,
00001000
00010000
00000010
00000100
00001000
00010000
00000010
00000100
,
00001000
00010000
01000000
00100000
00010000
10000000
01000000
00100000
,
00010000
01000000
00100000
00010000
00001000
01000000
00100000
00010000
,
00001000
00000000
00000000
00010000
00000000
00000000
00001000
00000000
00010000
00000000
00000000
00001000
00000000
00000000
00000000
00000000
,
00000100
00000000
00000000
00000010
00000000
00000000
00000100
00000000
00000010
00000000
00000000
00000100
00000000
00000000
00000000
00000000
,
00000001
00000000
00000000
00001000
00000000
00000000
00000001
00000000
00001000
00000000
00000000
00000001
00000000
00000000
00000000
00000000
,
00002002
00000000
00000000
00003003
,
00002200
00000000
00000000
00003300
,
00022000
00000000
00000000
00033000
,
02010000
00000000
00010000
03000000
,
20000000
32000000
03020000
02030000
,
13000000
00000000
01000000
00010000
00000000
00010000
00001000
00000010
,
00000001
00000000
00000001
00000010
00000000
00000100
00001000
00000001
,
00000100
00000000
00001000
00000100
00000000
00000001
00000100
00001000
,
00010000
00000000
00010000
00100000
00000000
00100000
00010000
00001000
,
00000010
00000000
00000010
00001000
00000000
00010000
01000000
10000000
,
01000000
00000000
00100000
01000000
00000000
00010000
01000000
00100000
,
01000000
00000000
10000000
01000000
00000000
00010000
01000000
00010000
,
00001000
00000000
00011000
00000000
,
00002000
00000000
00003200
00000000
00000000
00000301
00002000
00000000
,
00000000
00003002
00000000
00000023
00000000
00000130
00001000
00000001
,
00000001
00000000
00000000
00001001
00000000
00000000
00000100
00001001
,
00000000
00000000
00000000
00000200
00000000
00001300
00010000
00001000
,
00011000
00000000
00000000
00000000
;

//---------------dance-single - ----------------
#NOTES:
     dance-single:
     :
     Challenge:
     15:
     0.595606,0.729854,0.132960,0.208937,0.531839,439.000000,425.000000,14.000000,22.000000,0.000000,0.000000,0.595606,0.729854,0.132960,0.208937,0.531839,439.000000,425.000000,14.000000,22.000000,0.000000,0.000000:
// measure 0
0000
0000
0000
0000
,  // measure 1
0000
0000
0000
0000
,  // measure 2
0000
0000
0000
0000
,  // measure 3
0000
0000
0000
0000
,  // measure 4
0000
0000
0000
0000
0000
0000
0000
0010
,  // measure 5
0020
0000
0000
2030
0000
0000
3002
0000
2003
0000
0000
3020
0000
0000
0230
0000
,  // measure 6
0302
0000
0000
0023
0000
0000
0230
0000
2300
0000
0000
3002
0000
0000
0203
0000
,  // measure 7
0302
0000
0000
0023
0000
0000
0230
0000
2300
0000
0000
3002
0000
0000
0023
0000
,  // measure 8
0032
0000
0000
2003
0000
0000
3200
0000
1300
0010
1000
0010
1000
0010
1000
0010
,  // measure 9
0100
0000
0010
1000
0000
0010
1000
0000
0001
0000
0010
0100
0000
0010
0100
0000
,  // measure 10
0010
0000
0001
0100
0000
0001
0100
0000
0010
0000
1000
0001
0000
1000
0001
0000
,  // measure 11
0100
0000
0001
0010
0000
0001
0010
0000
0100
0000
1000
0100
0000
1000
0100
0000
,  // measure 12
1000
0000
0010
0100
0000
0010
0100
0000
0001
0000
1000
0001
1000
0001
1000
0001
,  // measure 13
0010
0000
0001
0100
0000
0010
1000
0000
0100
0000
0010
0001
0000
1000
0010
0000
,  // measure 14
1000
0000
0100
1000
0000
0010
0100
0000
0010
0000
0100
0001
0000
0010
0001
0000
,  // measure 15
0100
0001
0100
0000
0001
1000
0001
0000
1000
0100
1000
0000
0010
0100
0010
0000
,  // measure 16
1000
0100
1000
0100
1000
0001
1000
0001
0010
0001
0010
0001
0100
0010
0100
0010
,  // measure 17
1000
0000
0010
1000
0000
1000
0001
0000
0010
0000
0100
0000
1000
0000
0010
0000
,  // measure 18
0100
0000
0001
0010
0000
0010
0100
0000
1000
0000
0001
0000
0010
0000
0001
0000
,  // measure 19
1000
0000
0001
0010
0000
0010
0100
0000
0010
0000
0001
0000
1000
0000
0100
0000
,  // measure 20
0010
0000
0001
1000
0000
1000
0010
0000
0100
0000
0001
0000
1000
0000
0100
0000
,  // measure 21
0010
0000
0001
1000
0000
1000
0100
0000
1000
0000
0001
0000
1000
0000
0100
0000
,  // measure 22
0010
0000
0100
1000
0000
1000
0001
0000
0010
0000
0001
0000
0100
0000
0010
0000
,  // measure 23
0100
0000
0010
1000
0000
1000
0001
0000
0010
0000
0001
0000
0100
0000
0010
0000
,  // measure 24
1000
0001
1000
0001
0010
0001
0010
0001
0100
0010
0100
0010
1000
0100
1000
0100
,  // measure 25
0010
0000
0000
0000
1001
0000
0001
0000
0010
0000
0100
1000
0001
0000
0100
0000
,  // measure 26
0001
0000
0000
0000
0011
0000
0010
0000
0100
0000
1000
0010
1000
0000
0001
0000
,  // measure 27
0100
0000
0000
0000
0101
0000
0001
0000
1000
0000
0010
1000
0001
0000
0100
0000
,  // measure 28
0010
0000
0000
0000
1010
0000
0010
0000
1000
0000
0001
1000
0100
0000
0010
0000
,  // measure 29
0100
0000
0000
0000
1100
0000
0010
0000
1000
0000
0010
0100
0001
0000
1000
0000
,  // measure 30
0100
0000
0000
0000
0110
0000
1000
0000
0010
0000
1000
0001
0100
0000
0001
0000
,  // measure 31
0010
0001
0010
0000
0001
0100
0001
0000
1000
0100
1000
0000
0010
1000
0010
0000
,  // measure 32
0100
0010
0100
0010
0100
0001
0100
0001
1000
0001
1000
0001
1000
0010
1000
0010
,  // measure 33
0100
0000
0000
0000
1001
0000
0001
0000
1000
0000
0010
0100
0000
0001
1000
0000
,  // measure 34
0001
0000
0000
0000
0011
0000
0010
0000
0100
0000
1000
0010
0000
1000
0001
0000
,  // measure 35
0100
0000
0000
0000
0101
0000
0010
0000
0100
0000
0001
0010
0000
0001
1000
0000
,  // measure 36
0010
0000
0000
0000
1010
0000
1000
0000
0100
0000
0010
0001
0000
1000
0100
0000
,  // measure 37
1000
0000
0000
0000
1100
0000
0001
0000
0010
0000
0001
0100
0000
0010
1000
0000
,  // measure 38
0010
0000
0000
0000
0110
0000
0100
0000
0001
0000
0010
0100
0000
1000
0001
0000
,  // measure 39
0010
0001
0010
0000
0100
1000
0100
0000
1000
0010
1000
0000
0001
0100
0001
0000
,  // measure 40
1000
0100
1000
0100
0010
0001
0010
0001
0100
0010
0100
0010
1000
0001
1000
0001
,  // measure 41
0010
0000
0001
0100
0010
1000
0100
0010
,  // measure 42
0001
0000
1000
0001
0010
0100
1000
0010
,  // measure 43
1000
0000
0100
1000
0001
0100
0001
0010
,  // measure 44
0100
0000
0010
0001
0100
0010
1000
0001
,  // measure 45
0100
0000
1000
0010
1000
0100
0010
0001
,  // measure 46
1000
0000
0010
1000
0100
0010
0001
0100
,  // measure 47
0001
0000
0010
0100
0000
1000
0001
0000
,  // measure 48
0200
0000
0000
0300
,  // measure 49
0110
0000
0001
1000
0000
0010
0100
0000
,  // measure 50
0001
0010
0001
1000
0000
1000
0100
0000
,  // measure 51
1000
0010
1000
0001
0000
0001
0100
0010
,  // measure 52
0100
0010
1000
0001
0000
0001
1000
0100
,  // measure 53
1001
0000
0000
0000
;
