#TITLE:Fractal;
#SUBTITLE:[Ver.Sound Cloud];
#ARTIST:SHIKI;
#TITLETRANSLIT:;
#SUBTITLETRANSLIT:;
#ARTISTTRANSLIT:;
#GENRE:;
#CREDIT:;
#BANNER:Fractal [Ver.Sound Cloud]-bn.png;
#BACKGROUND:Fractal [Ver.Sound Cloud]-bg.png;
#LYRICSPATH:;
#CDTITLE:;
#MUSIC:Fractal [Ver.Sound Cloud].ogg;
#OFFSET:0.200000;
#SAMPLESTART:14.989000;
#SAMPLELENGTH:20.000000;
#SELECTABLE:YES;
#DISPLAYBPM:158.000000;
#BPMS:0.000000=158.009995
;
#STOPS:
;
#BGCHANGES:;
#KEYSOUNDS:;
#ATTACKS:;

//---------------dance-single - ----------------
#NOTES:
     dance-single:
     :
     Hard:
     13:
     0.554976,0.720982,0.136550,0.416476,0.256030,569.000000,549.000000,20.000000,61.000000,0.000000,0.000000,0.554976,0.720982,0.136550,0.416476,0.256030,569.000000,549.000000,20.000000,61.000000,0.000000,0.000000:
0000
0000
0000
0000
,
0000
0000
0000
0000
,
0000
0000
0000
0000
,
0000
0000
0000
0000
,
0000
0000
0000
0000
,
0000
0000
0000
0000
,
0010
0001
0100
0010
1000
0100
0001
0000
,
1000
0001
0010
0001
0100
0010
1000
0000
,
0100
0010
0100
1000
0001
0010
1000
0000
,
2002
0000
0000
3003
,
0100
0000
0001
0000
0010
0000
0100
0000
1000
0000
0001
1000
0000
1000
0100
0000
,
0020
0000
0000
0000
0000
0000
0031
1000
0001
0000
0100
0000
0010
0000
1000
0000
,
0002
0000
0000
1000
0000
0000
0203
0000
0000
0000
0010
0000
0310
0000
1000
0000
,
0200
0000
0000
0001
0000
0000
2300
0000
0000
0000
0001
0000
3001
0000
0000
0000
,
0202
0000
0000
0000
0303
0000
1000
0000
0001
0000
0000
0010
0000
0000
0100
0000
,
2000
0000
0000
3002
0000
0000
0203
0000
0000
0320
0000
0000
1030
0000
0010
0000
,
0200
0010
0010
0000
0302
1000
1000
0000
,
0023
0001
0031
0100
0010
1000
0001
0000
,
1000
0010
1000
0100
0010
0001
0100
0000
,
0001
0000
1000
0000
0100
0000
0010
0000
0100
0000
1000
0001
0000
0001
0010
0000
,
0002
0000
0000
0000
0000
0000
0100
0000
0103
0000
0010
0000
1000
0001
0000
0000
,
0010
0000
0001
0100
0000
0100
0010
0000
0100
0000
0001
1000
0000
1000
0010
0000
,
0210
0000
0001
0000
1000
1000
0301
0000
,
0012
0000
0000
0000
1003
0000
0000
0000
2010
0000
0000
0000
3001
0000
0000
0010
,
0001
0100
0010
1000
0100
0010
0100
1000
,
0001
1000
0000
1001
0000
0000
0000
0000
0010
0100
0000
0110
0000
0000
0000
0000
,
0102
0000
0010
0000
1000
1000
0013
0000
,
0001
1000
0100
0001
0100
0010
1000
0000
,
0010
0100
0001
0010
1000
0010
0001
0000
,
1000
0001
0010
0001
0100
0010
1000
0100
,
0020
0000
0032
2003
,
3200
0000
0000
0000
0000
0000
0000
1300
0100
0000
0010
0000
0001
0000
1000
0000
,
0020
0000
2030
3001
,
2002
0000
0000
0000
0000
0000
0000
0000
0000
0000
0000
0000
3003
0000
1000
0001
,
2000
0000
0010
0000
0010
0000
0000
0000
0001
0000
0100
0000
3100
0000
0000
0001
,
2000
0000
0000
0000
3100
0000
0000
0000
1100
0000
0000
0101
0000
0000
0001
0000
,
1000
0001
0010
0001
0100
0010
1000
0000
,
0100
0000
0010
0000
0002
0000
0000
0000
1000
0000
0000
0100
0000
0000
1003
0000
,
0001
0000
0010
0001
0000
0001
1000
0000
0100
0000
1000
0010
0000
0010
0100
0000
,
0002
0000
1000
2003
0000
0100
3100
1000
,
0001
0100
0001
0010
0100
1000
0001
0000
,
0011
0000
0011
0000
0001
1000
0000
0001
1000
0000
0001
1000
0000
0001
1000
0000
,
0010
0100
0010
0001
0010
1000
0100
0001
,
0100
0010
1000
0010
0001
0100
0010
1000
,
0100
0001
0100
0010
0100
1000
0010
0001
,
0010
0100
0010
0001
0010
1000
0001
0100
,
0220
0000
0000
0000
0330
0000
1000
0010
2000
0000
0000
3002
0000
0000
0103
0000
,
0020
0000
0100
0230
0000
0001
0302
0000
,
2003
0000
0100
0000
0000
3001
1000
0001
,
2000
0000
0000
3020
0000
0000
0130
0000
,
0001
1000
0100
0000
1000
0010
0100
0001
,
0010
0000
0001
0000
1000
0010
1000
0100
,
0010
0000
0001
0100
1000
0000
0010
1000
,
0100
0000
0010
0001
0100
0001
1000
0010
,
1000
0100
0010
0000
0001
0100
0001
1000
,
0010
0000
0000
0010
0000
0000
0010
0000
1000
0000
0001
0000
1000
0000
0100
0000
,
0010
0000
0001
0100
0001
1000
0100
0010
,
0001
0000
0000
0100
0000
0000
0010
0000
0000
1000
0000
0000
0001
0000
1000
0000
,
0010
1000
0010
0100
0010
1000
0001
0010
,
0200
0000
0000
0000
0000
0000
1300
0010
1000
0000
0001
0000
0100
0000
0001
0000
,
0020
0000
0000
1000
0000
0000
0001
0000
0032
0000
0100
0000
0103
0000
0000
0000
,
0101
1100
0011
1010
,
0002
0000
0000
0000
0000
0000
0103
0010
0100
0000
0001
1000
0000
1000
0001
0000
,
0020
0000
0000
0032
0000
0000
2003
0000
0000
3200
0000
0000
1300
0000
0001
0000
,
0100
0010
1000
0100
1000
0001
0010
0000
,
0001
1000
0100
0010
0100
1000
0010
0000
,
1000
0001
0010
1000
0010
0100
0010
0001
,
0100
0010
0100
0001
1000
0001
0010
0100
,
2000
0000
0000
0000
0000
0000
0000
0000
0010
0000
0010
0000
3010
0100
0000
0000
,
0010
1000
0001
0010
0100
0001
0100
1000
,
0002
0000
0000
0000
0010
0000
0000
0000
1003
0000
0000
0000
0001
0100
0001
0100
,
0020
0000
0000
0000
0000
0000
1030
0001
2000
0000
0000
0000
0000
0000
0000
0000
,
3001
0000
0000
0100
0000
0000
0010
0000
1000
0001
0000
0010
0000
0000
0100
0000
,
1000
0001
0100
0010
1000
0100
0010
0001
,
0202
0000
0000
0303
,
1000
0000
0001
0000
0000
1000
0000
0000
0010
0000
0000
0100
0000
0000
0001
0000
,
0000
0000
0010
0001
0000
0010
0001
0000
1000
0000
0000
0010
0000
0000
0100
0000
,
0001
0000
0000
1000
0000
0000
0100
0000
0010
0000
0000
0100
0000
0000
1000
0000
,
0010
0000
0000
1000
0000
0000
0001
0000
0010
0000
0000
0100
0000
0000
1000
0000
,
0010
0000
0000
0100
0000
0000
0001
0000
0010
0000
0000
0001
0000
0000
1000
0000
,
0100
0000
0000
1000
0000
0000
0010
0000
0100
0000
0000
0001
0000
0000
0010
0000
,
0001
0000
0000
0010
0000
0000
1000
0000
0100
0000
0000
0010
0000
0000
0001
0000
,
0010
0001
0100
0001
0010
0100
1000
0000
,
0010
1000
0001
0000
0010
1000
0001
0000
,
0010
0001
1000
0100
0001
0100
1000
0000
,
0010
1000
0100
0000
0010
1000
0100
0000
,
0001
1000
0100
0010
0001
0100
1000
0000
,
0010
1000
0100
0010
0001
1000
0010
0000
,
0100
0000
0001
0010
0000
0001
0010
0000
0100
0000
1000
0001
0000
1000
0001
0000
,
0010
0000
0001
0100
0000
0100
0010
0000
1000
0000
0100
1000
0000
1000
0001
0000
,
2002
0000
0000
0000
,
0003
0000
0000
0000
0000
0000
3001
0010
,
0200
0000
0000
0000
,
0000
0000
0000
0000
,
0000
0000
0000
0000
,
0000
0000
0000
0000
,
0300
0000
0000
0000
;

//---------------dance-single - ----------------
#NOTES:
     dance-single:
     :
     Medium:
     11:
     0.467194,0.524350,0.259444,0.402821,0.047792,479.000000,441.000000,38.000000,59.000000,0.000000,0.000000,0.467194,0.524350,0.259444,0.402821,0.047792,479.000000,441.000000,38.000000,59.000000,0.000000,0.000000:
0000
0000
0000
0000
,
0000
0000
0000
0000
,
0000
0000
0000
0000
,
0000
0000
0000
0000
,
0000
0000
0000
0000
,
0000
0000
0000
0000
,
0010
0001
1000
0000
0100
0000
0101
0000
,
0001
1000
0010
0000
0100
0000
1100
0000
,
0001
0010
1000
0000
0001
0100
1000
0000
,
2002
0000
0000
3003
,
0001
0010
0100
1000
0010
0100
0001
1000
,
0200
0000
0000
0000
1300
0001
0100
0010
,
2000
0000
0000
0001
3002
0000
0013
0000
,
0022
0000
0030
1000
2000
0000
3003
0000
,
2020
0000
0000
0000
0030
0000
0000
0000
3001
0000
0000
1000
0000
0000
0001
0000
,
0010
0000
0000
0100
0000
0000
1000
0000
0000
0001
0000
0000
1000
0000
0010
0000
,
0200
0001
0320
0001
,
2030
0100
0010
3001
,
1000
0100
0001
0000
0010
0100
1000
0000
,
0001
1000
0010
1000
0100
0010
0001
0000
,
0220
0000
0330
0000
1000
0100
0010
0000
,
0001
1000
0010
0100
0001
0010
0100
1000
,
0020
0001
0100
1030
,
2100
3100
0012
0013
,
0010
0000
0000
0010
0000
0000
0010
0000
0001
0000
0100
0000
1000
0000
0000
0000
,
0001
0010
0100
0000
1000
0010
0100
0000
,
0001
0010
0100
0000
1000
0001
0100
0000
,
0010
1000
0100
0010
0001
1000
0100
0000
,
1000
0010
0001
0000
1000
0010
0100
0000
,
0010
1000
0100
1000
0100
0010
0001
0000
,
2002
0000
0003
0100
0100
0000
3001
0000
,
0220
0000
0330
0000
0001
0100
0010
1000
,
0020
1030
0200
0301
,
2002
0000
0000
0000
3003
0000
1000
0001
,
0200
0000
0010
0000
0301
0100
1000
0000
,
1010
0000
0000
0000
0011
0000
0000
0000
1000
0000
0000
0001
0000
0000
0010
0000
,
0200
0000
0000
2300
0000
0001
3001
0000
,
0010
0000
0000
0000
0001
0000
0000
0000
0100
0000
0000
0010
0000
0000
0100
0000
,
0001
0010
0100
0000
0010
1000
0100
0000
,
2000
0000
0000
3002
0000
0000
0013
0001
,
0100
0010
0000
1001
0000
0001
0100
0000
,
2010
0001
0001
0000
0100
0100
3100
0000
,
1000
0001
0010
0000
0001
0100
1000
0000
,
0001
0010
0100
1000
0010
0100
0001
0000
,
0010
0100
1000
0000
0001
0010
1000
0000
,
0100
1000
0001
0010
0001
1000
0100
0000
,
0022
0000
0000
0000
0030
0000
1000
0000
1003
0000
0000
0001
0000
0000
0100
0000
,
0020
0000
0000
2030
0000
0000
3001
0000
,
0201
0000
0010
0000
0301
1000
0100
0010
,
0002
0000
0103
0020
0000
1030
0001
0000
,
1000
0100
0001
0000
0010
0100
0001
0000
,
1000
0000
0010
0000
0100
0001
1000
0000
,
0001
0000
0010
0000
1000
0100
0010
0000
,
0001
0000
1000
0000
0010
1000
0100
0010
,
0100
0000
1000
0000
0010
0100
0001
0000
,
1000
0000
0000
1000
0000
0000
1000
0000
0001
0000
0000
0001
0000
0000
0001
0000
,
0010
0000
0001
0000
0100
0010
1000
0001
,
2002
0000
0000
3003
,
1000
0001
1000
0100
0010
0001
0100
0010
,
2000
0000
0000
3100
1000
0001
0010
0100
,
0020
0000
0000
0001
0032
0000
0103
0010
,
2000
0000
0000
0001
3002
0000
0103
0000
,
0202
0000
0000
0000
0303
0000
1000
0000
0010
0000
0000
0100
0000
0000
0001
0000
,
1000
0000
0000
1000
0000
0000
1000
0000
0000
1000
0000
0000
1000
0000
0001
0000
,
0200
0010
1000
0301
,
0010
0100
0010
0001
0100
0010
1000
0000
,
0010
1000
0001
0000
0010
0100
1000
0000
,
0010
0100
0010
1000
0100
0010
0001
0000
,
2200
0000
0300
0000
0001
0001
3001
0000
,
1000
0001
1000
0010
0100
0010
0100
0001
,
0020
0000
1000
0000
0001
0000
0130
1000
,
0002
0000
0103
0010
2000
0000
3010
0000
,
1000
0000
0000
0100
0000
0000
1000
0000
0001
0000
0000
0100
0000
0000
0001
0000
,
0010
0001
0100
0010
1000
0100
1000
0001
,
2002
0000
0000
3003
,
0010
0000
1000
0000
0100
0010
0001
0000
,
1000
1100
0001
0101
,
0010
1010
0001
0011
,
0100
1001
0010
0110
,
1000
0011
0100
1100
,
0010
0101
0001
1010
,
1000
0110
0010
1001
,
0010
0000
0110
0000
0100
0001
1000
0000
,
0100
0000
1100
0000
1000
0010
0001
0000
,
0001
0000
1010
0000
0100
0010
1000
0000
,
1000
0000
0011
0000
0010
0100
0001
0000
,
0010
0001
0100
0000
0001
1000
0100
0000
,
0010
0100
1000
0000
0001
0010
1000
0000
,
0100
0010
0001
0100
0001
1000
0010
0000
,
1000
0100
0010
0100
0010
0001
1000
0000
,
2002
0000
0000
0000
,
0003
0000
0000
0000
0000
0000
3010
1000
,
0200
0000
0000
0000
,
0000
0000
0000
0000
,
0000
0000
0000
0000
,
0000
0000
0000
0000
,
0300
0000
0000
0000
;

//---------------dance-single - ----------------
#NOTES:
     dance-single:
     :
     Easy:
     7:
     0.268222,0.327719,0.191169,0.505233,0.000000,275.000000,247.000000,28.000000,74.000000,0.000000,0.000000,0.268222,0.327719,0.191169,0.505233,0.000000,275.000000,247.000000,28.000000,74.000000,0.000000,0.000000:
0000
0000
0000
0000
,
0000
0000
0000
0000
,
0000
0000
0000
0000
,
0000
0000
0000
0000
,
0000
0000
0000
0000
,
0000
0000
0000
0000
,
0010
0001
0100
1000
,
0010
1000
0100
0001
,
1000
0100
0010
0001
,
2002
0000
0000
3003
,
1000
0001
0100
0010
,
0220
0330
0010
1000
,
0020
0000
0200
0330
,
0002
0000
2000
3003
,
0002
0000
0100
0013
,
1000
0100
0010
0001
,
0202
0300
2000
3000
,
0200
0000
0000
0303
,
0010
0001
0010
0100
,
1000
0010
0100
0001
,
2020
3030
1000
0100
,
0010
0001
0100
1000
,
0202
0000
0000
0303
,
2000
0000
0020
3030
,
0100
1001
0010
0001
,
2000
3000
0002
0003
,
0110
0010
1000
0100
,
0010
0001
1000
0001
,
0010
0100
0010
0001
,
1000
0010
0001
0100
,
2002
3003
0010
1000
,
0220
0330
0001
0100
,
0202
0303
2200
3300
,
2002
0000
3000
1003
,
0022
0000
0000
0033
,
0001
0001
1000
1000
,
0020
0000
0000
0200
0000
0000
0000
0000
,
0330
0001
1000
0001
,
0010
0100
1000
0010
,
0100
0001
0010
1000
,
0002
0000
0000
2000
0000
0000
3003
0000
,
2020
0000
0000
3030
,
0010
1000
0100
0010
,
0001
0100
1000
0010
,
1000
0010
0100
1000
,
0001
0010
0100
1000
,
2200
3300
0001
1000
,
0020
0000
0000
2030
0000
0000
3001
0000
,
0220
0000
0030
0301
,
2000
0000
0000
3020
0000
0000
0130
0000
,
0101
1000
0010
0100
,
0001
0000
0010
1000
,
0100
0000
1001
0000
,
0010
0000
1000
0001
,
0010
0000
0001
0100
,
1000
1000
0001
0001
,
0100
0000
0010
1000
,
0220
0000
0000
0330
,
0001
0100
1000
0010
,
2002
3003
0010
1000
,
0200
0000
0020
0330
,
0002
0000
2000
3003
,
0022
0033
1000
0001
,
0010
0010
0010
0010
,
2002
3000
0200
0300
,
2000
0000
0000
3003
,
0010
1000
0100
0001
,
0010
1000
0001
0100
,
2020
3030
0100
0100
,
0001
1000
0100
0010
,
2200
0000
0300
3010
,
0202
0303
2020
3030
,
0001
0010
0100
1000
,
0010
0010
0100
0100
,
0220
0000
0000
0330
,
0001
0000
1000
0000
,
0010
0000
1000
0000
,
0100
0000
0001
0000
,
0100
0000
0100
0000
,
0010
0000
0010
0000
,
1000
0000
1000
0000
,
0001
0000
0001
0000
,
0010
0001
1000
0000
,
0100
1000
0010
0000
,
0100
0001
1000
0000
,
0001
0010
0100
0000
,
1000
0100
1000
0000
,
0001
0100
0001
0000
,
0010
0010
0100
0100
,
1000
0001
1000
0001
,
2002
0000
0000
0000
,
0003
0000
0000
3001
,
0200
0000
0000
0000
,
0000
0000
0000
0000
,
0000
0000
0000
0000
,
0000
0000
0000
0000
,
0300
0000
0000
0000
;

//---------------dance-single - ----------------
#NOTES:
     dance-single:
     :
     Beginner:
     3:
     0.139476,0.219845,0.068275,0.081930,0.000000,143.000000,133.000000,10.000000,12.000000,0.000000,0.000000,0.139476,0.219845,0.068275,0.081930,0.000000,143.000000,133.000000,10.000000,12.000000,0.000000,0.000000:
// measure 0
0000
0000
0000
0000
,  // measure 1
0000
0000
0000
0000
,  // measure 2
0000
0000
0000
0000
,  // measure 3
0000
0000
0000
0000
,  // measure 4
0000
0000
0000
0000
,  // measure 5
0000
0000
0000
0000
,  // measure 6
0010
0000
0000
0000
,  // measure 7
0100
0000
0000
0000
,  // measure 8
0001
0000
0000
0000
,  // measure 9
1001
0000
0000
0000
,  // measure 10
1000
0000
0100
0000
,  // measure 11
0001
0000
0010
0000
,  // measure 12
0002
0000
0003
0000
,  // measure 13
2000
0000
3000
0000
,  // measure 14
0010
0000
0100
0000
,  // measure 15
0001
0000
1000
0000
,  // measure 16
0100
0000
0100
0000
,  // measure 17
0200
0000
0300
0000
,  // measure 18
0001
0000
0001
0000
,  // measure 19
1000
0000
1000
0000
,  // measure 20
0010
0000
0100
0000
,  // measure 21
0001
0000
0100
0000
,  // measure 22
0110
0000
0000
0000
,  // measure 23
1000
0000
0001
0000
,  // measure 24
0010
0000
0100
0000
,  // measure 25
0020
0000
0030
0000
,  // measure 26
0002
0000
0000
0000
,  // measure 27
0000
0000
0003
0000
,  // measure 28
0010
0000
0000
0000
,  // measure 29
0010
0000
0000
0000
,  // measure 30
1001
0000
0100
0000
,  // measure 31
0010
0000
0000
0000
,  // measure 32
1000
0000
0001
0000
,  // measure 33
1001
0000
0000
0000
,  // measure 34
0020
0000
0030
0000
,  // measure 35
1000
1000
1000
0000
,  // measure 36
0200
0000
0300
0000
,  // measure 37
0000
0001
0001
0000
,  // measure 38
1000
0000
0001
0000
,  // measure 39
0010
0000
0100
0000
,  // measure 40
1000
0000
1000
0000
,  // measure 41
0020
0000
0030
0000
,  // measure 42
1000
1000
1000
1000
,  // measure 43
0000
0000
0000
0000
,  // measure 44
0001
0001
0001
0001
,  // measure 45
0000
0000
0000
0000
,  // measure 46
0110
0000
0100
0000
,  // measure 47
0001
0000
1000
0000
,  // measure 48
1001
0000
0000
0000
,  // measure 49
0010
0000
0010
0000
,  // measure 50
1001
0000
0000
0000
,  // measure 51
0000
0000
0000
0000
,  // measure 52
0001
0000
0001
0000
,  // measure 53
1000
0000
0010
0000
,  // measure 54
0100
0000
0000
0000
,  // measure 55
0001
0001
0001
0000
,  // measure 56
1000
0000
0001
0000
,  // measure 57
1001
0000
0000
0000
,  // measure 58
0010
0000
0100
0000
,  // measure 59
0010
0000
1000
0000
,  // measure 60
0200
0000
0300
0000
,  // measure 61
0020
0000
0030
0000
,  // measure 62
0001
0000
0001
0000
,  // measure 63
0100
0100
0100
0000
,  // measure 64
1000
0000
0010
0000
,  // measure 65
2000
0000
3000
0000
,  // measure 66
0001
0000
0010
0000
,  // measure 67
0001
0000
0100
0000
,  // measure 68
0010
0000
1000
0000
,  // measure 69
0100
0000
1000
0000
,  // measure 70
0002
0000
0003
0000
,  // measure 71
1000
0000
1000
0000
,  // measure 72
0100
0000
0001
0000
,  // measure 73
0010
0000
0010
0000
,  // measure 74
0110
0000
0000
0000
,  // measure 75
0000
0000
0000
0000
,  // measure 76
1000
0000
0000
0000
,  // measure 77
0010
0000
0000
0000
,  // measure 78
0100
0000
0000
0000
,  // measure 79
0001
0000
0000
0000
,  // measure 80
0010
0000
0000
0000
,  // measure 81
1000
0000
0000
0000
,  // measure 82
0001
0000
0001
0000
,  // measure 83
0001
0000
0000
0000
,  // measure 84
1000
0000
1000
0000
,  // measure 85
1000
0000
0000
0000
,  // measure 86
0010
0000
0010
0000
,  // measure 87
0100
0000
0100
0000
,  // measure 88
1000
0000
0001
0000
,  // measure 89
1000
0000
0001
0000
,  // measure 90
1001
0000
0000
0000
,  // measure 91
0000
0000
0000
0000
,  // measure 92
0100
0000
0000
0000
;
