#TITLE:For You;
#SUBTITLE:;
#ARTIST:Manfred Mann's Earth Band;
#TITLETRANSLIT:;
#SUBTITLETRANSLIT:;
#ARTISTTRANSLIT:;
#GENRE:;
#CREDIT:;
#BANNER:For You-bn.png;
#BACKGROUND:For You-bg.png;
#LYRICSPATH:;
#CDTITLE:;
#MUSIC:For You.ogg;
#OFFSET:0.000000;
#SAMPLESTART:61.602001;
#SAMPLELENGTH:20.000000;
#SELECTABLE:YES;
#DISPLAYBPM:127.000000:130.000000;
#BPMS:0.000000=128.779999
,76.000000=128.000000
,84.000000=126.999992
,100.000000=129.000000
,140.000000=128.449997
,202.000000=127.500000
,230.000000=130.000000
,234.000000=128.666672
,254.000000=129.250000
;
#STOPS:
;
#BGCHANGES:;
#KEYSOUNDS:;
#ATTACKS:;

//---------------dance-single - ----------------
#NOTES:
     dance-single:
     :
     Hard:
     12:
     0.467537,0.533683,0.111571,0.171076,0.037190,440.000000,425.000000,15.000000,23.000000,0.000000,0.000000,0.467537,0.533683,0.111571,0.171076,0.037190,440.000000,425.000000,15.000000,23.000000,0.000000,0.000000:
0000
0000
0000
0000
,
0000
0000
0000
0000
,
0000
0000
0000
0000
,
0000
0000
0000
0000
,
0000
0000
0000
0000
,
0000
0000
0000
0000
,
0000
0000
0000
0000
,
0000
0000
0000
0000
,
0100
0001
0010
0200
0000
0000
1300
0001
,
1000
0000
0010
0000
0100
0000
0000
0000
0000
0000
0002
0000
0000
2003
0000
0000
,
3010
0000
0000
1000
0000
0000
0100
0000
0010
0000
0000
0001
0000
0000
1000
0000
,
0010
0100
0001
0000
1000
0000
0100
1000
,
0010
0100
0010
2000
0000
0001
3001
0000
,
0010
0001
1000
0010
0000
0100
0001
1000
,
2200
0000
0300
0001
3002
0000
0000
0103
,
0001
1000
0010
0000
1000
0000
0001
0000
,
0012
0000
1000
0000
0103
0001
1000
0001
,
0010
0100
1000
0002
0000
0000
0013
0001
,
1000
0001
1000
0020
0000
0100
0130
0000
,
0001
0000
0010
0001
1000
1000
0010
0010
,
1000
0100
0010
0001
0100
0000
0010
1000
,
0001
0001
0100
0010
1000
0100
1000
0001
,
0010
0100
0010
0001
0100
0001
1000
0010
,
0110
0000
0010
0100
0001
0001
1000
0100
,
1000
0010
0100
0001
0010
0100
1000
0001
,
0001
1000
0010
1000
0100
0010
0001
0000
,
1000
0001
0010
0001
0100
0010
1000
0000
,
1010
0010
1000
0001
0010
0001
0100
0010
,
1000
0100
0010
0001
0100
0001
1000
0000
,
0101
0001
1000
0010
1000
0100
0010
0001
,
0100
0010
0100
0001
0010
0100
1000
0000
,
1001
0100
0001
0010
0001
1000
0100
0010
,
0100
1000
0010
0100
0001
0010
0100
1000
,
0010
1000
0100
0010
1000
0010
0001
0100
,
1000
0100
0001
0000
0010
0100
1000
0000
,
0001
0100
0010
0001
0010
1000
0100
0001
,
0100
0010
1000
0000
0010
0100
0001
0000
,
0010
0001
0100
1000
0100
0010
1000
1200
,
0000
1000
1300
0001
0100
0010
0100
0001
,
0020
0000
0031
1000
0201
0000
0310
0100
,
0110
0001
1000
0100
2001
0000
0010
0000
,
0100
0000
0000
0000
3010
0000
1000
0001
1000
0000
0010
0000
0100
0001
0100
0000
,
0001
0000
0010
0000
0100
1000
0100
0000
1000
0000
0010
0000
1000
0000
0001
0000
,
0010
0100
0010
0001
1000
0100
1000
0001
,
0010
0001
0010
0100
2000
0000
0001
0000
,
0100
0000
3001
2000
0100
0000
3010
0002
,
0100
0100
0103
0000
0001
1000
0001
0100
,
0010
0000
1000
0100
0000
1000
0001
0000
0010
0000
0001
0000
0100
0000
0010
0000
,
1000
0100
1000
0010
1000
0100
0010
0001
,
0100
0000
0010
0000
0100
0000
1000
0000
0100
0000
0001
0000
0010
0100
0010
0000
,
0001
0000
0100
0000
0010
1000
0010
0000
1000
0000
0100
0000
0010
0000
0100
0000
,
1000
0100
0010
0100
1000
0010
0100
0010
,
1000
0010
0100
0001
0010
1000
0010
0100
,
0010
0001
0100
0010
1000
0001
0010
0100
,
1000
0010
0100
0001
0100
1000
0100
0001
,
0010
0100
0010
0001
1000
0100
0001
0000
,
0010
0100
1000
0000
0010
1000
0001
0010
,
0001
0100
0010
2010
0000
0001
3001
1000
,
0010
1000
0100
0010
0001
0100
0001
0010
,
1000
0010
0001
0100
0010
1000
0100
0000
,
1000
0001
0100
0000
0001
0010
1000
0010
,
0001
0100
0010
0001
0010
1000
0001
0000
,
1000
0100
0001
0000
1000
0001
0100
0010
,
1000
0001
0010
0021
0000
0100
0130
0010
,
0001
0100
0001
1000
0002
0000
0103
1000
,
2010
0000
3010
0100
0110
0001
1000
2001
,
0000
0000
3010
0100
1000
0100
0001
0000
,
0010
0001
0100
0000
0010
1000
0100
0000
,
0002
0000
0000
0000
,
0000
0000
0000
0000
,
0000
0000
0000
0000
,
0000
0000
0000
0003
;

//---------------dance-single - ----------------
#NOTES:
     dance-single:
     :
     Medium:
     9:
     0.352778,0.426947,0.148762,0.327276,0.018595,332.000000,312.000000,20.000000,44.000000,0.000000,0.000000,0.352778,0.426947,0.148762,0.327276,0.018595,332.000000,312.000000,20.000000,44.000000,0.000000,0.000000:
0000
0000
0000
0000
,
0000
0000
0000
0000
,
0000
0000
0000
0000
,
0000
0000
0000
0000
,
0000
0000
0000
0000
,
0000
0000
0000
0000
,
0000
0000
0000
0000
,
0000
0000
0000
0000
,
1000
0010
0000
0100
0000
0000
0001
1000
,
0000
0010
0000
0000
0000
0000
0000
0000
0000
0000
1000
0000
0000
0001
0000
0000
,
0010
0000
0000
0010
0000
0000
0010
0000
0100
0000
0000
0100
0000
0000
0100
0000
,
1000
0000
0000
0001
0000
0000
0000
0000
0000
0000
0000
0000
0100
0000
0010
0000
,
0100
0001
0000
2000
0000
0000
3001
0000
,
1000
0010
0000
0200
0000
0000
0300
0001
,
0020
0000
0030
0001
2000
0000
3000
0010
,
0100
0001
0000
0000
2000
0000
3000
0000
,
0002
0000
0000
0000
0003
0010
0001
0100
,
0001
1000
0000
0110
0000
0000
0010
1000
,
0001
1000
0100
0010
0000
0001
1000
0000
,
0000
0000
0010
0100
0010
0100
0010
0100
,
0001
1000
0000
1100
0000
0000
0000
0000
,
1000
0001
0100
0000
0010
1000
0100
0000
,
0010
0001
1000
0000
0001
0100
0010
0000
,
1000
0000
0010
0100
0001
0010
0100
0000
,
1000
0000
0001
1000
0010
0100
0001
0000
,
0010
0001
1000
0000
0010
0100
0001
0000
,
0010
0100
0010
0000
0001
1000
0100
0000
,
0011
0000
0001
0100
0010
1000
0001
0000
,
1010
0000
0010
0100
0010
1000
0001
0000
,
0101
0000
0010
0100
0001
1000
0001
0000
,
0010
0001
0100
0000
0100
0010
1000
0000
,
1001
0000
0001
1000
0100
0010
0100
0000
,
1000
0010
0100
0000
0001
0010
1000
0000
,
0001
0100
0010
2000
0000
3200
0000
0310
,
0001
0101
1000
1100
,
0010
1000
0001
0020
0000
0230
0000
1300
,
0010
1010
0001
0011
,
1000
0001
1000
0020
0000
0230
0000
0302
,
0000
1000
2003
0000
0010
0000
3001
0100
,
0002
0000
0000
0100
0203
0000
0000
0010
,
0310
0100
0001
1000
2001
0000
0010
0000
,
0100
0000
3010
0000
1000
0100
0010
0001
,
0100
0010
1000
0000
0001
0100
1000
0000
,
1000
0100
0001
0000
0001
0010
1000
0000
,
1000
0010
0001
0000
0220
0000
0000
0000
,
0030
0000
0301
2000
0000
3000
0010
0200
,
0000
0000
0300
0000
0001
0100
0010
1000
,
0100
0010
0001
0000
1000
0001
0010
0001
,
0100
0010
1000
0000
0010
1000
0001
0000
,
1000
0100
0001
0000
0010
0100
0010
0001
,
0100
0001
1000
0000
0010
2000
0000
3002
,
0000
0203
0000
0310
1000
0100
0001
0000
,
0010
0001
1000
0000
0010
0200
0000
0320
,
0000
2030
0000
3001
0100
0010
1000
0000
,
0100
0010
0001
0000
1000
0010
1000
0002
,
0000
0203
0000
0310
1000
0000
0101
0000
,
0001
0000
1010
0000
0010
1000
0001
0020
,
0000
0230
0000
2300
0000
0001
3001
0000
,
1100
0000
0101
0000
0001
1000
0010
2000
,
0000
3002
0000
0103
0001
0000
0110
0000
,
1000
0000
1001
0000
0010
1000
0100
0020
,
0000
0032
0000
0103
0010
0000
1010
0000
,
0100
0000
0101
0000
0001
0010
0001
0200
,
0000
0320
0000
2030
0000
0100
3200
0000
,
0001
0000
1300
0001
0200
0000
0000
0010
,
0320
0000
0000
1000
1030
0001
0100
0020
,
0000
0100
1000
0001
,
0100
0001
0100
1030
,
0002
0000
0000
0000
,
0000
0000
0000
0000
,
0000
0000
0000
0000
,
0000
0000
0000
0003
;

//---------------dance-single - ----------------
#NOTES:
     dance-single:
     :
     Easy:
     6:
     0.239082,0.293526,0.111571,0.044629,0.000000,225.000000,210.000000,15.000000,6.000000,0.000000,0.000000,0.239082,0.293526,0.111571,0.044629,0.000000,225.000000,210.000000,15.000000,6.000000,0.000000,0.000000:
0000
0000
0000
0000
,
0000
0000
0000
0000
,
0000
0000
0000
0000
,
0000
0000
0000
0000
,
0000
0000
0000
0000
,
0000
0000
0000
0000
,
0000
0000
0000
0000
,
0000
0000
0000
0000
,
0010
0001
0100
0010
,
1000
0000
0000
0010
,
1000
1000
0001
0001
,
0010
0000
0000
0001
,
0100
0010
1000
0001
,
0010
0100
1000
0000
,
1010
0000
0011
0000
,
1001
0000
0010
0000
,
1000
0000
0000
1000
,
0010
0010
1000
0001
,
0010
0100
1000
0001
,
0000
0010
0110
1001
,
0001
0100
1000
0000
,
0001
0100
0001
0100
,
0010
1000
0010
1000
,
0100
0010
0001
0100
,
0001
0010
0001
1000
,
0010
1000
0010
0100
,
0001
0010
1000
0100
,
0010
0001
0100
0010
,
1000
0100
0001
1000
,
0001
0010
0001
1000
,
0010
0001
0100
0010
,
1000
0100
1000
0001
,
0010
0100
1000
0001
,
1001
0010
1000
0001
,
0010
0100
0010
0001
,
0110
1000
0010
0100
,
0010
1000
0100
0001
,
0011
0001
0100
0010
,
1000
0100
1000
0001
,
0101
0000
1100
0000
,
0001
1000
2002
0000
,
0000
0000
0000
0000
,
0000
3003
0010
0001
,
0100
1000
0010
0100
,
0001
1000
0220
0000
,
0330
0001
1000
0100
,
0010
0000
0001
0100
,
1000
0010
0100
1000
,
0010
0001
0010
0100
,
0010
0001
0100
0010
,
1000
0001
0010
0010
,
0001
1000
0010
1000
,
0100
0010
0100
0100
,
1000
0001
0010
0001
,
0100
1000
0010
0100
,
0010
1000
0100
0001
,
0010
0100
0010
0001
,
1000
0010
1000
0001
,
0010
1000
0100
1000
,
0010
0100
0010
1000
,
0100
0010
0001
0100
,
0001
1000
0010
0001
,
0100
1000
0010
0100
,
0010
1000
0100
0010
,
0001
1000
1010
0000
,
0011
0000
0100
0010
,
2001
0000
0001
0000
,
0100
0000
0010
0000
,
3002
0000
0000
0000
,
0000
0000
0000
0000
,
0000
0000
0000
0000
,
0000
0000
0000
0003
;

//---------------dance-single - ----------------
#NOTES:
     dance-single:
     :
     Beginner:
     2:
     0.108384,0.151737,0.081819,0.000000,0.000000,102.000000,91.000000,11.000000,0.000000,0.000000,0.000000,0.108384,0.151737,0.081819,0.000000,0.000000,102.000000,91.000000,11.000000,0.000000,0.000000,0.000000:
0000
0000
0000
0000
,
0000
0000
0000
0000
,
0000
0000
0000
0000
,
0000
0000
0000
0000
,
0000
0000
0000
0000
,
0000
0000
0000
0000
,
0000
0000
0000
0000
,
0000
0000
0000
0000
,
0001
0000
0001
0000
,
0001
0000
0000
0000
,
1000
0000
1000
0000
,
1000
0000
0000
0000
,
0010
0000
0010
0000
,
0010
0000
0000
0000
,
0100
0000
0100
0000
,
0100
0000
0000
0000
,
0000
0000
0000
0000
,
0001
0000
1000
0000
,
0010
0000
0100
0000
,
0000
0000
0001
0000
,
0010
0000
0010
0000
,
0001
0000
0100
0000
,
0010
0000
1000
0000
,
0000
0000
0001
0000
,
1000
0000
0010
0000
,
1000
0000
1000
0000
,
0001
0000
0000
0000
,
0100
0000
0010
0000
,
1000
0000
0000
0000
,
0100
0000
1000
0000
,
0001
0000
0000
0000
,
0010
0000
0010
0000
,
0010
0000
0000
0000
,
1001
0000
0000
0000
,
0001
0000
1000
0000
,
1001
0000
0000
0000
,
0010
0000
0100
0000
,
0110
0000
0000
0000
,
0001
0000
0010
0000
,
0001
0000
0001
0000
,
1000
0000
1001
0000
,
0000
0000
0000
0000
,
0000
0000
0010
0000
,
0001
0000
0100
0000
,
1000
0000
1001
0000
,
0000
0000
0010
0000
,
0000
0000
0100
0000
,
0100
0000
0010
0000
,
0010
0000
1000
0000
,
1000
0000
0001
0000
,
0001
0000
0010
0000
,
0001
0000
1000
0000
,
0000
0000
0100
0000
,
0010
0000
0001
0000
,
0000
0000
0110
0000
,
0000
0000
0001
0000
,
1000
0000
1001
0000
,
0000
0000
0010
0000
,
0100
0000
0110
0000
,
0000
0000
0100
0000
,
0001
0000
1001
0000
,
0000
0000
1000
0000
,
0100
0000
0110
0000
,
0000
0000
0010
0000
,
0100
0000
1000
0000
,
1000
0000
0001
0000
,
1001
0000
0000
0000
,
0000
0000
0000
0000
,
0001
0000
0000
0000
;

//---------------dance-single - ----------------
#NOTES:
     dance-single:
     :
     Challenge:
     15:
     0.619487,0.880578,0.252895,0.238019,0.330995,583.000000,549.000000,34.000000,32.000000,0.000000,0.000000,0.619487,0.880578,0.252895,0.238019,0.330995,583.000000,549.000000,34.000000,32.000000,0.000000,0.000000:
// measure 0
0000
0000
0000
0000
,  // measure 1
0000
0000
0000
0000
,  // measure 2
0000
0000
0000
0000
,  // measure 3
0000
0000
0000
0000
,  // measure 4
0000
0000
0000
0000
,  // measure 5
0000
0000
0000
0000
,  // measure 6
0000
0000
0000
0000
,  // measure 7
0000
0000
0000
0000
,  // measure 8
1001
0001
0100
0010
1000
0100
0010
0001
,  // measure 9
1000
0010
0100
0001
0010
0100
1000
0100
,  // measure 10
0010
0001
0100
0010
1000
0001
0010
0100
,  // measure 11
0010
0001
0100
0010
1000
0001
0100
0000
,  // measure 12
0110
0001
0100
0010
1000
0100
0001
1000
,  // measure 13
0001
0010
0100
1000
0010
0100
0001
1000
,  // measure 14
1020
0000
0130
0001
0012
0000
1003
0010
,  // measure 15
0100
0010
1000
0100
0010
0001
1000
0000
,  // measure 16
0001
0100
0010
1000
0100
0010
0001
1000
,  // measure 17
1100
0010
0100
0001
0010
0100
1000
0001
,  // measure 18
0010
0001
0100
0010
1000
0001
0101
0000
,  // measure 19
1001
0000
0010
0010
0100
0100
0001
0001
,  // measure 20
1000
0001
0010
0100
1000
0010
0100
0000
,  // measure 21
0011
0001
1000
0100
0010
0001
0100
0010
,  // measure 22
1000
0000
0100
0000
0010
0000
0001
0000
0100
0000
0010
0000
1000
0000
0001
0100
,  // measure 23
0001
0100
0010
0000
1000
0000
0010
0001
1000
0000
0100
0000
0010
0001
0100
0000
,  // measure 24
0010
0100
1000
0000
0100
0000
0001
1000
0100
0000
0010
0000
1000
0010
0001
0000
,  // measure 25
1000
0001
1000
0000
0100
0000
0010
1000
0010
0000
0100
0000
1000
0010
0100
0000
,  // measure 26
0001
0010
0001
0000
0100
0000
0010
1000
0010
0000
1000
0000
0100
0000
0010
0001
,  // measure 27
1000
0010
0100
0000
0001
0000
0010
1000
0010
0000
0001
0000
0100
0010
0001
0000
,  // measure 28
0010
1000
0001
0000
0100
0000
0001
0010
1000
0000
0001
0000
0100
0010
1000
0000
,  // measure 29
0010
0001
0100
0000
1000
0000
0100
0001
0010
0000
0001
0000
1000
0100
1000
0000
,  // measure 30
0010
0100
0001
0000
0010
0000
1000
0010
0100
0000
1000
0000
0010
0100
0001
0000
,  // measure 31
0010
0010
0001
0001
1000
1000
0100
0100
,  // measure 32
0001
0000
0001
0000
0100
0000
0100
0000
1000
0000
1000
0000
0010
0100
0010
0000
,  // measure 33
1001
0100
0100
0010
0010
1000
0001
0100
,  // measure 34
0110
0010
1000
0100
0011
0001
0100
1000
,  // measure 35
1010
0001
1000
0100
0010
0100
1000
0010
,  // measure 36
0110
0100
0001
0010
1010
0001
0100
0010
,  // measure 37
0101
1000
0100
0010
0100
0001
0100
2100
,  // measure 38
0000
3002
0203
0320
2030
3002
0023
0130
,  // measure 39
1001
0010
1000
0001
1010
0100
0010
1000
,  // measure 40
0011
0100
0010
1000
2001
0000
3200
0000
,  // measure 41
0320
0000
0000
0000
0031
0000
0100
0010
1000
0000
1000
0000
0100
0010
0001
0000
,  // measure 42
1000
0000
1000
0000
0010
0000
0001
0100
0010
1000
0010
1000
0010
1000
0010
1000
,  // measure 43
0001
0010
0001
0010
0001
0010
0001
0010
0100
1000
0100
1000
0100
1000
0100
1000
,  // measure 44
0001
0100
0001
0100
0001
0100
0001
0100
0020
0000
0000
0000
1000
0000
0000
0000
,  // measure 45
0001
0000
0000
0000
0130
0001
0020
0000
1000
0000
0000
0000
0031
0000
2000
0000
,  // measure 46
0010
0000
0100
0000
3001
0000
1000
0100
0010
0001
0100
0010
1000
0000
0100
0010
,  // measure 47
0001
0000
0100
0010
0000
0010
1000
0001
0010
0100
0010
0100
1000
0010
1000
0010
,  // measure 48
0001
0010
0001
0010
1000
0100
0010
0001
0100
0010
0100
0010
0100
0010
0100
0010
,  // measure 49
1000
0100
1000
0100
0010
0001
0010
0001
0100
0001
0100
0010
1000
0100
0010
0001
,  // measure 50
0010
0100
0010
0001
2000
0000
0000
0000
3001
1000
0010
0000
0001
0000
1000
0100
,  // measure 51
0001
0000
0100
0000
0010
0001
1000
0000
0010
0100
1000
0000
0100
0000
0001
0010
,  // measure 52
0100
0000
0001
0000
0100
1000
0010
0000
0100
0001
1000
0000
0010
0000
0001
0010
,  // measure 53
0100
0000
0010
0000
1000
0001
0100
0000
0001
0000
0001
0000
0010
0000
0010
0000
,  // measure 54
0100
0000
0100
0000
1000
0001
1000
0001
0100
0000
0010
0000
0010
0000
0001
0000
,  // measure 55
0100
0100
0001
1000
1100
0001
0010
0100
,  // measure 56
0110
1000
0010
0100
1001
0001
0010
1000
,  // measure 57
0010
0001
0100
0021
0000
0032
2003
3020
,  // measure 58
2030
0000
3200
0000
0320
0000
0031
1000
0010
0000
1000
0000
0100
0000
0001
0000
,  // measure 59
0010
0001
0100
0010
0101
1000
0100
0001
,  // measure 60
1100
0001
0010
0100
0011
1000
0010
0100
,  // measure 61
0001
0010
1000
0001
1001
0010
0100
1000
,  // measure 62
0011
1000
0100
0001
1010
0010
1000
0100
,  // measure 63
0001
0100
0010
2001
0000
3020
2030
3200
,  // measure 64
0302
0203
2300
3010
0110
0001
0010
1000
,  // measure 65
1100
0000
0010
0000
0100
0000
0001
0000
0010
0001
0010
0100
1000
0000
2001
0000
,  // measure 66
0000
0000
3010
0100
0001
0010
0100
1000
,  // measure 67
0010
0001
0010
1000
0100
0001
0100
1000
,  // measure 68
0002
0000
0000
0000
,  // measure 69
0000
0000
0000
0000
,  // measure 70
0000
0000
0000
0000
,  // measure 71
0000
0000
0000
0003
;
