#TITLE:Follow Me;
#SUBTITLE:;
#ARTIST:Uncle Kracker;
#TITLETRANSLIT:;
#SUBTITLETRANSLIT:;
#ARTISTTRANSLIT:;
#GENRE:;
#CREDIT:;
#BANNER:Follow Me-bn.png;
#BACKGROUND:Follow Me-bg.png;
#LYRICSPATH:;
#CDTITLE:;
#MUSIC:Follow Me.ogg;
#OFFSET:0.000000;
#SAMPLESTART:64.000000;
#SAMPLELENGTH:20.000000;
#SELECTABLE:YES;
#DISPLAYBPM:105.000000;
#BPMS:0.000000=105.000000
;
#STOPS:
;
#BGCHANGES:;
#KEYSOUNDS:;
#ATTACKS:;

//---------------dance-single - ----------------
#NOTES:
     dance-single:
     :
     Hard:
     10:
     0.390285,0.361345,0.209534,0.354596,0.000000,339.000000,313.000000,26.000000,44.000000,0.000000,0.000000,0.390285,0.361345,0.209534,0.354596,0.000000,339.000000,313.000000,26.000000,44.000000,0.000000,0.000000:
0000
0000
0000
0000
,
0000
0000
0000
0000
,
0000
0000
0000
0000
,
0000
0000
0000
0000
0000
0000
0000
0001
,
0001
1000
0010
1000
0100
0010
0001
0100
,
0000
0101
0000
1100
0000
0002
0000
2003
,
0000
3020
0000
0130
0001
0010
0100
1000
,
0000
1010
0000
0011
0000
0001
1000
0020
,
0000
1000
1030
0010
0100
0001
0000
1000
,
0010
0100
0001
2000
0000
0100
3100
1000
,
1001
0000
0001
0100
0110
0010
1000
0001
,
1000
0100
0010
0002
0000
0100
0103
0010
,
0000
1000
0001
2000
0100
0000
3001
1000
,
0010
1000
0100
1000
0002
0000
0103
0000
,
0001
1000
1000
1000
0010
0010
0100
0001
,
1000
0001
0010
0200
0000
1000
1300
0001
,
0000
0100
0010
2000
0001
0000
3010
1000
,
0001
1000
0010
0200
0000
0301
1000
0000
,
1001
0000
1001
0000
0010
0100
0001
1000
,
0000
1100
0000
0201
0000
0001
0301
1000
,
0001
0010
0100
1000
0010
1000
0001
0100
,
0001
0010
0100
1000
0000
0010
0100
0002
,
0000
0100
0103
0010
1000
0001
1000
0010
,
0100
0001
1000
0020
0000
0130
0110
0000
,
1010
1000
1000
0001
0010
0010
0000
0001
,
0100
0010
1000
0002
0000
0103
0101
0001
,
1000
1000
0001
0001
0010
0010
0100
0100
,
1000
0010
0000
1002
0000
0100
0103
0010
,
1000
0010
0100
0001
0010
0100
1000
0001
,
1000
0010
1000
0100
0002
0100
0103
0000
,
1000
0010
0010
0010
0100
0001
0001
1000
,
0001
0010
0100
2000
0000
0010
3010
0100
,
1000
0010
0100
0001
1000
0001
0010
0100
,
1000
0010
1000
0002
0000
0103
0010
0000
,
0110
0000
0110
0000
0010
0100
0001
1000
,
0000
1010
0000
0012
0000
1000
1003
0020
,
1030
0002
0103
0010
2000
0000
3100
0001
,
0010
0002
1003
0020
0000
0130
0010
2000
,
3001
0020
0031
1000
0200
0000
1300
0001
,
0100
0002
1003
0020
0000
1030
0010
2000
,
3001
0020
0031
0100
0020
0000
1030
0010
,
0001
0020
1030
0200
0000
1300
0001
0000
,
0110
0000
0110
0000
0010
0100
0001
1000
,
0000
1010
0000
0102
0000
0010
0013
0001
,
1000
0010
0100
0001
1000
0010
0100
0001
,
1000
0100
2000
0000
3002
0000
0013
0000
,
0001
0100
0100
0100
0001
1000
0010
0010
,
1000
0001
0000
0200
0000
0301
1000
0001
,
0000
0010
0100
2000
0000
0000
3010
0100
,
0001
0200
0000
0320
0000
1030
0010
0000
,
1001
0000
1001
0000
1000
0010
0100
0001
,
0000
0011
0000
2100
0000
0001
3001
1000
,
0200
0000
0000
0300
;

//---------------dance-single - ----------------
#NOTES:
     dance-single:
     :
     Medium:
     8:
     0.284367,0.297578,0.161180,0.274006,0.000000,247.000000,227.000000,20.000000,34.000000,0.000000,0.000000,0.284367,0.297578,0.161180,0.274006,0.000000,247.000000,227.000000,20.000000,34.000000,0.000000,0.000000:
0000
0000
0000
0000
,
0000
0000
0000
0000
,
0000
0000
0000
0000
,
0000
0000
0000
0000
,
0001
0000
0010
0000
1000
0001
0100
0000
,
1000
0010
0100
0001
,
0010
0000
0100
1000
0001
0000
0100
0000
,
0010
0000
1000
0000
0001
0000
0100
0010
,
1000
0000
0001
0000
0010
1000
0100
0000
,
1000
0000
0010
0100
0001
0000
0000
0001
,
1000
0000
0010
1000
0100
0000
0010
0001
,
1000
0000
0001
0200
0000
0010
0310
1000
,
0000
0001
1000
0001
0000
0000
0101
0000
,
1000
0010
0100
0000
0002
0000
0003
0000
,
0010
0000
0001
0000
0100
0010
1000
0010
,
1000
0001
0000
0020
0000
0001
0031
0000
,
0000
1000
0010
0100
0000
0000
1010
0000
,
1000
0001
0000
0010
0000
0001
1000
0000
,
1001
0000
1001
0000
1000
0001
0000
0200
,
0000
0320
0000
2030
0000
0000
3000
0000
,
0001
0010
0100
0000
1000
0010
1000
0000
,
0001
1000
0010
0100
,
0001
1000
0100
1000
0001
0000
0100
0000
,
0010
0000
1000
0001
0000
0000
0101
0000
,
1000
0010
0100
0000
0010
1000
0001
0000
,
0010
0000
0100
0000
1000
0001
0100
0000
,
0001
1000
0001
0000
0010
0100
1000
0000
,
0010
0100
0000
0110
0000
0001
1000
0000
,
0000
0010
1000
0100
0000
0000
1100
0000
,
1000
0100
0010
0000
0002
0000
0103
0000
,
0001
0010
0001
0100
0010
1000
0001
0000
,
1000
0100
0000
2000
0000
0001
3001
0000
,
1000
0010
0100
0001
0000
0000
0011
0000
,
0001
1000
0000
0010
0000
1000
0001
0000
,
0110
0000
0110
0000
0100
0001
0000
2000
,
0000
3020
0000
0230
0000
0300
0000
1002
,
0000
1000
2003
0000
3002
0000
0203
0000
,
0310
1000
0000
0200
0000
0300
0000
2100
,
0000
0010
3020
0000
2030
0000
3002
0000
,
0103
0001
0000
0020
0000
0030
0000
0021
,
0000
0001
0032
0000
0203
0000
0320
0000
,
0130
0001
0000
2000
0000
0000
3000
0000
,
0110
0000
0110
0000
0010
1000
0000
0002
,
0000
2003
0000
3002
0000
0000
0103
0000
,
0000
0001
1000
0010
0000
0000
1001
0000
,
0100
0010
1000
0000
0002
0000
0003
0000
,
0010
0000
0001
0000
1000
0010
1000
0001
,
0010
0100
0000
1100
0000
1000
0001
0000
,
0000
0100
0010
1000
0000
0000
0110
0000
,
0010
1000
0000
0001
0000
1000
0100
0000
,
1001
0000
1001
0000
1000
0010
0000
0200
,
0000
0302
0000
2003
0000
0001
3001
1000
,
0200
0000
0000
0300
;

//---------------dance-single - ----------------
#NOTES:
     dance-single:
     :
     Easy:
     5:
     0.174995,0.170045,0.000000,0.008059,0.000000,152.000000,152.000000,0.000000,1.000000,0.000000,0.000000,0.174995,0.170045,0.000000,0.008059,0.000000,152.000000,152.000000,0.000000,1.000000,0.000000,0.000000:
0000
0000
0000
0000
,
0000
0000
0000
0000
,
0000
0000
0000
0000
,
0000
0000
0000
0000
,
0001
1000
0001
0000
,
0010
0100
1000
0000
,
0100
1000
0010
0000
,
0100
0001
0010
0000
,
1000
0010
1000
0000
,
0001
0100
0001
0000
,
0100
0010
0100
0000
,
0010
1000
0001
0000
,
0000
0010
0000
0010
,
0001
0100
0001
0000
,
0000
1000
0001
1000
,
0010
1000
0100
0000
,
0000
0001
0000
0001
,
1000
0010
0100
0000
,
0010
0010
0010
0000
,
1000
0001
0100
0000
,
0001
0010
0001
1000
,
0100
0010
0001
0000
,
0100
0001
0100
0010
,
1000
0100
0001
0000
,
0010
0001
1000
0100
,
1000
0010
0100
0000
,
0001
1000
0001
0010
,
0001
1000
0100
0000
,
1000
0010
1000
0010
,
0100
0100
0001
0000
,
0010
0001
1000
0001
,
0010
0100
1000
0000
,
0010
1000
0100
0010
,
0100
1000
0001
0000
,
0100
0100
0100
0000
,
0010
1000
0001
0000
,
0010
0001
1000
0001
,
0100
0100
0100
0000
,
0010
1000
0100
1000
,
0001
0001
0001
0000
,
0010
0001
0100
0001
,
1000
1000
1000
0000
,
0001
0001
0001
0000
,
0010
0100
1000
0000
,
0000
0001
0000
1000
,
0010
1000
0001
0000
,
0100
0100
0010
0010
,
1000
0001
0100
0000
,
0000
0010
0000
0100
,
0001
1000
0100
0000
,
1000
1000
1000
0000
,
0010
0100
0001
0000
,
0200
0000
0000
0300
;

//---------------dance-single - ----------------
#NOTES:
     dance-single:
     :
     Beginner:
     2:
     0.101313,0.125720,0.000000,0.000000,0.000000,88.000000,88.000000,0.000000,0.000000,0.000000,0.000000,0.101313,0.125720,0.000000,0.000000,0.000000,88.000000,88.000000,0.000000,0.000000,0.000000,0.000000:
// measure 0
0000
0000
0000
0000
,  // measure 1
0000
0000
0000
0000
,  // measure 2
0000
0000
0000
0000
,  // measure 3
0000
0000
0000
0000
,  // measure 4
0000
0001
0000
0001
,  // measure 5
0000
0001
0000
0001
,  // measure 6
0000
1000
0000
1000
,  // measure 7
0000
1000
0000
0000
,  // measure 8
0010
0000
0000
0000
,  // measure 9
0100
0000
0000
0000
,  // measure 10
0001
0000
0000
0000
,  // measure 11
1000
0000
0000
0000
,  // measure 12
0000
0010
0000
0000
,  // measure 13
1000
0000
0001
0000
,  // measure 14
0000
0100
0000
0100
,  // measure 15
0000
0010
0000
0010
,  // measure 16
0000
1000
0000
0000
,  // measure 17
0001
0000
1000
0000
,  // measure 18
0010
0010
0010
0000
,  // measure 19
1000
0000
0001
0000
,  // measure 20
0000
0010
0000
0010
,  // measure 21
0000
0001
0000
0001
,  // measure 22
0000
1000
0000
1000
,  // measure 23
0000
0100
0000
0000
,  // measure 24
1000
0000
0010
0000
,  // measure 25
1000
0000
0001
0000
,  // measure 26
0010
0000
0100
0000
,  // measure 27
1000
0000
0000
0000
,  // measure 28
0000
0001
0000
0000
,  // measure 29
0100
0000
0001
0000
,  // measure 30
0000
1000
0000
1000
,  // measure 31
0000
0001
0000
0001
,  // measure 32
0000
0100
0000
0000
,  // measure 33
0010
0000
1000
0000
,  // measure 34
0100
0100
0100
0000
,  // measure 35
1000
0000
0001
0000
,  // measure 36
1000
0000
1000
0000
,  // measure 37
0001
0000
0001
0000
,  // measure 38
0010
0000
0010
0000
,  // measure 39
0100
0000
0100
0000
,  // measure 40
1000
0000
0010
0000
,  // measure 41
0001
0000
0100
0000
,  // measure 42
0001
0001
0001
0000
,  // measure 43
0010
0000
0100
0000
,  // measure 44
0000
1000
0000
0000
,  // measure 45
0010
0000
0001
0000
,  // measure 46
0000
1000
0000
0010
,  // measure 47
0000
0100
0000
0001
,  // measure 48
0000
0010
0000
0000
,  // measure 49
0001
0000
0100
0000
,  // measure 50
1000
1000
1000
0000
,  // measure 51
0010
0000
1000
0000
,  // measure 52
0100
0000
0000
0000
;
