#TITLE:Fly;
#SUBTITLE:;
#ARTIST:Sugar Ray ft. Supercat;
#TITLETRANSLIT:;
#SUBTITLETRANSLIT:;
#ARTISTTRANSLIT:;
#GENRE:;
#CREDIT:;
#BANNER:Fly-bn.png;
#BACKGROUND:Fly-bg.png;
#LYRICSPATH:;
#CDTITLE:;
#MUSIC:Fly.ogg;
#OFFSET:0.000000;
#SAMPLESTART:38.494217;
#SAMPLELENGTH:20.000;
#SELECTABLE:YES;
#DISPLAYBPM:100.000000;
#BPMS:0.000000=99.709999
;
#STOPS:
;
#BGCHANGES:;
#KEYSOUNDS:;
#ATTACKS:;

//---------------dance-single - x scale 2----------------
#NOTES:
     dance-single:
     :
     Beginner:
     2:
     0.088617,0.141122,0.054278,0.046524,0.000000,80.000000,73.000000,7.000000,6.000000,0.000000,0.000000,0.088617,0.141122,0.054278,0.046524,0.000000,80.000000,73.000000,7.000000,6.000000,0.000000,0.000000:
0000
0000
0000
0000
,
0000
0000
0000
0000
,
0000
0000
0000
0000
,
0000
0000
0000
0000
,
0000
0000
0000
0000
,
0001
0000
1000
0000
,
0010
0000
0000
0000
,
0100
0000
0000
0000
,
0010
0000
0010
0000
,
0010
0000
0000
0000
,
0100
0000
0100
0000
,
0100
0000
0000
0000
,
0001
0000
0001
0000
,
0001
0000
0000
0000
,
1000
0000
1000
0000
,
1000
0000
0000
0000
,
0020
0000
0030
0000
,
1001
0000
0000
0000
,
1000
0000
1000
0000
,
0001
0000
0001
0000
,
0200
0000
0300
0000
,
1001
0000
0000
0000
,
1000
0000
1000
0000
,
0001
0000
0001
0000
,
0000
0000
0000
0000
,
0100
0000
0010
0000
,
1000
0000
0000
0000
,
0001
0000
0000
0000
,
1000
1000
1000
0000
,
0010
0010
0010
0000
,
0100
0000
0100
0000
,
0100
0000
0000
0000
,
0001
0001
0001
0000
,
0100
0100
0100
0000
,
0010
0000
0010
0000
,
0010
0000
0000
0000
,
0002
0000
0003
0000
,
1001
0000
0000
0000
,
0100
0000
0100
0000
,
0010
0000
0010
0000
,
2000
0000
3000
0000
,
1001
0000
0000
0000
,
0100
0000
0100
0000
,
0010
0000
0010
0000
,
2000
0000
3000
0000
,
0001
0000
0100
0000
,
1001
0000
0000
0000
,
0010
0000
0000
0000
,
0020
0000
0030
0000
,
1000
0000
0001
0000
,
1001
0000
0000
0000
,
0100
0000
0000
0000
,
1001
0000
0000
0000
;

//---------------dance-single - x scale 5----------------
#NOTES:
     dance-single:
     :
     Easy:
     5:
     0.181665,0.221764,0.116310,0.139572,0.000000,164.000000,149.000000,15.000000,18.000000,0.000000,0.000000,0.181665,0.221764,0.116310,0.139572,0.000000,164.000000,149.000000,15.000000,18.000000,0.000000,0.000000:
0000
0000
0000
0000
,
0000
0000
0000
0000
,
0000
0000
0000
0000
,
0000
0000
0000
0000
,
0000
0001
0001
0001
,
0200
0000
0310
0000
,
1000
0010
0100
0000
,
0001
0100
0010
0000
,
1000
1000
0001
0001
,
0100
0010
0000
0010
,
1000
0000
0001
0000
,
0100
0000
0000
0000
,
0010
0010
0100
0100
,
0001
1000
0000
0000
,
0010
0010
0100
0000
,
0100
0100
0010
0000
,
2002
0000
3003
0100
,
1001
0010
0010
0010
,
1000
0001
0100
0100
,
0001
1000
0001
1000
,
0220
0000
0330
1000
,
0110
0001
0001
0001
,
0100
0010
1000
1000
,
0010
0100
0010
0100
,
0000
1000
1000
1000
,
0020
0000
0130
0000
,
0010
1000
0001
0000
,
0100
0001
1000
0000
,
1001
1000
0010
0000
,
0001
0100
0110
0000
,
0010
0010
0001
0001
,
1000
0100
0000
0000
,
0010
0100
0001
1000
,
0100
1000
0000
0000
,
0001
0001
1000
0000
,
1000
1000
0001
0000
,
0220
0000
0330
0010
,
0110
0100
0100
0100
,
0010
1000
1000
0001
,
1000
0010
0001
0001
,
2002
0000
3003
0001
,
1001
1000
1000
1000
,
0010
0010
0100
0001
,
0010
0001
0100
0100
,
2002
0000
3003
0100
,
0200
0000
0020
0330
,
1001
1000
0100
0100
,
0010
1000
1000
0001
,
0220
0000
0330
1000
,
2000
0000
0002
3003
,
0110
1000
0001
0001
,
0100
0010
0010
1000
,
1001
0000
0000
0000
;

//---------------dance-single - x scale 8----------------
#NOTES:
     dance-single:
     :
     Medium:
     8:
     0.275820,0.282245,0.162834,0.178342,0.011631,249.000000,228.000000,21.000000,23.000000,0.000000,0.000000,0.275820,0.282245,0.162834,0.178342,0.011631,249.000000,228.000000,21.000000,23.000000,0.000000,0.000000:
0000
0000
0000
0000
,
0000
0000
0000
0000
,
0000
0000
0000
0000
,
0000
0000
0000
0000
,
0000
0001
0100
0001
1000
0001
0010
0001
,
2000
0000
0000
0000
0000
0000
0000
0000
3001
0000
0000
0001
0000
0000
0001
0000
,
0100
0000
0010
1000
0001
0000
0000
0000
,
0000
1000
0100
0010
0001
0000
0000
0000
,
0001
0001
1000
1000
,
0010
0100
0010
0100
0000
0000
0001
0002
,
0000
0000
1003
2000
0000
0000
3001
0002
,
0000
0103
0000
0000
0010
0000
0010
0000
,
0100
0100
0010
0010
,
1000
0001
1000
0001
0000
0000
0000
0000
,
1000
0100
0001
0100
1000
0000
0000
0000
,
0001
0100
1000
0100
0001
0000
0000
0000
,
2002
0000
0000
0000
3003
0100
0010
1000
,
1100
0000
0001
0000
0001
0000
0001
0100
,
0010
0000
0010
1000
0100
0000
0100
1000
,
0001
0000
0001
0010
0100
0010
0100
0000
,
0220
0000
0000
0000
0330
1000
0001
0010
,
0011
0000
1000
0000
1000
0000
1000
0100
,
0001
0000
0001
1000
0010
0000
0010
0100
,
0001
0000
0001
1000
0100
1000
0100
0000
,
0000
1000
0010
1000
0100
1000
0001
1000
,
0020
0000
0000
0000
0000
0000
0000
0000
0130
0000
0000
0100
0000
0000
0100
0000
,
0001
0000
1000
0010
0100
0000
0000
0000
,
0000
0001
0010
0100
1000
0000
0000
0000
,
0110
0000
1000
0001
1000
0000
0000
0000
,
0100
0100
0010
0010
1001
0000
0000
0000
,
1000
1000
1100
0000
0010
0100
0010
0000
,
0010
0010
0100
0100
0000
0000
0011
0000
,
1000
0001
0100
0001
1000
0000
0010
0000
,
0100
0000
0000
0010
0000
0000
1000
0000
0000
0000
0000
0000
0001
0000
0000
0000
,
0001
0010
1000
0010
0001
0000
0000
0000
,
1000
0010
0001
0010
1000
0000
0000
0000
,
2200
0000
0000
0000
3300
0010
0100
0001
,
0110
0000
0010
0000
0010
0000
0010
1000
,
0100
0000
0100
1000
0001
0000
0001
0010
,
1000
0000
1000
0001
0010
0001
0010
0000
,
0022
0000
0000
0000
0033
0100
0001
1000
,
1001
0000
0100
0000
0100
0000
0100
0001
,
1000
0000
1000
0010
0100
0000
0100
0001
,
0010
0000
0010
0100
1000
0100
1000
0000
,
0012
1000
0000
0103
,
0220
0330
2002
3003
,
1100
0000
0001
0000
1000
0010
0100
0000
,
0010
0000
0010
0000
1000
0001
1000
0000
,
0120
1000
0000
0130
,
2200
3300
0022
0033
,
1001
0000
1000
0000
0010
0001
0100
0000
,
1000
0000
1000
0000
0010
0100
0010
0000
,
1001
0000
0000
0000
;

//---------------dance-single - x scale 11----------------
#NOTES:
     dance-single:
     :
     Hard:
     11:
     0.384376,0.403207,0.139572,0.465239,0.298528,347.000000,329.000000,18.000000,60.000000,0.000000,0.000000,0.384376,0.403207,0.139572,0.465239,0.298528,347.000000,329.000000,18.000000,60.000000,0.000000,0.000000:
0000
0000
0000
0000
,
0000
0000
0000
0000
,
0000
0000
0000
0000
,
0000
0000
0000
0000
,
0000
0000
0001
0100
0001
0000
1000
0100
1000
0000
0010
0100
0010
0000
1000
0001
,
2000
0000
0000
0000
0000
0000
0000
0000
0000
0000
0000
0000
0000
0000
0000
0000
0000
0000
0000
0000
0000
0000
0000
0000
3010
0000
0000
0000
0000
0000
0000
0000
0000
0100
0000
0000
0000
0000
0000
0000
0010
0000
0000
0000
1000
0000
0000
0000
,
0010
0000
1000
0001
1000
0001
0000
0011
0000
0000
0000
1010
0000
0000
0000
0000
,
0100
0000
0001
1000
0001
1000
0000
1001
0000
0000
0000
0000
0000
0000
0000
0000
,
0010
1000
0100
1000
0020
0000
0130
0100
,
0001
0010
0100
1000
0000
0000
0010
0102
,
0000
0000
0013
2100
0000
0000
3010
0210
,
0000
0320
1000
0000
0130
1000
0010
0000
,
1000
0100
0010
0100
2000
0000
3001
0001
,
1000
0100
0010
0001
0000
0100
0010
0000
,
0001
0000
1000
0020
0000
0000
0130
0002
0000
0000
1000
0000
1003
0000
0001
0200
,
0000
0301
0100
0000
0010
0000
1000
0001
0000
0000
0000
1000
0010
0000
0000
0000
,
2002
0000
0000
0000
0000
0000
0000
0000
3003
0000
0100
0000
0010
0000
1000
0001
,
0000
0000
0100
0000
0100
0000
0100
0000
0010
0000
0010
0000
1000
0000
0001
0200
,
0000
0000
0310
2000
0000
0000
3001
2000
0000
0000
3100
0000
0010
0000
1000
0002
,
0000
0000
0103
0020
0000
0000
1030
0020
0000
0000
0130
0000
0001
0000
0000
0000
,
0220
0000
0000
0000
0000
0000
0000
0000
0330
0000
1000
0000
0010
0000
0100
0001
,
0000
0000
1000
0000
1000
0000
0001
0000
0001
0010
0000
0000
0100
0000
0010
0200
,
0000
0000
0301
2000
0000
0000
3100
2000
0000
0000
3010
0000
1000
0000
0001
0200
,
0000
0000
0310
2000
0000
0000
3001
2000
0000
0000
3010
0000
0100
0000
0000
0000
,
0000
0000
1000
0010
1000
0000
0001
0010
0001
0000
0100
0010
0100
0000
0001
1000
,
0002
0000
0000
0000
0000
0000
0000
0000
0000
0000
0000
0000
0000
0000
0000
0000
0000
0000
0000
0000
0000
0000
0000
0000
1003
0000
0000
0000
0000
0000
0000
0000
0000
0100
0000
0000
0000
0000
0000
0000
1000
0000
0000
0000
0001
0000
0000
0000
,
1000
0000
0010
0100
0010
0100
0000
0101
0000
0000
0000
1100
0000
0000
0000
0000
,
0010
0000
0100
0001
0100
0001
0000
0011
0000
0000
0000
0000
0000
0000
0000
0000
,
1010
0000
0000
1000
0100
1000
0000
0002
0000
0000
0010
0000
0013
0000
0000
0000
,
0100
0010
1000
0001
0020
0100
0130
0000
,
1000
1000
0100
0100
0010
0010
0001
0001
,
0100
0100
0010
0010
0000
1000
0001
0000
,
0100
0000
0010
0000
1000
0000
0010
0100
0000
0000
0000
0001
1000
0000
0001
0200
,
0000
0000
0310
1000
0000
1000
0001
0000
0000
0000
0100
0000
0010
0000
0000
0000
,
1000
0000
0100
0000
1000
0000
0001
0200
0000
0000
0310
0000
0100
0000
0001
0020
,
0000
0031
0010
0000
0001
0000
1000
0100
0000
0000
0000
0100
1000
0000
0000
0000
,
2200
0000
0000
0000
0000
0000
0000
0000
3300
0000
1000
0000
0100
0000
0010
0001
,
0000
0000
0001
0000
0001
0000
0001
0000
1000
0000
1000
0000
0010
0000
0100
0020
,
0000
0000
1030
0200
0000
0000
1300
0002
0000
0000
0103
0000
0010
0000
1000
0020
,
0000
0000
0130
0002
0000
0000
0013
0002
0000
0000
1003
0000
0100
0000
0000
0000
,
0022
0000
0000
0000
0000
0000
0000
0000
0033
0000
0001
0000
0010
0000
0100
1000
,
0000
0000
0001
0000
0010
0000
0001
0000
0100
0010
0000
0000
1000
0000
0100
2000
,
0000
0000
3001
0020
0000
0000
0031
0200
0000
0000
0310
0000
1000
0000
0001
0200
,
0000
0000
0310
2000
0000
0000
3100
2000
0000
0000
3010
0000
0001
0000
0000
0000
,
2010
0100
0100
0000
0001
0001
3002
0000
,
0203
0010
0310
0000
2000
0001
3001
0000
,
0101
1000
1000
1000
0010
0100
0002
0000
,
0103
0100
0010
0010
1000
0001
0002
0000
,
0203
0010
0010
0000
1000
1000
2300
0000
,
3200
0001
0301
0000
2000
0100
3100
0000
,
0110
0100
0100
0100
0010
1000
0002
0000
,
0013
0000
0010
0000
0001
0000
0001
0000
0100
0000
0010
0000
2000
0000
0000
3000
,
1001
0000
0000
0000
;

//---------------dance-single - x scale 14----------------
#NOTES:
     dance-single:
     :
     Challenge:
     14:
     0.573795,0.624971,0.418715,0.434223,0.589303,518.000000,464.000000,54.000000,56.000000,0.000000,0.000000,0.573795,0.624971,0.418715,0.434223,0.589303,518.000000,464.000000,54.000000,56.000000,0.000000,0.000000:
// measure 0
0000
0000
0000
0000
,  // measure 1
0000
0000
0000
0000
,  // measure 2
0000
0000
0000
0000
,  // measure 3
0000
0000
0000
0000
,  // measure 4
0000
0000
0000
0001
0010
0001
0010
0000
0000
1000
0100
1000
0100
0000
0000
0001
0100
0001
0100
0000
0000
0010
1000
0010
,  // measure 5
2000
0000
0000
0000
0000
0000
0100
0000
0000
0000
0000
0000
3100
0000
0000
0000
0000
0000
0000
0000
0000
0000
0000
0000
0110
0000
0000
0000
0000
0000
0000
0000
0000
1001
0000
0000
0000
0000
0000
0000
1000
0000
0000
0000
0001
0000
0000
0000
,  // measure 6
0100
0000
0010
1000
0001
0010
0000
0101
0000
0000
0000
1100
0000
0000
0000
0000
,  // measure 7
1000
0000
0001
0010
0001
0100
0000
0011
0000
0000
0000
1000
0010
0000
1010
0000
,  // measure 8
0100
0100
0010
0010
1000
1000
0001
0001
,  // measure 9
1100
0101
0011
1010
1000
0000
1001
0210
,  // measure 10
0010
0000
0310
2000
0100
0000
3100
2000
,  // measure 11
0001
0000
3020
0000
0130
0000
0001
1000
0010
1000
0001
0000
0100
1000
0000
0000
,  // measure 12
0010
0010
1000
1000
0001
0001
0100
0100
,  // measure 13
0011
0000
1100
0000
1010
0000
0101
0000
0100
0000
0000
0010
1000
0000
0001
0000
,  // measure 14
0100
0000
0010
2000
0010
3000
0001
0200
0010
0300
0100
0000
0010
0000
1000
1002
,  // measure 15
0000
0103
0010
0000
1000
0000
0001
0010
0001
0000
0000
0100
0110
0000
1000
0000
,  // measure 16
2001
0000
0100
0000
0100
0000
0000
3001
1000
0000
0010
0000
0010
0000
1000
0001
,  // measure 17
0000
1000
0010
0001
0000
1000
0100
0001
0200
0000
0000
0000
0310
0000
1000
0200
,  // measure 18
1000
0300
0010
0002
0010
0003
1000
0020
0000
0130
0001
0000
1000
0000
0010
0200
,  // measure 19
0010
0300
0001
2000
0001
3000
0100
0002
0000
1003
0010
0000
0100
0010
0000
0000
,  // measure 20
2010
0000
0001
0000
0001
0000
0000
3010
1000
0000
0100
0000
0100
0000
1000
0010
,  // measure 21
0000
0000
0010
0001
0010
0000
1000
0100
0001
0100
1000
0100
0001
0000
1000
0020
,  // measure 22
1000
0030
0100
0002
0100
0003
1000
0200
0000
1300
0001
0000
0100
0000
0001
2000
,  // measure 23
0001
3000
0010
0200
0010
0300
1000
0002
0000
0013
0001
0000
0100
0010
0100
0010
,  // measure 24
0100
0000
0000
1000
0100
1000
0100
0000
0000
0010
0001
0010
0001
0000
0000
0100
0001
0100
0001
0000
0000
1000
0010
1000
,  // measure 25
0020
0000
0000
0000
0000
0000
0100
0000
0000
0000
0000
0000
0130
0000
0000
0000
0000
0000
0000
0000
0000
0000
0000
0000
0011
0000
0000
0000
0000
0000
0000
0000
0000
1100
0000
0000
0000
0000
0000
0000
0010
0000
0000
0000
1000
0000
0000
0000
,  // measure 26
0001
0000
1000
0010
0100
0010
0000
0101
0000
0000
0000
1000
0001
0000
0000
0000
,  // measure 27
0100
0000
0010
1000
0100
1000
0000
0110
0000
0000
0000
0001
0010
0000
0001
0000
,  // measure 28
0200
0000
0000
0310
1000
0010
0000
2000
0000
0000
0001
0000
3001
0000
0000
0000
,  // measure 29
1000
1000
0010
0010
2000
0100
3100
0000
,  // measure 30
0101
1010
1001
0110
0011
1100
1010
1001
,  // measure 31
0101
0000
1100
0000
0110
0000
0011
0000
0000
0100
0020
0000
1030
0000
0000
0000
,  // measure 32
0001
0000
0100
0000
0100
0000
0010
2000
0100
3000
0000
1000
0001
0000
0010
0002
,  // measure 33
0000
0000
0103
0020
0000
1030
0002
0000
0100
0000
0010
0000
1003
0000
0000
0000
,  // measure 34
0010
0000
0010
0000
0010
0000
1000
0001
0100
0000
0000
1000
0001
0000
1000
0200
,  // measure 35
0000
1300
0001
0000
0001
0000
1000
0020
0100
0030
0000
0100
0010
0000
1000
0000
,  // measure 36
0120
0000
0001
0000
0001
0000
0000
0130
0010
0000
1000
0000
1000
0000
0100
0010
,  // measure 37
0000
0000
1000
0010
1000
0001
0100
0001
1100
0000
1010
0000
1001
0000
0100
0020
,  // measure 38
1000
0030
1000
0002
0010
0003
0100
0020
0000
1030
0010
0000
0100
0000
0010
2000
,  // measure 39
0100
3000
0010
0002
1000
0003
0001
2000
0000
3010
1000
0000
0100
0010
0000
0000
,  // measure 40
0102
0000
1000
0000
1000
0000
0000
0013
0001
0000
0100
0000
0100
0000
0010
0001
,  // measure 41
0000
0000
1000
0100
1000
0001
0100
0001
0011
0010
0000
0010
0001
0000
1000
0002
,  // measure 42
0010
0003
0100
0020
0001
0030
1000
0200
0000
0310
0100
0000
0001
0000
0100
0020
,  // measure 43
1000
0030
0100
0002
1000
0003
0100
2000
0000
3010
0100
0000
0001
0010
0000
0000
,  // measure 44
2001
0000
0100
0000
0100
0000
0000
3010
1000
0000
1000
0000
1100
0000
0001
0000
,  // measure 45
0201
0010
0310
0010
0012
0100
0103
0100
,  // measure 46
1010
1000
0010
1000
0010
1000
0010
1000
0001
0100
1000
0100
0002
0000
0000
1003
,  // measure 47
0110
0100
0010
0100
0010
0100
0010
0100
1000
0010
0001
0010
1000
0000
0000
0000
,  // measure 48
0210
0000
0001
0000
0001
0000
0000
0310
0100
0000
0100
0000
0011
0000
1000
0000
,  // measure 49
1200
1000
1000
1300
0201
0001
0001
0301
,  // measure 50
1010
0010
1000
0010
1000
0010
1000
0010
0100
0001
0100
1000
0200
0000
0000
0310
,  // measure 51
0100
0001
0100
0001
0100
0001
0100
0001
0010
0001
0010
1000
0010
0000
0000
0000
,  // measure 52
1001
0000
0000
0000
;
