#TITLE:Firestorm;
#ARTIST:ETIA.;
#BANNER:Firestorm-bn.png;
#BACKGROUND:Firestorm-bg.png;
#JACKET:Firestorm-jacket.png;
#MUSIC:Firestorm.ogg;
#SAMPLESTART:81.318;
#SAMPLELENGTH:20;
#DISPLAYBPM:177;
#BPMS:0=177.3,4=177;
#BGCHANGES:;

//---------------dance-single - ----------------
#NOTES:
     dance-single:
     :
     Beginner:
     5:
     :
0000
0000
0000
0000
,
0000
0000
0000
0000
,
0000
0000
0000
0000
,
0000
0000
0000
0000
,
0000
0000
0000
0000
,
0000
0000
0000
0000
,
0000
0000
0000
0000
,
0000
0000
0000
0000
,
0000
0000
0000
0000
,
0001
0000
0001
0000
,
0001
0000
0000
0000
,
1000
0000
1000
0000
,
1000
0000
0000
0000
,
0001
0001
0001
0000
,
0001
0000
0010
0000
,
1000
1000
1000
0000
,
1001
0000
0000
0000
,
0001
0000
0100
0000
,
0001
0000
0100
0000
,
1000
0000
0100
0000
,
1000
0000
0000
0000
,
1000
0000
0100
0000
,
1000
0000
0100
0000
,
0001
0000
0100
0000
,
0001
0000
0000
0000
,
0001
0000
0010
0000
,
0001
0000
0010
0000
,
1000
0000
0010
0000
,
1000
0000
0000
0000
,
1000
0000
0010
0000
,
1000
0000
0010
0000
,
0001
0000
0010
0000
,
0001
0000
0000
0000
,
1001
0000
0000
0000
,
0000
0000
0000
0000
,
0002
0000
0000
0000
,
0003
0000
0000
0000
,
0020
0000
0000
0000
,
0030
0000
0000
0000
,
0200
0000
0000
0000
,
0300
0000
0000
0000
,
2000
0000
0000
0000
,
3000
0000
0000
0000
,
1001
0000
0000
0000
,
1001
0000
0000
0000
,
1001
0000
0000
0000
,
0000
0000
0000
0000
,
1001
0000
0000
0000
,
1001
0000
0000
0000
,
1001
0000
0000
0000
,
0000
0000
0000
0000
,
1001
0000
0000
0000
,
0001
0000
1000
0000
,
0010
0010
0010
0000
,
1000
0000
0001
0000
,
0010
0010
0010
0000
,
0001
0000
1000
0000
,
0100
0100
0100
0000
,
1000
0000
0001
0000
,
0200
0000
0300
0000
,
0001
0001
1000
0000
,
1000
1000
0001
0000
,
0001
0001
1000
0000
,
1000
1000
0001
0000
,
0001
0000
0010
0000
,
1000
0000
0010
0000
,
0001
0000
1000
0000
,
1001
0000
0000
0000
,
1001
0000
1001
0000
,
1001
0000
0110
0000
,
1001
0000
1001
0000
,
1001
0000
0110
0000
,
1001
0000
1001
0000
,
1001
0000
0110
0000
,
1001
0000
1001
0000
,
1001
0000
0000
0000
,
0001
0001
0010
0000
,
0100
0000
0010
0000
,
1000
1000
0010
0000
,
0100
0000
0010
0000
,
0001
1000
0001
0000
,
0100
0010
0100
0000
,
1000
0001
1000
0000
,
0010
0000
0100
0000
,
1001
0000
0000
0000
,
0000
0000
0000
0000
;

//---------------dance-single - ----------------
#NOTES:
     dance-single:
     :
     Easy:
     8:
     :
0000
0000
0000
0000
,
0000
0000
0000
0000
,
0000
0000
0000
0000
,
0000
0000
0000
0000
,
0000
0000
0000
0000
,
0000
0000
0000
0000
,
0000
0000
0000
0000
,
0000
0000
0000
0000
,
0000
0000
0000
0000
,
1000
1000
0001
0001
,
1000
1000
0001
0001
,
1000
1000
0001
0001
,
1000
1000
0001
0000
,
0100
0100
0010
0010
,
0100
0100
0010
0010
,
0100
0100
0010
0010
,
0220
0000
0330
0000
,
1000
0100
1000
0100
,
0001
0100
1000
0000
,
0001
0100
0001
0100
,
1000
0100
0001
0000
,
1000
0010
1000
0010
,
0001
0010
1000
0000
,
0001
0010
0001
0010
,
1000
0010
0001
0000
,
1000
0100
0010
0000
,
0001
0100
0010
0000
,
1000
0010
0100
0001
,
1000
0001
1000
0000
0001
0000
0000
0000
,
1000
1000
0100
0100
,
0010
0010
0001
1001
,
0001
0001
0100
0100
,
0010
0010
0010
0000
,
1001
0000
0000
0000
,
0000
0000
0000
0000
,
2002
0000
0000
0000
,
0000
0000
0000
0000
,
0000
0000
0000
0000
,
3003
0000
0000
0000
,
0220
0000
0000
0000
,
0000
0000
0330
0000
,
2002
0000
0000
0000
,
0000
0000
3003
0000
,
0001
0000
0000
0100
0000
0000
0001
0000
,
0000
0010
0000
0000
0001
0000
0001
0000
,
1000
0000
0000
0010
0000
0000
1000
0000
,
0000
0100
0000
0000
1000
0000
1000
0000
,
0010
0000
0000
1000
0000
0000
0010
0000
,
0000
0100
0000
0000
0010
0000
0010
0000
,
0100
0000
0000
0001
0000
0000
0100
0000
,
0000
0010
0000
0000
0100
0000
0100
0000
,
0110
0000
0000
0000
,
0001
0010
0001
1000
,
0001
0000
0100
0000
0001
1000
0001
0000
,
0001
0010
0001
1000
,
0001
0100
0001
0110
,
1000
0010
1000
0001
,
1000
0000
0100
0000
1000
0001
1000
0000
,
1000
0010
1000
0001
,
1000
0001
2002
3003
,
0001
0100
0010
0100
,
0001
0000
0010
0000
0100
1000
0100
0000
,
1000
0010
0100
0010
,
1000
0000
0100
0000
0010
0001
0010
0000
,
0001
1001
0100
0110
,
0001
1001
0110
0000
,
1000
1001
0100
0110
,
2002
0000
0000
3003
,
1000
0100
0001
0100
,
1000
0000
0010
0000
1000
0001
1000
0000
,
0001
0100
1000
0100
,
0001
0010
1000
0010
,
0001
0100
1000
0100
,
0001
0000
0010
0000
0001
1000
0001
0000
,
1000
0100
0001
0100
,
2000
0000
0001
3001
,
1000
0000
0100
0000
0010
0100
0010
0000
,
0001
0000
0100
0000
0010
0100
0010
0000
,
1000
0000
0100
0000
0010
0100
0010
0000
,
0001
0100
0010
1001
,
0010
0000
0001
0000
0100
0010
0100
0000
,
0010
0000
1000
0000
0100
0010
0100
0000
,
0010
0001
0010
0000
0100
1000
0100
0000
,
1100
0000
0011
0000
,
2002
0000
0000
0000
,
0000
0000
0000
0000
,
3003
0000
0000
0000
,
0000
0000
0000
0000
;

//---------------dance-single - ----------------
#NOTES:
     dance-single:
     :
     Medium:
     13:
     :
0000
0000
0000
0000
,
0000
0000
0000
0000
,
0000
0000
0000
0000
,
0000
0000
0000
0000
,
0000
0000
0000
0000
,
0000
0000
0000
0000
,
0000
0000
0000
0000
,
0000
0000
0000
0000
,
0000
0000
0000
0000
,
0001
0000
0000
0010
0000
0000
0001
0000
0100
0000
0000
0001
0000
0000
0100
0000
,
0001
0000
0000
0010
0000
0000
0001
0000
0100
0000
0000
0000
0100
0000
0000
0000
,
1000
0000
0000
0010
0000
0000
1000
0000
0100
0000
0000
1000
0000
0000
0100
0000
,
1000
0000
0000
0010
0000
0000
1000
0000
0100
0000
0000
0000
0100
0000
0000
0000
,
0001
0000
0000
0010
0000
0000
0001
0000
0100
0000
0000
0001
0000
0000
0100
0000
,
0010
0000
0000
1000
0000
0000
0010
0000
0100
0000
0000
0000
0100
0000
0000
0000
,
1000
0000
0000
0010
0000
0000
1000
0000
0100
0000
0000
1000
0000
0000
0100
0000
,
0020
0000
0000
0030
,
0001
0010
0001
0000
1000
0100
0010
0000
,
0100
1000
0010
0000
0100
0001
0010
0000
,
0001
0000
0010
0010
0000
0100
0100
0000
,
1000
1000
0000
0001
0001
0000
1001
0000
,
1000
0100
0001
0100
1000
0000
0001
0000
,
0001
0100
1000
0100
0001
0000
1000
0001
,
1000
1000
0100
0100
0010
0000
0001
0001
,
0100
0010
1000
0010
0100
0000
0000
0010
,
1000
0100
0010
0000
0110
0000
0001
0100
,
0010
0100
0010
0000
0110
0000
0010
0010
,
0000
1010
0000
1100
0000
0011
0000
0101
,
0001
0100
1000
0100
0001
1000
0001
0000
,
1000
0000
0000
0100
0000
0000
0001
0000
1000
0000
0000
0010
0000
0000
0001
0000
,
1000
0000
0000
0100
0000
0000
0010
0000
0001
0000
0000
0000
1001
0000
0000
0000
,
0001
0000
0000
0100
0000
0000
1000
0000
0001
0000
0000
0010
0000
0000
1000
0000
,
0002
0000
0000
0000
0000
0000
0103
0100
,
0110
0000
0000
0000
,
0000
0000
0000
0000
,
2002
0000
0000
0003
,
0200
0000
0000
0300
,
0002
0000
0000
0000
,
0000
0000
3003
0000
,
2002
0000
0000
3000
,
0200
0000
0000
0300
,
2000
0000
0000
3000
,
0200
0000
0000
0303
,
1001
0000
0001
0100
0000
0001
0100
0000
,
0010
1000
0000
0010
1000
0000
1000
0000
,
1001
0000
1000
0100
0000
1000
0100
0000
,
0010
0001
0000
0010
0001
0000
0001
0000
,
1001
0000
0001
1000
0000
0001
1000
0000
,
0010
0100
0000
0010
0100
0000
0100
0000
,
0110
0000
0100
0010
0000
0100
0010
0000
,
1000
0001
0000
1000
0001
0000
0001
0000
,
1001
0000
0000
0000
0001
1000
0000
0000
,
0010
0000
0000
1000
0000
0000
0100
0000
0100
0000
0000
0001
0000
0000
0010
0000
,
0010
0000
0000
1000
0000
0000
0100
0000
1000
0010
1000
0000
0001
0000
0000
0000
,
0100
0000
0000
0001
0000
0000
0010
0000
0010
0000
0000
1000
0000
0000
0100
0000
,
0100
0000
0000
0001
0000
0000
0010
0000
0100
0000
0000
0000
0110
0000
0000
0000
,
1000
0000
0000
0100
0000
0000
0001
0000
0001
0000
0000
0010
0000
0000
1000
0000
,
1000
0000
0000
0100
0000
0000
0001
0000
0001
0010
0001
0000
1000
0000
0000
0000
,
0001
0000
0000
0100
0000
0000
1000
0000
1000
0000
0000
0010
0000
0000
0001
0000
,
0001
0000
0000
0001
0000
0000
0001
0000
1000
0000
0000
1000
0000
0000
1000
0000
,
0001
0000
0000
0100
0000
0000
0101
0000
0001
0000
0000
0010
0000
0000
0011
0000
,
0100
0000
0000
1000
0000
0000
1100
0000
1000
0010
1000
0000
0001
0000
0000
0000
,
1000
0000
0000
0100
0000
0000
1100
0000
1000
0000
0000
0010
0000
0000
1010
0000
,
0100
0000
0000
0001
0000
0000
0101
0000
0100
0000
0001
0000
0010
0000
0000
0000
,
0001
0000
0000
1000
0000
0000
1100
0000
0100
0000
0000
0010
0000
0000
0011
0000
,
0001
0000
0000
0100
0000
0000
0110
0000
1000
0100
1000
0000
0001
0000
0000
0000
,
1000
0000
0000
0100
0000
0000
0110
0000
0010
0000
0000
0001
0000
0000
1001
0000
,
2000
0000
0000
3000
,
0001
0000
0000
0110
0000
0000
0110
0000
1000
0000
0000
0110
0000
0000
0110
0000
,
0001
0000
0000
0110
0000
0000
0110
0000
1000
0001
1000
0000
0100
0000
0000
0000
,
0010
0000
0000
1001
0000
0000
1001
0000
0100
0000
0000
1001
0000
0000
1001
0000
,
0010
0000
0000
1001
0000
0000
1001
0000
0100
0000
0000
1001
0000
0000
1001
0000
,
1000
0000
0000
0110
0000
0000
0110
0000
0001
0000
0000
0110
0000
0000
0110
0000
,
1000
0000
0000
0110
0000
0000
0110
0000
0001
1000
0001
0000
0010
0000
0000
0000
,
0100
0000
0000
1001
0000
0000
1001
0000
0010
0000
0000
1001
0000
0000
1001
0000
,
0001
1000
0010
0001
0010
1000
0001
0000
,
0001
0000
0100
0010
0100
0000
0001
0000
0010
0000
0100
0000
1000
0000
0010
0000
,
0100
0000
0010
1000
0010
0000
1000
0000
0100
0000
0010
0000
0001
0000
0000
0000
,
1000
0000
0010
0100
0010
0000
1000
0000
0100
0000
0010
0000
0001
0000
0100
0000
,
0001
0000
0010
0100
0010
0000
0001
0000
0010
0000
0001
0000
1001
0000
0000
0000
,
1000
0000
0100
0010
0100
0000
1000
0000
0010
0000
0100
0010
0100
0000
0001
0000
,
1000
0000
0001
0100
0001
0000
0100
0000
0010
0000
1000
0000
0100
0000
0000
0000
,
0010
0000
0010
0000
0001
0000
0001
0000
1000
0100
1000
0000
0001
0010
0001
0000
,
0010
0000
0000
0010
0000
0000
0010
0000
0100
0000
0000
0100
0000
0000
0100
0000
,
0220
0000
0000
0000
,
0000
0000
0000
0000
,
0330
0000
0000
0000
,
0000
0000
0000
0000
;

//---------------dance-single - ----------------
#NOTES:
     dance-single:
     :
     Hard:
     16:
     :
0000
0000
0000
0000
,
0000
0000
0000
0000
,
0000
0000
0000
0000
,
0000
0000
0000
0000
,
0000
0000
0000
0000
,
0000
0000
0000
0000
,
0000
0000
0000
0000
,
0000
0000
0000
0000
,
0000
0000
0000
0000
,
0001
0000
0000
0001
0000
0000
0001
0000
1000
0000
0000
1000
0000
0000
1000
0100
,
0010
0000
0000
0010
0000
0000
0010
0000
0100
0000
1000
0000
0010
0000
0100
0000
,
0001
0000
0000
0001
0000
0000
0001
0000
0010
0000
0000
0010
0000
0000
0010
0100
,
1000
0000
0000
1000
0000
0000
1000
0000
0010
0000
0000
0000
1001
0000
0000
0000
,
1000
0000
0000
1100
0000
0000
1100
0000
0100
0000
0000
0110
0000
0000
0110
0000
,
0010
0000
0000
0011
0000
0000
0011
0000
0101
0000
0000
0000
1001
0000
0000
0000
,
0001
0000
0000
0011
0000
0000
0011
0000
0010
0000
0000
0110
0000
0000
0110
0000
,
2002
0000
0000
3003
,
1000
0010
0001
0001
0010
1000
0001
0001
,
0200
0000
0310
0010
1000
0100
0010
0001
,
2000
0000
3100
0002
0000
1003
0020
0000
,
0031
0200
0000
1300
0001
0000
0010
0010
,
1000
0100
1000
0100
0020
0000
2030
0000
,
3010
0001
0100
0000
0110
0000
1000
0010
,
0100
0001
0100
0001
0010
0000
0010
0100
,
1000
0010
1000
0010
0100
0000
0000
0001
,
0010
0010
0100
0000
1001
0000
1000
1000
,
0100
0000
0010
0000
0100
0000
0010
0000
0001
0000
0000
0000
1000
0000
1000
0010
,
1000
0100
0001
0100
1000
0010
0001
0000
,
1000
0000
0100
0000
0001
0000
1000
0100
1000
0100
0010
0000
0001
0000
0000
0000
,
1000
0000
0000
1100
0000
0000
1010
0000
0001
0000
0000
0101
0000
0000
0011
0000
,
0100
0000
0000
1100
0000
0000
0101
0000
0010
0000
0000
0000
1001
0000
0000
0000
,
0010
0000
0000
0011
0000
0000
1010
0000
0001
0000
0000
0101
0000
0000
1100
0000
,
2002
0000
0000
0000
0000
0000
0000
0000
3003
0000
0000
0000
0010
0100
0010
0200
,
0020
0000
0000
0000
,
0000
0000
0000
0330
,
2002
0000
0000
3000
,
0200
0000
0300
0020
0000
0030
0100
0000
,
2000
0000
0000
0000
,
0000
0000
0000
0000
0000
0000
0000
0000
3003
0000
0000
0000
1000
0100
0010
0001
,
2000
0000
0000
0000
,
0002
0000
0003
0200
0000
0300
0010
0000
,
0002
0000
0000
3003
,
0220
0000
0000
0330
,
0101
0001
1000
1100
1000
0001
0011
0001
,
1000
1010
1000
0001
1001
0000
1001
0000
,
1010
1000
0100
0110
0010
0001
1001
0001
,
0100
0110
0010
1000
1001
0000
1001
0000
,
1010
1000
0100
0110
0010
0001
0101
0100
,
0010
0110
0010
1000
1001
0000
1001
0000
,
0101
1000
0100
1100
0001
0010
0011
1000
,
0010
1010
0001
1000
1001
0000
0110
0000
,
1001
0000
0000
0000
0001
1000
0000
0000
,
2000
0000
0000
0010
0000
0000
0001
0000
3002
0000
0000
0100
0000
0000
1000
0000
,
2003
0000
0000
0010
0000
0000
0001
0000
3001
0010
0100
1000
0001
0010
0100
1000
,
0002
0000
0000
0100
0000
0000
0010
0000
0023
0000
0000
1000
0000
0000
0100
0000
,
0230
0000
0000
0001
0000
0000
1000
0000
1300
0000
0000
0000
1001
0000
0000
0000
,
0002
0000
0000
0010
0000
0000
1000
0000
2003
0000
0000
0100
0000
0000
0001
0000
,
3002
0000
0000
0010
0000
0000
1000
0000
1003
0010
0100
0001
1000
0010
0100
0001
,
2000
0000
0000
0100
0000
0000
0010
0000
3020
0000
0000
0001
0000
0000
0100
0000
,
0230
0000
0000
1000
0000
0000
0001
0000
0301
0000
0000
0000
1001
0000
0000
0000
,
0001
0000
1000
0100
0000
1000
0100
0000
0010
0000
0001
0100
0000
0001
0100
0000
,
0010
0000
1000
0001
0000
1000
0001
0000
1000
0100
0010
0001
1000
0100
0010
0001
,
1000
0000
0001
0100
0000
0001
0100
0000
0010
0000
1000
0100
0000
1000
0100
0000
,
0010
0000
0001
1000
0000
0001
1000
0000
0100
0000
0010
0000
0110
0000
0000
0000
,
1001
0000
0000
1010
0000
0000
0011
0000
1001
0000
0000
0101
0000
0000
1100
0000
,
1001
0000
0000
1010
0000
0000
0011
0000
0001
0100
0010
1000
0001
0100
0010
1000
,
0001
0000
0000
0011
0000
0000
1010
0000
1001
0000
0000
1100
0000
0000
0101
0000
,
2002
0000
0000
3003
,
1100
0000
0000
0101
0000
0000
1000
0100
0010
0000
0000
0101
0000
0000
0010
1000
,
0001
0000
0000
0101
0000
0000
1010
0000
0100
0010
1000
0001
0100
0010
1000
0001
,
0100
0000
0000
0101
0000
0000
0001
0010
0100
0000
0000
1001
0000
0000
1000
0100
,
0010
0000
0000
0101
0000
0000
0001
1000
0010
0000
0000
1100
0000
0000
0101
0000
,
0011
0000
0000
1010
0000
0000
1000
0100
0010
0000
0000
0101
0000
0000
0001
1000
,
0100
0000
0000
1010
0000
0000
1100
0000
0010
0100
1000
0001
0010
0100
1000
0001
,
0010
0000
0000
1010
0000
0000
0011
0000
1100
0000
0000
0101
0000
0000
0011
0000
,
1000
0000
0100
0000
0001
0000
0100
0000
1000
0010
0100
0000
0110
0000
0000
0000
,
0001
0000
0010
0100
0000
1000
0010
0000
0100
0000
0001
0010
0000
0100
0010
0000
,
0001
0000
0100
0010
0000
1000
0100
0000
0010
0001
1000
0100
0010
0001
0010
0100
,
1000
0000
0010
0100
0000
0001
0010
0000
0100
0000
1000
0100
0000
0010
0001
0000
,
0100
0000
0010
1000
0000
0100
1000
0000
0010
0000
0000
0000
0110
0000
0000
0000
,
1000
0000
0010
0100
0000
0001
0010
0000
0100
0000
0010
0001
0000
0100
0010
0000
,
1000
0000
0100
0010
0000
0100
1000
0000
0001
1000
0100
0010
0001
0010
0100
1000
,
0001
0000
0100
0000
0010
0000
1000
0000
0001
0010
0001
0010
0100
1000
0100
1000
,
0200
0000
0000
0010
0000
0000
0010
0000
0320
0000
0000
0001
0000
0000
0031
0000
,
2002
0000
0000
0000
,
0000
0000
0000
0000
,
3003
0000
0000
0000
;

//---------------dance-single - ----------------
#NOTES:
     dance-single:
     :
     Challenge:
     18:
     :
0000
0000
0000
0000
,
0000
0000
0000
0000
,
0000
0000
0000
0000
,
0000
0000
0000
0000
,
0000
0000
0000
0000
,
0000
0000
0000
0000
,
0000
0000
0000
0000
,
0000
0000
0000
0000
,
0000
0000
0000
0000
,
0010
0000
0000
0001
0000
0000
0100
0000
0010
0000
0000
1000
0000
0000
0100
0010
,
0001
0000
1000
0010
0000
1000
0010
0000
0100
0000
0001
1000
0001
0000
0010
0100
,
1000
0000
0000
0001
0000
0000
0010
0000
0001
0000
0000
1000
0000
0000
0010
0100
,
0001
0000
0010
0100
0000
0100
1000
0000
1100
0000
0000
0000
0101
0000
0010
0000
,
1010
0000
0000
0101
0000
0000
1100
0000
0011
0000
0000
1100
0000
0000
0001
1000
,
0001
0000
0010
0001
0000
0001
1000
0000
1001
0000
0010
0100
0001
0000
1000
0000
,
1100
0000
0000
0011
0000
0000
0100
0001
1000
0000
0000
1010
0000
0000
0100
0001
,
1000
0001
0010
0000
0001
0100
1000
0000
,
0010
0010
1000
1000
0100
0100
0001
0001
,
0011
0000
0100
1000
0010
0000
0100
0000
0101
0000
1000
0001
1000
0000
0010
0000
,
0110
0100
0001
0011
1000
0010
1010
0100
,
0001
1100
0010
0100
1001
0010
1000
1000
,
1000
0000
0100
0010
0001
0000
0100
0000
1000
0000
0010
0100
0002
0000
0000
0000
,
0013
0000
0010
0000
0010
0000
0001
0100
1000
0000
0010
0100
0001
0000
0100
0000
,
0110
0000
0010
0000
1010
0000
1000
0000
1001
0000
0010
0100
0001
0000
0010
0100
,
1000
0000
0001
0000
0010
0000
0001
0000
1000
0000
0010
0100
0010
0000
0100
0001
,
0010
0000
0100
0000
1000
0000
0001
0100
0001
0000
0010
0100
1000
0000
0001
0000
,
1000
0000
0010
0100
0001
0000
0010
0001
0010
0100
1000
0001
1000
0000
0010
0100
,
0001
0000
1010
0000
0100
0000
0001
0000
0011
0000
0100
1000
0001
0000
0100
0000
,
0010
0000
0110
0000
0110
0000
0100
0001
1000
0010
1000
0000
0100
0010
0001
0100
,
0010
0000
1000
0001
0000
1000
0100
0010
0001
0000
0100
0010
0000
0010
1000
0001
,
1000
0000
0100
0010
0000
0100
1000
0001
0100
0010
1000
0000
0001
0010
0100
0000
,
1100
0000
0001
1000
0000
0010
0100
0000
0101
0000
0010
0100
0000
1000
0001
0000
,
1000
0000
0010
0100
0001
0000
0010
0100
1000
0000
0001
0100
0001
0000
1000
0010
,
0200
0000
0000
0000
0000
0000
0000
0000
0301
1000
0000
0001
1000
0000
0001
1000
,
0001
0000
1000
0001
0000
1000
0001
0000
1000
0001
0000
1000
0001
0000
1000
0001
,
0100
0000
0010
1000
0010
0000
0100
0000
0010
1000
0010
0000
0100
0000
0000
0001
,
1000
0000
0100
0010
0000
0010
0001
0000
0001
1000
0000
1000
0010
1000
0100
0000
,
0010
0001
0010
0001
0010
0001
0010
0000
0100
1000
0000
0001
0000
0000
0000
0010
,
0001
0000
0100
0001
0000
1000
0001
0000
1000
0010
0100
0001
0010
0100
1000
0001
,
0100
0010
0100
0010
0100
0000
0001
0000
0000
0000
1000
0000
1000
0000
0010
0100
,
0001
0000
0000
0010
0001
0000
0100
0000
1000
0000
0000
0010
1000
0000
0100
0010
,
0001
1000
0001
1000
0001
1000
0001
0000
0000
0000
0100
0000
0100
0000
0000
0010
,
2000
0000
0000
0001
0000
0000
0010
0000
3010
0000
0100
0001
1000
0001
0010
0100
,
1000
0000
0010
0100
0010
1000
0001
0000
0010
0001
0010
0100
1000
0000
0001
0100
,
0010
0100
0001
0000
1000
0100
0010
0001
0100
0000
0010
1000
0001
0000
1000
0100
,
0010
0000
0001
0100
0010
0100
0001
0000
1000
0001
0010
0100
1000
0000
0010
1000
,
0100
0010
0001
0000
1000
0001
0010
0001
1000
0000
0010
0100
0001
0000
1000
0100
,
0001
0000
0010
0001
0010
0100
1000
0000
0001
0100
0010
0100
0001
0000
1000
0100
,
0010
0001
0010
0000
0100
0010
0001
1000
0010
0000
1000
0100
1000
0000
0001
0010
,
0100
0000
1000
0010
1000
0100
0001
0000
0010
0100
1000
0010
0001
0000
0100
0001
,
0010
0001
1000
0000
0010
1000
0001
0010
0100
0000
1000
0010
1000
0000
0001
0010
,
0002
0000
0003
0000
1100
0101
0000
0000
,
1001
0000
0000
0010
0000
0000
1000
0000
0100
0000
0000
0001
0000
0000
1000
0001
,
0010
0000
0100
1000
0000
0100
1000
0000
0001
0010
1000
0100
0001
0010
1000
0100
,
0001
0000
0010
0100
0000
0010
0100
0000
1000
0010
0000
1000
0010
0000
0100
0001
,
1000
0000
0010
0100
0000
0001
1000
0000
0001
0010
0001
0000
1000
0010
1000
0000
,
0101
0000
0000
1000
0000
0000
0001
0010
0001
0000
0000
0100
0000
0000
1000
0010
,
0100
0000
0001
1000
0000
0001
1000
0000
0010
1000
0100
0001
0010
1000
0100
0001
,
0010
0000
0100
1000
0000
0000
0001
1000
0010
0000
0100
0001
0000
0100
0001
0000
,
1010
0000
0100
0000
0001
0000
0010
0000
1000
0001
0000
0001
1000
0000
0100
0000
,
0110
0000
0010
0001
0000
0001
0100
0000
0010
1000
0000
1000
0100
0000
0010
0001
,
1000
0000
0010
0100
0001
0010
0100
0000
1000
0010
0001
0100
1000
0010
0001
0100
,
1000
0000
0001
0010
0000
0001
0100
0010
1000
0001
0000
1000
0001
0000
0010
0100
,
1000
0000
0010
1000
0100
0010
0001
0000
1000
0100
1000
0000
0001
0100
0001
0000
,
0011
0000
0000
1100
0000
0000
0010
1000
0001
0000
0000
0101
0000
0000
0100
0010
,
1000
0000
0100
0010
0000
0010
0001
0000
0100
1000
0010
0001
0100
1000
0010
0001
,
0100
0000
0000
0110
0000
0000
0010
1000
0001
0000
0000
1100
0000
0000
0010
0001
,
0100
0000
0010
0000
0000
0000
1000
0000
0001
0000
0000
0010
0000
0000
1000
0000
,
1100
0000
0100
1000
0000
1000
0010
0000
0101
0000
0000
0011
0000
0000
1001
0000
,
1010
0000
0000
0101
0000
0000
0011
0000
1000
1000
0010
0010
0100
0100
0001
0001
,
0010
0000
0001
1000
0000
1000
0100
0000
1100
0000
0000
0011
0000
0000
1010
0000
,
0011
0000
0000
0110
0000
0000
1100
0000
0001
0100
0010
1000
0000
1000
0001
0000
,
0010
0100
0010
0001
0000
1000
0001
0000
1010
0000
0000
0101
0000
0000
1001
0000
,
0110
0000
0000
1010
0000
0000
1100
0000
0010
0010
0001
0001
0100
0100
1000
1000
,
0001
0000
0100
0010
0000
0010
1000
0000
0001
0000
1000
0100
0000
0100
0010
0000
,
0011
0000
0100
1000
0001
0000
0100
0010
1000
0100
0010
0001
0010
0100
1000
0000
,
0001
0000
0010
0100
0000
0100
1000
0000
0010
0000
1000
0001
0000
0001
0100
0000
,
0001
0000
1000
0010
0000
0010
0001
0000
0100
0100
0010
0010
1000
1000
0001
0001
,
1000
0000
0100
0010
0000
0010
0001
0000
0100
0000
1000
0001
0000
0001
0010
0000
,
0100
0000
1000
0010
0000
0010
0100
0000
0001
0010
0100
1000
0010
0100
0001
0000
,
1001
0000
0010
1000
0010
0100
0001
0000
1000
0100
1000
0010
0000
0100
0001
0000
,
0010
0001
0010
0100
0000
1000
0010
0000
1000
1000
0100
0100
0010
0010
0001
0001
,
0100
0000
0001
0010
0001
0000
1000
0000
0010
1000
0001
0010
0001
0100
1000
0010
,
0001
0000
1000
0000
0000
0000
0010
0000
1000
0000
0000
0001
0000
0000
0100
0000
,
2002
0000
0000
0000
,
0000
0000
0000
0000
,
3003
0000
0000
0000
;

//---------------dance-double - ----------------
#NOTES:
     dance-double:
     :
     Easy:
     8:
     :
00000000
00000000
00000000
00000000
,
00000000
00000000
00000000
00000000
,
00000000
00000000
00000000
00000000
,
00000000
00000000
00000000
00000000
,
00000000
00000000
00000000
00000000
,
00000000
00000000
00000000
00000000
,
00000000
00000000
00000000
00000000
,
00000000
00000000
00000000
00000000
,
00000000
00000000
00000000
00000000
,
10000000
10000000
01000000
01000000
,
00100000
00100000
00010000
00010000
,
00001000
00001000
00000100
00000100
,
00000010
00000010
00000001
00000000
,
00000001
00000001
00000100
00000100
,
00000010
00000010
00001000
00001000
,
00010000
00010000
01000000
01000000
,
02200000
00000000
03300000
00000000
,
10000000
01000000
10000000
01000000
,
00100000
00010000
00100000
00000000
,
00001000
00010000
00001000
00010000
,
00000100
00001000
00000100
00000000
,
00000010
00000001
00000010
00000001
,
00000010
00001000
00000010
00000000
,
00001000
00010000
00001000
00010000
,
00001000
00000100
00001000
00000000
,
00010000
00100000
01000000
00000000
,
00010000
00100000
01000000
00000000
,
10000000
01000000
00010000
00001000
,
00010000
00001000
00010000
00000000
00001000
00000000
00000000
00000000
,
00001000
00000010
00000001
00000100
,
00001000
00010000
00011000
00000000
,
00010000
00100000
10000000
01000000
,
00010000
00001000
00011000
00000000
,
00011000
00000000
00000000
00000000
,
00000000
00000000
00000000
00000000
,
00022000
00000000
00000000
00000000
,
00000000
00000000
00000000
00000000
,
00000000
00000000
00000000
00000000
,
00033000
00000000
00000000
00000000
,
00000200
00000000
00000300
00000000
,
02000000
00000000
03000000
00000000
,
00022000
00000000
00000000
00000000
,
00000000
00000000
00033000
00000000
,
00000100
00000000
00000000
00000010
00000000
00000000
00000100
00000000
,
00000000
00000010
00000000
00000000
00001000
00000000
00010000
00000000
,
01000000
00000000
00000000
00100000
00000000
00000000
01000000
00000000
,
00000000
00100000
00000000
00000000
00010000
00000000
00001000
00000000
,
00000010
00000000
00000000
00000001
00000000
00000000
00000100
00000000
,
00000000
00000010
00000000
00000000
00001000
00000000
00010000
00000000
,
00100000
00000000
00000000
10000000
00000000
00000000
01000000
00000000
,
00000000
00100000
00000000
00000000
00010000
00000000
00001000
00000000
,
00011000
00000000
00000000
00000000
,
00001000
00000010
00001000
00010000
,
00001000
00000000
00000100
00000000
00001000
00010000
00001000
00000000
,
00010000
00100000
00010000
00001000
,
00010000
01000000
00010000
00011000
,
00001000
00000010
00000001
00000010
,
00001000
00000000
00010000
00000000
00001000
00010000
00001000
00000000
,
00010000
00100000
10000000
00100000
,
00010000
00001000
00022000
00033000
,
00001000
01000000
00100000
10000000
,
01000000
00000000
00010000
00000000
01000000
00100000
01000000
00000000
,
00010000
00001000
00000010
00000001
,
00001000
00000000
00000100
00000000
00000010
00000001
00000010
00000000
,
00000001
00000101
00001000
00001100
,
00000100
00010100
00011000
00000000
,
00100000
00110000
01000000
11000000
,
20020000
00000000
00000000
30030000
,
00100000
10000000
01000000
00010000
,
00001000
00000000
00100000
00000000
00001000
00010000
00001000
00000000
,
00000010
00000001
00000100
00001000
,
00010000
00100000
00010000
00001000
,
00000100
00000001
00000010
00001000
,
00010000
00000000
01000000
00000000
00010000
00001000
00010000
00000000
,
01000000
10000000
00100000
00010000
,
00002000
00000000
00010000
00013000
,
00001000
00000000
00000010
00000000
00000001
00000100
00000001
00000000
,
00000010
00000000
00001000
00000000
00010000
00001000
00010000
00000000
,
00100000
00000000
10000000
00000000
01000000
00100000
01000000
00000000
,
00010000
00001000
00022000
00033000
,
00010000
00000000
00100000
00000000
10000000
01000000
10000000
00000000
,
00100000
00000000
00010000
00000000
00001000
00010000
00001000
00000000
,
00000010
00000000
00000001
00000000
00000100
00000010
00000100
00000000
,
00001000
00010000
00011000
00000000
,
00022000
00000000
00000000
00000000
,
00000000
00000000
00000000
00000000
,
00033000
00000000
00000000
00000000
,
00000000
00000000
00000000
00000000
;

//---------------dance-double - ----------------
#NOTES:
     dance-double:
     :
     Medium:
     13:
     :
00000000
00000000
00000000
00000000
,
00000000
00000000
00000000
00000000
,
00000000
00000000
00000000
00000000
,
00000000
00000000
00000000
00000000
,
00000000
00000000
00000000
00000000
,
00000000
00000000
00000000
00000000
,
00000000
00000000
00000000
00000000
,
00000000
00000000
00000000
00000000
,
00000000
00000000
00000000
00000000
,
00000001
00000000
00000000
00000010
00000000
00000000
00000001
00000000
00000100
00000000
00000000
00000001
00000000
00000000
00000100
00000000
,
00000001
00000000
00000000
00000010
00000000
00000000
00001000
00000000
00010000
00000000
00000000
00000000
00000000
00000000
00000000
00000000
,
10000000
00000000
00000000
00100000
00000000
00000000
10000000
00000000
01000000
00000000
00000000
10000000
00000000
00000000
01000000
00000000
,
10000000
00000000
00000000
00100000
00000000
00000000
00010000
00000000
00001000
00000000
00000000
00000000
00000000
00000000
00000000
00000000
,
00000001
00000000
00000000
00000010
00000000
00000000
00001000
00000000
00000010
00000000
00000000
00000001
00000000
00000000
00000100
00000000
,
00001000
00000000
00000000
00010000
00000000
00000000
00001000
00000000
00010000
00000000
00000000
00000000
00000000
00000000
00000000
00000000
,
10000000
00000000
00000000
00100000
00000000
00000000
00010000
00000000
00100000
00000000
00000000
10000000
00000000
00000000
01000000
00000000
,
00020000
00000000
00000000
00030000
,
00001000
00000010
00001000
00000000
00000010
00000001
00000100
00000000
,
00000010
00001000
00000100
00000000
00020000
00000000
00031000
00000000
,
00001000
00000000
00100000
00100000
00000000
01000000
01000000
00000000
,
10000000
10000000
00000000
00100000
00100000
00000000
00010000
00001000
,
00000100
00000001
00000100
00000001
00000100
00000000
00001001
00000000
,
00000001
00000010
00001000
00000000
00010000
01000000
10000000
00000000
,
10000000
10000000
01000000
01000000
00100000
00000000
00001000
00001000
,
00010000
00000100
00001000
00000100
00000010
00000000
00000000
00000001
,
00000100
00000010
00000100
00000000
00000110
00000000
00000100
00001000
,
00010000
00001000
00010000
00000000
00011000
00000000
00100000
00010000
,
00000000
00110000
00000000
10100000
00000000
11000000
00000000
01010000
,
00010000
00001000
00000010
00001000
00010000
00001000
00010000
00000000
,
00001000
00000000
00000000
00000100
00000000
00000000
00000100
00000000
00000001
00000000
00000000
00000010
00000000
00000000
00000010
00000000
,
00001000
00000000
00000000
00010000
00000000
00000000
00010000
00000000
00001000
00000000
00000000
00000000
00011000
00000000
00000000
00000000
,
00010000
00000000
00000000
01000000
00000000
00000000
01000000
00000000
10000000
00000000
00000000
00100000
00000000
00000000
00100000
00000000
,
00020000
00000000
00000000
00000000
00000000
00000000
00031000
00001000
,
00011000
00000000
00000000
00000000
,
00000000
00000000
00000000
00000000
,
00021000
00000000
00000000
00000000
,
01000000
00000000
00000100
00000000
,
00002000
00000000
00000000
00000000
,
00000000
00000000
00033000
00000000
,
00012000
00000000
00000000
00000000
,
00000100
00000000
01000000
00000000
,
00020000
00000000
00000000
00000000
,
00000000
00000000
00000000
00033000
,
00001100
00000000
00000010
00000001
00000000
00001000
00000100
00000000
,
00100000
00010000
00000000
10000000
01000000
00000000
01000000
00000000
,
10010000
00000000
00100000
10000000
00000000
00010000
01000000
00000000
,
00000010
00001000
00000000
00000001
00000100
00000000
00000100
00000000
,
00001001
00000000
00000001
00001000
00000000
00000001
00001000
00000000
,
00001000
00010000
00000000
00001000
00010000
00000000
10000000
00000000
,
10010000
00000000
10000000
00010000
00000000
10000000
00010000
00000000
,
00010000
00001000
00000000
00010000
00001000
00000000
00001000
00000000
,
00011000
00000000
00000000
00000000
00001000
00000001
00000000
00000000
,
00000001
00000000
00000000
00000100
00000000
00000000
00000100
00000000
00000001
00000000
00000000
00000010
00000000
00000000
00000010
00000000
,
00000001
00000000
00000000
00000100
00000000
00000000
00000100
00000000
00001000
00000000
00010000
00000000
00001000
00000000
00000000
00000000
,
00010000
00000000
00000000
01000000
00000000
00000000
01000000
00000000
10000000
00000000
00000000
00100000
00000000
00000000
00100000
00000000
,
10000000
00000000
00000000
01000000
00000000
00000000
01000000
00000000
00010000
00000000
00000000
00000000
00011000
00000000
00000000
00000000
,
00100000
00000000
00000000
10000000
00000000
00000000
10000000
00000000
00100000
00000000
00000000
00010000
00000000
00000000
00010000
00000000
,
00001000
00000000
00000000
00010000
00000000
00000000
00010000
00000000
00001000
00000000
00000010
00000000
00001000
00000000
00000000
00000000
,
00010000
00000000
00000000
00001000
00000000
00000000
00001000
00000000
00000100
00000000
00000000
00000001
00000000
00000000
00000001
00000000
,
00000100
00000000
00000000
00000010
00000000
00000000
00000010
00000000
00001000
00000000
00000000
00000000
00001001
00000000
00000000
00000000
,
00000001
00000000
00000000
00000010
00000000
00000000
00000011
00000000
00000001
00000000
00000000
00000100
00000000
00000000
00000110
00000000
,
00000010
00000000
00000000
00010000
00000000
00000000
00011000
00000000
00010000
00000000
00001000
00000000
00100000
00000000
01000000
00000000
,
10000000
00000000
00000000
00100000
00000000
00000000
10100000
00000000
10000000
00000000
00000000
01000000
00000000
00000000
01100000
00000000
,
00100000
00000000
00000000
00001000
00000000
00000000
00011000
00000000
00010000
00000000
00000100
00000000
00000010
00000000
00000000
00000000
,
00000001
00000000
00000000
00001000
00000000
00000000
00001100
00000000
00000010
00000000
00000000
00010000
00000000
00000000
00011000
00000000
,
00100000
00000000
00000000
00010000
00000000
00000000
01010000
00000000
01000000
00000000
00010000
00000000
00100000
00000000
01000000
00000000
,
10000000
00000000
00000000
00010000
00000000
00000000
00110000
00000000
01000000
00000000
00000000
00001000
00000000
00000000
00011000
00000000
,
00010000
00000000
00000000
00000000
,
00000001
00000000
00000000
00000010
00000000
00000000
00001000
00000000
00001000
00000000
00000000
00010000
00000000
00000000
01010000
00000000
,
01000000
00000000
00000000
10000000
00000000
00000000
00100000
00000000
00010000
00000000
00001000
00000000
00000100
00000000
00000001
00000000
,
00000100
00000000
00000000
00000010
00000000
00000000
00010000
00000000
00001000
00000000
00000000
00100000
00000000
00000000
10010000
00000000
,
10000000
00000000
00000000
00100000
00000000
00000000
00010000
00000000
00001000
00000000
00000000
00000100
00000000
00000000
00000110
00000000
,
00000001
00000000
00000000
00000100
00000000
00000000
00001000
00000000
00000100
00000000
00000000
00000010
00000000
00000000
00010010
00000000
,
00010000
00000000
00000000
00001000
00000000
00000000
00100000
00000000
00010000
00000000
00100000
00000000
01000000
00000000
10000000
00000000
,
00100000
00000000
00000000
00010000
00000000
00000000
00001000
00000000
00010000
00000000
00000000
01000000
00000000
00000000
01100000
00000000
,
00010000
00001000
00010000
00001000
00000010
00000001
00001000
00000000
,
00000001
00000100
00000010
00001000
00000001
00000100
00001000
00010000
,
00100000
00000000
10000000
00000000
01000000
00000000
00010000
00000000
01000000
00100000
01000000
00000000
00100000
00000000
00000000
00000000
,
01000000
00100000
00010000
01000000
00010000
00100000
00001000
00010000
,
00000010
00001000
00000001
00000010
00001000
00000010
00000011
00000000
,
00000010
00000001
00001000
00000100
00000010
00000001
00000100
00001000
,
00010000
00000000
00100000
00000000
10000000
00000000
01000000
00000000
00100000
00010000
00100000
00000000
00001000
00000000
00000000
00000000
,
00000010
00000000
00000001
00000000
00000010
00000000
00000100
00000000
00010000
00001000
00010000
00000000
00001000
00010000
00001000
00000000
,
01000000
00000000
00000000
01000000
00000000
00000000
01000000
00000000
00100000
00000000
00000000
00100000
00000000
00000000
00100000
00000000
,
02200000
00000000
00000000
00000000
,
00000000
00000000
00000000
00000000
,
03300000
00000000
00000000
00000000
,
00000000
00000000
00000000
00000000
;

//---------------dance-double - ----------------
#NOTES:
     dance-double:
     :
     Hard:
     16:
     :
00000000
00000000
00000000
00000000
,
00000000
00000000
00000000
00000000
,
00000000
00000000
00000000
00000000
,
00000000
00000000
00000000
00000000
,
00000000
00000000
00000000
00000000
,
00000000
00000000
00000000
00000000
,
00000000
00000000
00000000
00000000
,
00000000
00000000
00000000
00000000
,
00000000
00000000
00000000
00000000
,
10000000
00000000
00000000
10000000
00000000
00000000
10000000
00000000
01000000
00000000
00000000
01000000
00000000
00000000
01000000
00100000
,
00001000
00000000
00000000
00001000
00000000
00000000
00001000
00000000
00010000
00000000
00000100
00000000
00001000
00000000
00000000
00000000
,
00000001
00000000
00000000
00000001
00000000
00000000
00000001
00000000
00000100
00000000
00000000
00000100
00000000
00000000
00000100
00000010
,
00010000
00000000
00000000
00010000
00000000
00000000
00010000
00000000
00001000
00000000
00000000
00000000
00011000
00000000
00000000
00000000
,
00100000
00000000
00000000
10100000
00000000
00000000
10100000
00000000
10000000
00000000
00000000
10010000
00000000
00000000
10010000
00000000
,
00010000
00000000
00000000
00110000
00000000
00000000
00110000
00000000
00100000
00000000
00001000
00000000
00010000
00000000
00000000
00000000
,
00000100
00000000
00000000
00001100
00000000
00000000
00001100
00000000
00001000
00000000
00000000
00001010
00000000
00000000
00001010
00000000
,
00000220
00000000
00000000
00000330
,
00000001
00000010
00000100
00000100
00010000
00001000
01000000
01000000
,
00200000
00000000
10300000
10000000
01000000
00100000
01000000
00100000
,
00020000
00000000
01030000
00002000
00000000
00013000
00000020
00000000
,
00001030
00000200
00000000
00000310
00000001
00000000
00000100
00000100
,
00000001
00000010
00000001
00000010
00002000
00000000
00023000
00000000
,
01030000
10000000
00010000
00000000
10010000
00000000
10000000
01000000
,
00100000
00010000
00100000
00010000
00001000
00000000
00001000
00000100
,
00000010
00000001
00000010
00000001
00001000
00000000
00000000
00001000
,
00000010
00000100
00000010
00000000
00001001
00000000
00000001
00000100
,
00001000
00000000
00010000
00000000
00100000
00000000
10000000
00000000
00010000
00000000
00000000
00000000
10000000
00000000
00100000
01000000
,
00100000
10000000
00100000
00010000
00001000
00000100
00000001
00000000
,
00000010
00000000
00000100
00000000
00010000
00000000
00001000
00010000
00001000
00010000
00001000
00000000
00010000
00000000
00000000
00000000
,
01000000
00000000
00000000
11000000
00000000
00000000
10100000
00000000
01000000
00000000
00000000
01010000
00000000
00000000
00110000
00000000
,
00100000
00000000
00000000
00101000
00000000
00000000
00011000
00000000
00022000
00000000
00000000
00000000
00033000
00000000
00000000
00000000
,
00000100
00000000
00000000
00000110
00000000
00000000
00000011
00000000
00001000
00000000
00000000
00001010
00000000
00000000
00000110
00000000
,
00002002
00000000
00000000
00000000
00000000
00000000
00000000
00000000
00003003
00000000
00000000
00000000
00000001
00001000
00000001
00002000
,
00000002
00000000
00000000
00000000
,
00000000
00000000
00000000
00003003
,
00022000
00000000
00000000
00030000
,
01000000
00000000
00000000
00100000
00000000
00000000
01000000
00000000
,
00020000
00000000
00000000
00000000
,
00000000
00000000
00000000
00000000
00000000
00000000
00000000
00000000
00033000
00000000
00000000
00000000
00010000
00001000
00010000
00001000
,
00020000
00000000
00000000
00000000
,
00000100
00000000
00000000
00000010
00000000
00000000
00000100
00000000
,
00002000
00000000
00000000
00033000
,
00022000
00000000
00000000
00033000
,
00011000
00001000
00000100
00000010
00001000
00000100
00000001
00000100
,
00001000
00000010
00000100
00001000
00011000
00000000
00110000
00000000
,
00011000
00010000
01000000
00100000
00010000
01000000
10000000
01000000
,
00010000
00100000
01000000
00010000
00011000
00000000
00001100
00000000
,
00011000
00001000
00000010
00000001
00000100
00000010
00000110
00000100
,
00000001
00000010
00000100
00010000
00011000
00000000
00110000
00000000
,
00011000
00010000
00100000
10000000
01000000
00100000
01100000
01000000
,
10000000
00100000
01000000
00001000
00011000
00000000
00001100
00000000
,
00011000
00000000
00000000
00000000
01000000
00000100
00000000
00000000
,
00000020
00000000
00000000
00000001
00000000
00000000
00000100
00000000
00000230
00000000
00000000
00000001
00000000
00000000
00010000
00000000
,
00020300
00000000
00000000
00001000
00000000
00000000
00100000
00000000
00130000
01000000
00010000
01000000
00100000
01000000
00010000
00000000
,
20000000
00000000
00000000
01000000
00000000
00000000
00100000
00000000
30200000
00000000
00000000
01000000
00000000
00000000
00010000
00000000
,
00320000
00000000
00000000
00001000
00000000
00000000
00000100
00000000
00031000
00000000
00000000
00000000
00011000
00000000
00000000
00000000
,
00002000
00000000
00000000
00100000
00000000
00000000
00010000
00000000
00023000
00000000
00000000
00001000
00000000
00000000
00000010
00000000
,
00030020
00000000
00000000
00000100
00000000
00000000
00001000
00000000
00001030
00000010
00000100
00000010
00001000
00000010
00000100
00000000
,
00000020
00000000
00000000
00001000
00000000
00000000
00010000
00000000
00020030
00000000
00000000
00001000
00000000
00000000
01000000
00000000
,
02030000
00000000
00000000
00010000
00000000
00000000
10000000
00000000
13000000
00000000
00000000
00000000
10010000
00000000
00000000
00000000
,
10000000
00000000
01000000
00100000
00000000
01000000
00100000
00000000
00010000
00000000
00100000
00001000
00000000
00100000
00001000
00000000
,
00010000
00000000
00000100
00001000
00000000
00000100
00001000
00000000
00000100
00000010
00000001
00000010
00000100
00000010
00000001
00000010
,
00000100
00000000
00001000
00000010
00000000
00001000
00000010
00000000
00000100
00000000
00001000
00010000
00000000
00001000
00010000
00000000
,
00100000
00000000
01000000
00010000
00000000
01000000
00010000
00000000
10000000
00000000
00100000
00000000
01100000
00000000
00000000
00000000
,
10100000
00000000
00000000
10010000
00000000
00000000
00110000
00000000
01100000
00000000
00000000
01010000
00000000
00000000
00011000
00000000
,
00101000
00000000
00000000
00011000
00000000
00000000
00001010
00000000
00000100
00000001
00001000
00000001
00000100
00000001
00001000
00000001
,
00000100
00000000
00000000
00000110
00000000
00000000
00001010
00000000
00001100
00000000
00000000
00011000
00000000
00000000
01010000
00000000
,
10010000
00000000
00000000
00000000
,
00000011
00000000
00000000
00000101
00000000
00000000
00000010
00001000
00000001
00000000
00000000
00001100
00000000
00000000
00001000
00000100
,
00010000
00000000
00000000
00101000
00000000
00000000
01100000
00000000
10000000
00010000
01000000
00100000
10000000
00010000
01000000
00100000
,
10000000
00000000
00000000
11000000
00000000
00000000
00010000
00100000
01000000
00000000
00000000
01010000
00000000
00000000
00100000
00001000
,
00010000
00000000
00000000
00011000
00000000
00000000
00000100
00001000
00000010
00000000
00000000
00000110
00000000
00000000
00001001
00000000
,
00000011
00000000
00000000
00001010
00000000
00000000
00000001
00000100
00000010
00000000
00000000
00001010
00000000
00000000
00000100
00010000
,
00001000
00000000
00000000
00101000
00000000
00000000
00110000
00000000
00010000
00100000
01000000
10000000
00010000
00100000
01000000
10000000
,
00010000
00000000
00000000
11000000
00000000
00000000
01010000
00000000
10100000
00000000
00000000
00110000
00000000
00000000
00011000
00000000
,
00001000
00000000
00000010
00000000
00000001
00000000
00000100
00000000
00000010
00001000
00000001
00000000
00001001
00000000
00000000
00000000
,
00000010
00000000
00001000
00000100
00000000
00001000
00000010
00000000
00000100
00000000
00000001
00000010
00000000
00000100
00001000
00000000
,
00000100
00000000
00010000
00001000
00000000
00100000
00010000
00000000
00100000
01000000
10000000
00010000
00100000
01000000
00100000
00010000
,
10000000
00000000
00100000
01000000
00000000
00010000
00100000
00000000
00001000
00000000
00010000
00000010
00000000
00001000
00000010
00000000
,
00000100
00000000
00000001
00000010
00000000
00000001
00000100
00000000
00000010
00000000
00000000
00000000
00000110
00000000
00000000
00000000
,
00000100
00000000
00000010
00001000
00000000
00000010
00000100
00000000
00001000
00000000
00010000
00100000
00000000
01000000
00100000
00000000
,
10000000
00000000
00010000
00100000
00000000
01000000
00100000
00000000
00001000
00010000
00001000
00100000
00010000
01000000
00010000
00100000
,
00001000
00000000
00010000
00000000
00001000
00000000
00000010
00000000
00000100
00000010
00000100
00000010
00000001
00000010
00000001
00000010
,
00000001
00000000
00000000
00000100
00000000
00000000
00001000
00000000
00010000
00000000
00000000
01000000
00000000
00000000
00010000
00000000
,
00022000
00000000
00000000
00000000
,
00000000
00000000
00000000
00000000
,
00033000
00000000
00000000
00000000
;

//---------------dance-double - ----------------
#NOTES:
     dance-double:
     :
     Challenge:
     18:
     :
00000000
00000000
00000000
00000000
,
00000000
00000000
00000000
00000000
,
00000000
00000000
00000000
00000000
,
00000000
00000000
00000000
00000000
,
00000000
00000000
00000000
00000000
,
00000000
00000000
00000000
00000000
,
00000000
00000000
00000000
00000000
,
00000000
00000000
00000000
00000000
,
00000000
00000000
00000000
00000000
,
00001000
00000000
00000000
00010000
00000000
00000000
00000010
00000000
00000100
00000000
00000000
00000001
00000000
00000000
00000010
00000100
,
00001000
00000000
00000010
00010000
00000000
00000010
00010000
00000000
00001000
00000000
01000000
00100000
01000000
00000000
00010000
10000000
,
00010000
00000000
00000000
00100000
00000000
00000000
00001000
00000000
00010000
00000000
00000000
00000100
00000000
00000000
00001000
00000010
,
00001000
00000000
00000001
00000100
00000000
00000001
00000100
00000000
00000110
00000000
00000000
00000000
00001001
00000000
00000010
00000000
,
00010010
00000000
00000000
00101000
00000000
00000000
00100000
01000000
10000000
00000000
00000000
11000000
00000000
00000000
00100000
01000000
,
00010000
00000000
00100000
00001000
00000000
00100000
00001000
00000000
00010000
00000100
00001000
00000010
00000100
00000000
00000001
00001000
,
00000001
00000000
00000000
00000011
00000000
00000000
00001000
00000100
00001000
00000000
00000000
00001010
00000000
00000000
00000100
00000001
,
00001000
00000010
00010000
00001000
00100000
01000000
10000000
00000000
,
00010000
00010000
00100000
00100000
10000000
10000000
01000000
01000000
,
01001000
00000000
00001000
00010000
00001000
00000000
00000100
00000000
00000101
00000000
00000001
00000010
00000001
00000000
00001000
00000000
,
00000110
00000010
00001000
00001010
00000100
00010000
00011000
00001000
,
00100000
01100000
01000000
10000000
11000000
00010000
01000000
00100000
,
10000000
00000000
00100000
00000000
00010000
00000000
01000000
00000000
00001000
00000000
00010000
00000010
00010000
00000000
00000100
00010000
,
00000100
00000000
00000010
00000000
00000001
00000000
00000100
00000010
00001000
00000000
00000001
00000010
00000001
00000000
00000100
00000000
,
00001001
00000000
00000010
00000000
00010010
00000000
00000100
00000000
01000100
00000000
01000000
00001000
00010000
00000000
00000100
00000000
,
00000110
00000000
00000001
00000000
00001001
00000000
00000010
00000000
00001010
00000000
00000100
00000001
00001000
00000000
00000100
00010000
,
00001000
00000000
01000000
00000000
00100000
00000000
10000000
01000000
10000000
00000000
00010000
01000000
00010000
00000000
00100000
00000000
,
01000000
00000000
10000000
00010000
10000000
00000000
00100000
01000000
00010000
00100000
00001000
00010000
00001000
00000000
00000100
00000001
,
00000010
00000000
00001100
00000000
00000001
00000000
00000100
00000000
00010001
00000000
00010000
00000010
00000100
00000000
00000001
00001000
,
00000100
00000000
00000110
00000000
00000110
00000000
00000010
00000001
00001000
00000010
00010000
00000000
00001000
00100000
00010000
01000000
,
00100000
00000000
00000000
10100000
00000000
00000000
11000000
00000000
01010000
00000000
00000000
00110000
00000000
00000000
01001000
00000000
,
00011000
00000000
00000000
00101000
00000000
00000000
00010100
00000000
00001000
00000010
00001000
00000000
00000001
00000010
00000100
00001000
,
00000001
00000000
00000010
00000100
00000000
00000010
00000100
00000000
00010000
00000000
00000010
00000100
00000000
00000010
00000100
00000001
,
00001000
00000000
00000100
00010000
00001000
00100000
00010000
01000000
00100000
00000000
10000000
00010000
10000000
00100000
01000000
00001000
,
00010000
00000000
00000000
00000010
00000000
00000000
00000010
00000000
00010000
00001000
00000000
00010000
00001000
00000000
00000000
00010000
,
00001000
00000000
00010000
00001000
00000000
00010000
00001000
00000000
00010000
00001000
00000000
00010000
00001000
00000000
00010000
00001000
,
01000000
00000000
00100000
10000000
00010000
00000000
01000000
00000000
00001000
00100000
00001000
00000000
00001000
00000000
00000000
00010000
,
00000010
00000000
00000100
00000001
00000000
00000100
00000001
00000000
00001000
00000010
00000000
00001000
00000010
00000100
00000001
00000000
,
00001000
00000100
00001000
00000100
00001000
00000100
00001000
00000000
00000000
00000010
00000000
00000010
00000000
00000000
00000000
00010000
,
00000100
00000000
00010000
00001000
00000000
00010000
00000010
00000000
00010000
00001000
00000000
00010000
00000010
00010000
00001000
01000000
,
00010000
10000000
00010000
10000000
00010000
10000000
00010000
00000000
00000000
00000000
00100000
00000000
00100000
00000000
10000000
00010000
,
01000000
00000000
00000000
00100000
00000000
00000000
01000000
00000000
00001000
00000000
00000000
00010000
00000010
00001000
00000001
00000010
,
00000100
00010000
00000100
00010000
00000100
00010000
00000100
00000000
00000000
00000000
00001000
00000000
00001000
00000000
00000000
00000001
,
00000100
00000000
00000000
00000010
00000000
00000000
00001000
00000000
00000100
00000000
00010000
00001000
00100000
01000000
10000000
00001000
,
01000000
00000000
00100000
10000000
01000000
00100000
00001000
00000000
01000000
00100000
01000000
00001000
00010000
00000000
00000001
00000010
,
00000001
00010000
00000100
00000000
00001000
00000010
00000100
00000001
00000010
00000000
00000100
00001000
00000001
00000000
00000010
00000100
,
00010000
00000000
00001000
00010000
00000010
00001000
00000001
00000000
00000010
00010000
00001000
00100000
10000000
00000000
01000000
10000000
,
00001000
00100000
01000000
00000000
10000000
00100000
00010000
01000000
00001000
00000000
00010000
00001000
00010000
00000010
00001000
00000001
,
00000010
00000000
00000100
00010000
00000010
00001000
00000001
00000000
00000010
00000100
00010000
00001000
01000000
00000000
00100000
10000000
,
01000000
10000000
00010000
00000000
00001000
01000000
00100000
10000000
00010000
00000000
00100000
00001000
00010000
00000000
00000010
00010000
,
00000100
00000000
00000001
00000010
00000001
00000100
00001000
00000000
00000010
00001000
00000100
00010000
00001000
00000000
10000000
01000000
,
00001000
00010000
00000010
00000000
00000100
00000001
00000010
00000100
00001000
00000000
00000010
00010000
00001000
00000000
01000000
00100000
,
20000000
00000000
30000000
00000000
10010000
00001001
00000000
00000000
,
00000010
00000000
00000000
00000100
00000000
00000000
00000001
00001000
00000001
00000000
00000000
00000010
00000000
00000000
00001000
00000100
,
00010000
00000000
00001000
01000000
00000000
00100000
10000000
00000000
01000000
00100000
01000000
10000000
00100000
01000000
00001000
00010000
,
01000000
00000000
10000000
00100000
00000000
10000000
00010000
00000000
01000000
00000000
00001000
00010000
00000000
00000010
00001000
00000010
,
00000100
00000000
00000001
00000010
00000000
00001000
00000001
00000000
00010000
00000010
00000100
00000000
00000010
00001000
00000001
00000000
,
00000010
00000000
00000100
00001000
00000000
00000100
00010000
00000000
00001000
00000000
10000000
00100000
00000000
10000000
00010000
10000000
,
01000000
00000000
00100000
00010000
00000000
01000000
00001000
00000000
00010000
00000010
00001000
00000100
00000001
00001000
00000010
00010000
,
01000000
00000000
10000000
00100000
00000000
10000000
00010000
00100000
00001000
00000000
01000000
00100000
00000000
01000000
00010000
10000000
,
00100000
00000000
01000000
00000000
00001000
00000000
00010000
00000000
00000010
00000100
00000000
00000010
00000100
00000000
00000001
00000000
,
00000011
00000000
00000100
00001000
00000000
00000001
00001000
00000010
00000100
00000000
00000010
00001000
00000000
00000100
00010000
00001000
,
01000000
00000000
00100000
10000000
01000000
00100000
00010000
00000000
10000000
00100000
00010000
01000000
00001000
00100000
00010000
00001000
,
00000001
00000000
00000010
00000001
00000000
00000010
00000001
00000100
00000010
00000000
00010000
00000001
00000000
00001000
00000100
00010000
,
00001000
00000000
00100000
00010000
00000000
00010000
10000000
00000000
00100000
10000000
00010000
00000000
00100000
00010000
10000000
00000000
,
01001000
00000000
00000000
00011000
00000000
00000000
00010000
00000010
00000100
00000000
00000000
00001001
00000000
00000000
00000010
00001000
,
00000001
00000000
00000010
00000100
00000000
00000100
00010000
00000000
00001000
00010000
00000010
00001000
00000100
00010000
00001000
00100000
,
01000000
00000000
00000000
11000000
00000000
00000000
00100000
01000000
00010000
00000000
00000000
00110000
00000000
00000000
10000000
00010000
,
01000000
00000000
00001000
00000000
00000000
00000000
00010000
00001000
00000010
00000000
00000000
00000010
00000000
00000000
00000010
00000000
,
00000110
00000000
00000000
00001010
00000000
00000000
00000101
00000000
00000011
00000000
00000000
00010100
00000000
00000000
00101000
00000000
,
01001000
00000000
00000000
01100000
00000000
00000000
10010000
00000000
00100000
00100000
10000000
10000000
01000000
01000000
00010000
00010000
,
00100000
00000000
00000000
00100010
00000000
00000000
00010000
00001000
00010000
00000000
00000000
00010100
00000000
00000000
00000011
00000000
,
00000101
00000000
00000000
00001100
00000000
00000000
00010010
00000000
00010000
00001000
00010000
00000010
00000000
00000100
00000001
00000000
,
00000011
00000000
00000100
00001000
00000000
00001000
00010000
00000000
00011000
00000000
00000000
10001000
00000000
00000000
00100000
10000000
,
01000000
00000000
00000000
00110000
00000000
00000000
10010000
00000000
01000000
01000000
00001000
00001000
00010000
00010000
00000010
00000010
,
00000100
00000001
00000010
00000001
00000000
00001000
00000100
00000000
00000010
00000000
00000001
00001000
00000000
00001000
00000001
00000000
,
00000110
00000000
00000010
00001000
00000100
00000000
00010000
00000000
00001000
00100000
00001000
01000000
10000000
00100000
00010000
00000000
,
01100000
00000000
10000000
01000000
00000000
00100000
00001000
00000000
00010000
00000010
00010000
00000100
00000000
00001000
00000001
00000000
,
00000010
00000000
00000001
00000100
00000000
00000010
00001000
00000000
00000001
00000001
00000010
00000010
00001000
00001000
00000100
00000100
,
00010000
00001000
01000000
00100000
00000000
00100000
10000000
00000000
01000000
00000000
00100000
00010000
00000000
00010000
10000000
00100000
,
01000000
00000000
00001000
00010000
00000000
00001000
00100000
00000000
01000000
00001000
00010000
00000100
00000010
00000001
00001000
00000000
,
00001010
00000000
00000100
00000001
00000000
00010000
00001000
00000000
01000000
00000000
00100000
10000000
00000000
10000000
00010000
00000000
,
01000000
00010000
00100000
00001000
00000000
00010000
00000010
00000000
00001000
00001000
00000010
00000010
00010000
00010000
01000000
01000000
,
10000000
00000000
00100000
01000000
00100000
10000000
00010000
00000000
01000000
00001000
00010000
00000010
00100000
00001000
01000000
00000100
,
00000001
00000000
00000010
00000000
00000000
00000000
00001000
00000000
00000100
00000000
00000000
00010000
00000000
00000000
00001000
00000000
,
00022000
00000000
00000000
00000000
,
00000000
00000000
00000000
00000000
,
00033000
00000000
00000000
00000000
;

//---------------bm-single7 - ----------------
#NOTES:
     bm-single7:
     :
     Hard:
     11:
     :
00000000
00000000
00000000
00000000
,
11000000
00000000
00000000
00001000
01000000
00000000
00001000
00000000
01000000
00000000
00000000
00001000
01000000
00000000
00001000
00000100
,
01000010
00000000
00100000
00010000
01000100
00010000
00100000
00000000
01000010
00000000
00010000
00000010
01010000
00001000
00000001
00000000
,
01000000
00000000
00000000
00001000
01000000
00000000
00001000
00000000
01000000
00000000
00000000
00001000
01000000
00000000
00001000
00000100
,
01000010
00000000
00100000
00010000
01000100
00010000
00100000
00000000
11000011
00000000
00000000
00000000
11000011
00000000
00010000
00000000
,
01000000
00000000
00000000
00001000
01000000
00000000
00001000
00000000
01000000
00000000
00000000
00001000
01000000
00000000
00001000
00000100
,
01000010
00000000
00100000
00010000
01000100
00010000
00100000
00000000
01000010
00000000
00010000
00000010
01010000
00001000
00000001
00000000
,
01000000
00000000
00000000
00001000
01000000
00000000
00001000
00000000
01000000
00000000
00000000
00001000
01000000
00000000
00001000
00000000
,
21010011
00000000
00000000
00000000
01000000
00000000
01000000
30000000
11110000
00000000
00110000
00000000
00000000
00000000
00001101
00000000
,
11000000
00000000
00000000
00001000
01000000
00000000
00001000
00000000
01000000
00000000
00000000
00001000
01000000
00000000
00001000
00000100
,
01000010
00000000
00100000
00010000
01000100
00010000
00100000
00000000
01000010
00000000
00010000
00000010
01010000
00001000
00000001
00000000
,
01000000
00000000
00000000
00001000
01000000
00000000
00001000
00000000
01000000
00000000
00000000
00001000
01000000
00000000
00001000
00000100
,
01000010
00000000
00100000
00010000
01000100
00010000
00100000
00000000
11000011
00000000
00000000
00000000
11000011
00000000
00010000
00000000
,
11000000
00000000
00000000
11001000
00000000
00000000
11001000
00000000
11000000
00000000
00000000
11001000
00000000
00000000
11001000
00000100
,
11000010
00000000
00100000
11010000
00000100
00010000
11100000
00000000
11000010
00000000
00010000
00000010
11010000
00001000
00000001
00000000
,
11000000
00000000
00000000
11001000
00000000
00000000
11001000
00000000
11000000
00000000
00000000
11001000
00000000
00000000
11001000
00000000
,
21010011
00000000
00000000
00000000
01000000
00000000
01000000
00000000
01020200
00000000
00000000
00000000
00100010
00000000
00030300
30000000
,
11000100
00101010
01010000
00101001
01000100
00111000
01000010
00101001
,
01010000
00101000
01000100
00111000
01000010
00101000
01000001
00101100
,
01000010
00101000
01000010
00101100
01000000
00101100
01001000
00101000
,
01001000
00111000
01000000
00111000
01100000
00101000
01000010
00101010
,
01000010
00101100
01000001
00101000
01100000
00101000
01001000
00101000
,
01000100
00101100
01010000
00101000
01000001
00101000
01000010
00111000
,
01000100
00101010
01000100
00111000
01000001
00101000
01010000
00111000
,
01000100
00101001
01000000
00101100
01000001
00101000
01000000
00111000
,
11010000
00101001
01010000
00101000
01000100
00101000
00000010
00000100
,
01000010
00101000
01100000
00111000
01000010
00111000
00000010
00100000
,
01000000
00101010
00000000
00000010
01000010
00101000
00010000
00000001
,
00001000
00000000
01010001
00000000
01000011
00000000
01000001
01000001
00001000
01000001
01000001
00000000
01100001
00000000
01000011
00000000
,
11000001
00000000
00000000
11000100
00000000
00000000
11000010
00000000
11000001
00000000
00000000
11001000
00000000
00000000
11000100
00000000
,
11001000
00000000
00000000
11000010
00000000
00000000
11000001
00000000
11001000
00000000
00000000
00000000
11000000
00000000
00100000
00000000
,
11100000
00000000
00000000
11000000
00001000
00000000
11010000
00000000
11000000
00000000
00010000
11000000
00000000
00000000
11010000
00000000
,
00200000
00000000
00010000
00000000
00000000
00000000
00010000
00000000
00000010
00000000
00000000
00000000
00000100
00300000
00000100
00000000
,
22000100
00000000
00000000
00000000
,
00000000
00000000
00000000
00000000
00000000
00000000
00000000
00000000
33000000
00000000
00000000
00000000
00010000
00000100
00010000
00000100
,
12220200
00000000
00000000
00000000
,
00000002
00000000
00000000
00000020
00000000
00000000
00001000
00000000
,
00002000
00000000
00000000
00000000
,
20000000
00000000
00000000
00000000
00000000
00000000
00000000
00000000
00000000
00000000
00000000
33333333
00010000
00000100
00010000
00000100
,
12220200
00000000
00000000
00000000
,
00002000
00000000
00000000
00000020
00000000
00000000
00000001
00000000
,
00000002
00000000
00000000
00000000
,
20000000
00000000
00000000
00000000
00000000
00000000
00000000
00000000
00000000
00000000
00000000
33333333
00010000
00000100
00010000
00000100
,
11001010
00100000
01000000
00100000
01000000
00100000
01001010
00100000
01000000
00100000
01000000
00100000
01001010
00100000
01000000
00100000
,
01000000
00100000
01001010
00100000
01000000
00100000
01000000
00100000
01000101
00100000
01000000
00100000
01000101
00100000
11000000
00100000
,
11001010
00100000
01000000
00100000
01000000
00100000
01001010
00100000
01000000
00100000
01000000
00100000
01001010
00100000
01000000
00100000
,
01000000
00100000
01001010
00100000
01000000
00100000
01000000
00100000
01001100
00100000
01000000
00100000
01001100
00100000
01000000
00100000
,
11021010
00100000
01000000
00100000
01000000
00100000
01001010
00100000
01000000
00100000
01000000
00100000
01001010
00100000
01030000
00100000
,
01000200
00100000
01001010
00100000
01000000
00100000
01000320
00100000
01000101
00100000
01000000
00100000
01002131
00100000
11003000
00100000
,
11021010
00100000
01000000
00100000
01000000
00100000
01001010
00100000
01000000
00100000
01000000
00100000
01001010
00100000
01000000
00100000
,
11000000
00100000
01000110
00100000
01000000
00100000
01000000
00100000
01001001
00100000
01000000
00100000
01001001
00100000
01000000
00130000
,
11000000
00000000
00000000
00000000
10101010
10101010
00000000
00000000
,
11100000
00000000
00000000
00001001
01000000
00000000
00001001
00000000
01100000
00000000
00000000
00001001
01000000
00000000
00001001
00000100
,
01100010
00000000
00100000
00010001
01000100
00010000
00100001
00000000
01100010
00000100
00110000
00000110
01110000
00001100
00100001
00000100
,
01100000
00000000
00000000
00001001
01000000
00000000
00001001
00000000
01100000
00000000
00000000
00001001
01000000
00000000
00001001
00000100
,
01100010
00000000
00100000
00010001
01000100
00010000
00100001
00000000
11100011
00000000
00001000
00000000
11000011
00000000
00011000
00000000
,
11100000
00000000
00000000
00001001
01000000
00000000
00001001
00000000
01100000
00000000
00000000
00001001
01000000
00000000
00001001
00000100
,
01100010
00000000
00100000
00010001
01000100
00010000
00100001
00000000
01100010
00000100
00110000
00000110
01110000
00001100
00100001
00000100
,
01100000
00000000
00000000
00001001
01000000
00000000
00001001
00000000
01100000
00000000
00000000
00001001
01000000
00000000
00001001
00000100
,
11100000
00000000
00010000
00000000
01000000
00000000
01000010
00000000
01000100
00000000
00000000
00000100
00000000
00000000
00000100
00000000
,
11100000
00000000
00000000
00001001
01000000
00000000
00001001
00000000
01100000
00000000
00000000
00001001
01000000
00000000
00001001
00000100
,
01100010
00000000
00100000
00010001
01000100
00010000
00100001
00000000
01100010
00000100
00110000
00000110
01110000
00001100
00100001
00000100
,
01100000
00000000
00000000
00001001
01000000
00000000
00001001
00000000
01100000
00000000
00000000
00001001
01000000
00000000
00001001
00000100
,
01100010
00000000
00100000
00010001
01000100
00010000
00100001
00000000
11100011
00000000
00001000
00000000
11000011
00000000
00011000
00000000
,
11100000
00000000
00000000
11001001
00000000
00000000
11001001
00000000
11100000
00000000
00000000
11001001
00000000
00000000
11001001
00000100
,
11100010
00000000
00100000
11010001
00000100
00010000
11100001
00000000
11100010
00000100
00110000
00000110
11110000
00001100
00100001
00000100
,
11100000
00000000
00000000
11001001
00000000
00000000
11001001
00000000
11100000
00000000
00000000
11001001
00000000
00000000
11001001
00000100
,
11100000
00000000
00010000
00000000
00000000
00000000
00000010
00000000
00000100
00000000
00000000
00000100
00000000
00000000
00000100
00000000
,
11011000
00000000
00000000
11000110
00000000
00000000
11000110
00000000
11011000
00000000
00000000
11000110
00000000
00000000
11000110
00000000
,
11011000
00000000
00000000
11000110
00000000
00000000
11000110
00000000
11000011
00001100
00000011
00001100
11110000
00001100
00110000
00001100
,
11011000
00000000
00000000
11000110
00000000
00000000
11000110
00000000
11011000
00000000
00000000
11000110
00000000
00000000
11000110
00000000
,
11011000
00000000
00000000
11000110
00000000
00000000
11000110
00000000
11011000
00000000
00000000
11000011
00000000
00000000
11000011
00000000
,
11011000
00000000
00000000
11000110
00000000
00000000
11000110
00000000
11011000
00000000
00000000
11000110
00000000
00000000
11000110
00000000
,
11011000
00000000
00000000
11000110
00000000
00000000
11000110
00000000
11000011
00001100
00000011
00001100
11110000
00001100
00110000
00001100
,
11011000
00000000
00000000
11000110
00000000
00000000
11000110
00000000
11011000
00000000
00000000
11000110
00000000
00000000
11000110
00000000
,
11011000
00000000
00000000
00010001
00000000
00000000
00010001
00000000
00001010
00000000
00000000
00001010
00000000
00000000
00001010
00000000
,
11011000
00000000
00000000
00000110
01000000
00000000
00000110
00000000
01011000
00000000
00000000
00000110
01000000
00000000
00000110
00000000
,
01011000
00000000
00000000
00000110
01000000
00000000
00000110
00000000
01000011
00001100
00000011
00001100
01110000
00001100
00110000
00001100
,
01011000
00000000
00000000
00000110
01000000
00000000
00000110
00000000
01011000
00000000
00000000
00000110
01000000
00000000
00000110
00000000
,
01011000
00000000
00000000
00000110
01000000
00000000
00000110
00000000
11011011
00000000
00000000
00000011
11000011
00000000
00010011
00000000
,
11011000
00000000
00000000
00000110
01000000
00000000
00000110
00000000
01011000
00000000
00000000
00000110
01000000
00000000
00000110
00000000
,
01011000
00000000
00000000
00000110
01000000
00000000
00000110
00000000
01000011
00001100
00000011
00001100
01110000
00001100
00110000
00001100
,
01011000
00000000
00000000
00000110
01000000
00000000
00000110
00000000
01011000
00000000
00000000
00000110
01000000
00000000
00000110
00000000
,
01011000
00000000
00000000
00010001
00000000
00000000
00010001
00000000
00001010
00000000
00000000
00001010
00000000
00000000
00001010
00000000
,
21000000
00000000
00000000
00000000
,
00000000
00000000
00000000
00000000
,
00000000
00000000
00000000
00000000
,
00000000
00000000
00000000
30000000
;
