#VERSION:0.83;
#TITLE:Fever;
#SUBTITLE:;
#ARTIST:Sota F. feat. Carol Gadsden;
#TITLETRANSLIT:;
#SUBTITLETRANSLIT:;
#ARTISTTRANSLIT:;
#GENRE:;
#ORIGIN:;
#CREDIT:;
#BANNER:Fever-bn.png;
#BACKGROUND:Fever-bg.png;
#PREVIEWVID:;
#JACKET:Fever-jacket.png;
#CDIMAGE:;
#DISCIMAGE:;
#LYRICSPATH:;
#CDTITLE:;
#MUSIC:Fever.ogg;
#OFFSET:-0.000000;
#SAMPLESTART:51.939999;
#SAMPLELENGTH:15.000000;
#SELECTABLE:YES;
#DISPLAYBPM:134.000000;
#BPMS:0.000=134.328,
4.000=134.003;
#STOPS:;
#DELAYS:;
#WARPS:;
#TIMESIGNATURES:0.000=4=4;
#TICKCOUNTS:0.000=4;
#COMBOS:0.000=1;
#SPEEDS:0.000=1.000=0.000=0;
#SCROLLS:0.000=1.000;
#FAKES:;
#LABELS:0.000=Song Start;
#BGCHANGES:;
#KEYSOUNDS:;
#ATTACKS:
;

//---------------dance-single - ----------------
#NOTEDATA:;
#CHARTNAME:;
#STEPSTYPE:dance-single;
#DESCRIPTION:;
#CHARTSTYLE:;
#DIFFICULTY:Beginner;
#METER:1;
#RADARVALUES:0.103443,0.158997,0.017448,0.000000,0.000000,83.000000,81.000000,2.000000,0.000000,0.000000,0.000000,0.000000,0.000000,0.000000,0.103443,0.158997,0.017448,0.000000,0.000000,83.000000,81.000000,2.000000,0.000000,0.000000,0.000000,0.000000,0.000000,0.000000;
#CREDIT:;
#DISPLAYBPM:134.000000;
#NOTES:
0000
0000
0000
0000
,
0000
0000
0000
0000
,
0000
0000
0000
0000
,
0000
0000
0000
0000
,
0000
0000
0000
0000
,
1000
0000
0000
0000
,
0001
0000
0000
0000
,
1000
0000
0000
0000
,
1001
0000
0000
0000
,
0010
0000
0000
0000
,
0100
0000
0000
0000
,
0010
0000
0000
0000
,
0100
0000
0000
0000
,
0001
0000
0000
0000
,
1000
0000
0000
0000
,
0001
0000
0000
0000
,
1000
0000
0000
0000
,
0001
0001
0000
0000
,
0010
0010
0000
0000
,
0100
0100
0000
0000
,
1000
1000
0000
0000
,
0001
0001
0000
0000
,
0100
0100
0000
0000
,
0010
0010
0000
0000
,
1000
1000
0000
0000
,
1001
0000
0000
0000
,
0000
0000
0000
0000
,
0000
0000
0000
0000
,
0000
0000
0000
0000
,
0001
0000
0001
0000
,
0001
0000
0000
0000
,
1000
0000
1000
0000
,
1000
0000
0000
0000
,
0010
0000
0010
0000
,
0010
0000
0000
0000
,
0100
0000
0100
0000
,
0100
0000
0000
0000
,
0001
0000
1000
0000
,
0001
0000
0000
0000
,
1000
0000
0001
0000
,
1000
0000
0000
0000
,
0010
0000
0100
0000
,
0010
0000
0000
0000
,
0100
0000
0010
0000
,
0100
0000
0000
0000
,
0001
0000
0001
0000
,
0010
0000
0000
0000
,
1000
0000
1000
0000
,
0010
0000
0000
0000
,
0100
0000
0100
0000
,
0001
0000
0000
0000
,
0100
0000
0100
0000
,
1000
0000
0000
0000
,
0000
0000
0000
0000
,
0010
0010
0010
0010
,
0000
0000
0000
0000
,
1000
1000
1000
1000
,
0000
0000
0000
0000
,
0001
0001
0001
0001
,
0000
0000
0000
0000
,
0100
0100
0100
0100
,
;

//---------------dance-single - ----------------
#NOTEDATA:;
#CHARTNAME:;
#STEPSTYPE:dance-single;
#DESCRIPTION:;
#CHARTSTYLE:;
#DIFFICULTY:Easy;
#METER:4;
#RADARVALUES:0.178221,0.211996,0.026172,0.026172,0.000000,143.000000,140.000000,3.000000,3.000000,0.000000,0.000000,0.000000,0.000000,0.000000,0.178221,0.211996,0.026172,0.026172,0.000000,143.000000,140.000000,3.000000,3.000000,0.000000,0.000000,0.000000,0.000000,0.000000;
#CREDIT:;
#DISPLAYBPM:134.000000;
#NOTES:
0000
0000
0000
0000
,
0000
0000
0000
0000
,
0000
0000
0000
0000
,
0000
0000
0000
0000
,
0000
0000
0000
0000
,
1000
0000
0100
0000
,
0001
0000
0100
0000
,
1000
0000
0001
0000
,
2002
0000
0000
3003
,
0010
1000
0100
0000
,
0000
0001
0000
0001
,
0010
0001
0100
0000
,
0000
1000
0000
1000
,
0100
0001
0010
0000
,
0000
1000
0000
1000
,
0001
1000
0100
0000
,
0000
0001
0000
0001
,
1000
0010
1000
0000
,
1000
0100
1000
0000
,
0100
0001
0100
0000
,
0001
0010
0001
0000
,
0010
0001
0100
0000
,
0010
1000
0100
0000
,
0010
1000
0001
0000
,
0010
0001
1000
0000
,
0200
0000
0000
0000
,
0000
0000
0000
0300
,
1000
0000
0000
0000
,
0000
0000
0000
0000
,
1001
0000
0010
0100
,
1000
0001
0100
0000
,
1000
0000
0001
0100
,
0001
0010
1000
0000
,
0001
0000
0010
0100
,
0010
1000
0100
0000
,
0001
0000
1000
0100
,
1000
0010
0100
0000
,
0001
0000
0100
0001
,
0100
1000
0010
0000
,
0001
0000
1000
0100
,
1000
0010
0001
0000
,
0100
0000
1000
0100
,
0001
0010
1000
0000
,
0001
0000
1000
0100
,
1000
0010
0001
0000
,
0000
1000
0000
0001
,
0000
0100
1000
0001
,
0000
0100
0000
0100
,
0000
0100
0010
0100
,
0000
0001
0000
0100
,
0000
0010
0001
0100
,
0000
1000
0000
0010
,
1001
0000
0000
0000
,
0010
1000
0100
0000
,
0010
0000
0010
0000
,
0010
0001
0100
0000
,
0010
0000
0010
0000
,
0100
1000
0010
0000
,
0001
0000
1000
0000
,
0001
0010
1000
0000
,
0001
0000
1000
1000
;

//---------------dance-single - ----------------
#NOTEDATA:;
#CHARTNAME:;
#STEPSTYPE:dance-single;
#DESCRIPTION:;
#CHARTSTYLE:;
#DIFFICULTY:Medium;
#METER:7;
#RADARVALUES:0.294127,0.345202,0.130862,0.104689,0.013086,236.000000,221.000000,15.000000,12.000000,0.000000,0.000000,0.000000,0.000000,0.000000,0.294127,0.345202,0.130862,0.104689,0.013086,236.000000,221.000000,15.000000,12.000000,0.000000,0.000000,0.000000,0.000000,0.000000;
#CREDIT:;
#DISPLAYBPM:134.000000;
#NOTES:
0000
0000
0000
0000
,
0000
0000
0000
0000
,
0000
0000
0000
0000
,
0000
0000
0000
0000
,
0000
0000
0000
0000
,
0001
0010
1000
0100
,
0001
0100
1000
0010
,
0001
1000
0010
0100
,
2002
0000
0000
3003
,
0010
0001
0100
0100
,
0010
1000
0100
0100
,
0010
0100
1000
1000
,
0010
0100
0001
0010
,
0100
1000
0010
0010
,
0001
1000
0100
0100
,
1000
0001
1000
1000
,
0010
1000
0100
0000
,
0011
0012
1000
0013
,
0101
0102
1000
0103
,
0010
0100
1000
0100
,
0001
0010
1000
0000
,
1010
2010
0001
3010
,
1100
2100
0001
3100
,
0010
0100
0001
0100
,
0010
0000
0000
0000
0100
0000
0000
0001
0000
0001
0000
0001
0000
0000
0000
0000
,
0100
0010
0000
0010
,
0000
1000
0000
1000
,
0001
0100
0000
0000
0000
0000
0000
0000
,
0010
1000
0100
0010
,
1000
0000
0001
0000
0010
0001
0100
0000
,
0020
1000
0100
1030
,
0001
0000
0100
0000
1000
0001
0100
0000
,
2000
0010
0001
3010
,
0001
0000
1000
0000
0010
1000
0100
0000
,
0020
0001
0100
0031
,
1000
0000
0100
0000
0001
1000
0100
0000
,
0001
0010
0100
0000
,
1000
0000
0010
0000
0100
0010
1000
0000
,
0200
0001
0010
0301
,
1000
0000
0010
0000
0001
1000
0100
0000
,
0002
0010
1000
0013
,
0100
0000
1000
0000
0100
0010
0100
0000
,
2000
0010
0001
3010
,
0001
0000
0010
0000
1000
0001
0100
0000
,
1000
0100
0001
0000
,
0001
0000
0001
0000
1000
0100
1000
0000
,
0010
0100
0001
1000
,
0100
0000
0100
0000
0010
1000
0100
0000
,
0010
0100
0001
0100
,
1000
0000
1000
0000
0001
1000
0100
0000
,
0001
0010
1000
0100
,
0001
0000
0001
0000
1000
0001
0010
0000
,
1001
0000
0000
0000
,
0010
0001
0100
1000
,
0010
0100
0010
0100
,
0010
1000
0100
0001
,
0010
0100
0010
0100
,
0010
0011
0100
1100
,
1000
1010
0001
0101
,
1000
0010
0001
0100
,
1000
0000
0000
0000
0001
0000
0000
0110
,
;

//---------------dance-single - ----------------
#NOTEDATA:;
#CHARTNAME:;
#STEPSTYPE:dance-single;
#DESCRIPTION:;
#CHARTSTYLE:;
#DIFFICULTY:Hard;
#METER:9;
#RADARVALUES:0.340240,0.345202,0.095965,0.165758,0.017448,273.000000,262.000000,11.000000,19.000000,0.000000,0.000000,0.000000,0.000000,0.000000,0.340240,0.345202,0.095965,0.165758,0.017448,273.000000,262.000000,11.000000,19.000000,0.000000,0.000000,0.000000,0.000000,0.000000;
#CREDIT:;
#DISPLAYBPM:134.000000;
#NOTES:
0000
0000
0000
0000
,
0000
0000
0000
0000
,
0000
0000
0000
0000
,
0000
0000
0000
0000
,
0000
0000
0000
0000
,
1000
0010
0001
0100
,
1000
0100
0001
0010
,
1000
0001
0010
0100
,
2002
0000
0000
3003
,
0010
0000
1000
0000
0100
1000
0100
0000
,
0010
0000
0001
0000
0100
0001
0100
0000
,
0010
0000
0100
0000
0001
1000
0001
0000
,
0010
0100
1000
0010
,
0100
0000
0100
0000
0010
0100
0010
0000
,
1000
0000
0001
0000
0010
0100
1000
0000
,
0001
0000
1000
0000
0010
0100
0001
0000
,
0010
0001
0100
0001
,
2010
0000
0001
0000
0010
0000
3001
0100
,
0020
0000
1000
0000
0100
0000
1030
0001
,
0020
0000
0100
0000
0001
0000
0130
1000
,
0010
0100
0001
0000
,
0012
0000
1000
0000
0010
0000
1003
0100
,
0020
0000
0001
0000
0100
0000
0031
1000
,
0020
0000
0100
0000
1000
0000
0130
0001
,
0010
0000
0000
0000
0100
0000
0000
1000
0000
0001
0000
1001
0000
0000
0000
0000
,
0200
0010
0000
0010
,
0000
0001
0000
0301
,
2000
0200
0000
0000
0000
0000
3300
0000
,
0010
0001
0100
0110
,
0001
0000
1100
0000
0010
0100
1000
0100
,
0020
0000
0001
0000
0100
0000
0031
0100
,
1000
0000
0100
0000
0001
1000
0100
1000
,
0002
0000
0010
0000
1000
0000
0013
0100
,
1000
0000
0101
0000
0010
0100
0001
0100
,
0020
0000
1000
0000
0100
0000
1030
0100
,
0001
0000
0100
0000
1000
0001
0100
0001
,
1000
0000
0010
0000
0100
0000
0001
1000
,
0001
0000
0110
0000
0100
0010
0001
0010
,
0200
0000
1000
0000
0010
0000
1300
0010
,
0001
0000
0010
0000
1000
0001
0100
0001
,
2000
0000
0010
0000
0001
0000
3010
1000
,
0100
0000
0101
0000
0100
0010
1000
0010
,
0200
0000
0001
0000
0010
0000
0301
0010
,
1000
0000
0010
0000
0001
1000
0100
1000
,
0001
0100
1000
0010
,
1000
0000
1000
0000
0001
0100
0001
1000
,
0010
0100
0001
1000
,
0100
0000
0100
0000
0010
0001
0100
0001
,
0010
0100
1000
0100
,
0001
0000
0001
0000
1000
0100
0001
0100
,
1000
0010
0001
0100
,
1000
0000
1000
0000
0001
0010
1000
0010
,
0001
1000
1001
0000
,
0010
1000
0100
0002
,
0010
0100
0010
0103
,
0010
0001
0100
2000
,
0010
0100
0010
3100
,
0010
1000
0010
0000
0100
0001
0100
0000
,
0001
0010
0001
0000
1000
0100
1000
0000
,
0001
0010
1000
0100
,
0001
0000
0000
0000
0000
0000
0000
0000
1000
0000
0000
0010
0000
0000
0110
0000
;

//---------------dance-double - ----------------
#NOTEDATA:;
#CHARTNAME:;
#STEPSTYPE:dance-double;
#DESCRIPTION:;
#CHARTSTYLE:;
#DIFFICULTY:Easy;
#METER:4;
#RADARVALUES:0.179467,0.211996,0.026172,0.043621,0.000000,144.000000,141.000000,3.000000,5.000000,0.000000,0.000000,0.000000,0.000000,0.000000,0.179467,0.211996,0.026172,0.043621,0.000000,144.000000,141.000000,3.000000,5.000000,0.000000,0.000000,0.000000,0.000000,0.000000;
#CREDIT:;
#DISPLAYBPM:134.000000;
#NOTES:
00000000
00000000
00000000
00000000
,
00000000
00000000
00000000
00000000
,
00000000
00000000
00000000
00000000
,
00000000
00000000
00000000
00000000
,
00000000
00000000
00000000
00000000
,
00000001
00000000
00000100
00000000
,
00001000
00000000
00010000
00000000
,
01000000
00000000
10000000
00000000
,
20020000
00000000
00000000
30030000
,
00100000
10000000
01000000
00000000
,
00010000
00000000
00010000
00000000
,
00001000
00000010
00000001
00000000
,
00000100
00000000
00000100
00000000
,
00000010
00010000
00001000
00000000
,
00100000
00000000
00100000
00000000
,
01000000
10000000
00010000
00000000
,
01000000
00000000
01000000
00000000
,
00100000
10000000
01000000
00000000
,
10000000
01000000
00010000
00000000
,
01000000
00010000
00001000
00000000
,
00010000
00001000
00000010
00000000
,
00001000
00000010
00000001
00000000
,
00000010
00000001
00000100
00000000
,
00000001
00000100
00001000
00000000
,
00000100
00001000
00010000
00000000
,
00002000
00000000
00000000
00000000
,
00000000
00000000
00000000
00003000
,
00010000
00000000
00000000
00000000
,
00000000
00000000
00000000
00000000
,
10010000
00000000
00100000
01000000
,
10000000
00010000
01000000
00000000
,
00001000
00000000
00000100
00000010
,
00001000
00000100
00000010
00000000
,
00000001
00000000
00000100
00001000
,
00010000
01000000
10000000
00000000
,
00010000
00000000
10000000
00100000
,
01000000
00100000
10000000
00000000
,
00010000
00000000
00100000
00010000
,
00001000
00000100
00000010
00000000
,
00000001
00000000
00000100
00000010
,
00001000
00010000
01000000
00000000
,
00100000
00000000
10000000
01000000
,
00010000
00001000
00000100
00000000
,
00000010
00000000
00001000
00000100
,
00001000
00000010
00000001
00000000
,
00001000
00000000
00000001
00000000
,
00000100
00001000
00010000
00000000
,
00000010
00000000
00010000
00000000
,
00001000
00100000
00010000
00000000
,
10000000
00000000
01000000
00000000
,
00100000
01000000
10000000
00000000
,
00100000
00000000
00001000
00000000
,
00011000
00000000
00000000
00000000
,
00000200
00000000
00000000
00000300
,
00000001
00000010
00000100
00001000
,
00020000
00000000
00000000
00030000
,
00100000
01000000
10000000
00010000
,
01000000
00100000
10000000
00000000
,
01000000
00100000
00010000
00000000
,
00001000
00000100
00000010
00000000
,
00000001
00000000
00001000
00001000
,
;

//---------------dance-double - ----------------
#NOTEDATA:;
#CHARTNAME:;
#STEPSTYPE:dance-double;
#DESCRIPTION:;
#CHARTSTYLE:;
#DIFFICULTY:Medium;
#METER:6;
#RADARVALUES:0.280418,0.292094,0.026172,0.113413,0.013086,225.000000,222.000000,3.000000,13.000000,0.000000,0.000000,0.000000,0.000000,0.000000,0.280418,0.292094,0.026172,0.113413,0.013086,225.000000,222.000000,3.000000,13.000000,0.000000,0.000000,0.000000,0.000000,0.000000;
#CREDIT:;
#DISPLAYBPM:134.000000;
#NOTES:
00000000
00000000
00000000
00000000
,
00000000
00000000
00000000
00000000
,
00000000
00000000
00000000
00000000
,
00000000
00000000
00000000
00000000
,
00000000
00000000
00000000
00000000
,
00010000
00100000
10000000
01000000
,
00010000
00001000
00000100
00000001
,
00000010
00000001
00001000
00000100
,
00022000
00000000
00000000
00033000
,
00100000
00010000
01000000
01000000
,
00100000
10000000
00010000
00010000
,
00100000
00001000
00010000
00010000
,
00001000
00000100
00000001
00000010
,
00000100
00001000
00000001
00000001
,
00000100
00001000
00010000
00010000
,
01000000
10000000
00010000
00010000
,
00100000
10000000
01000000
00000000
,
00100000
00200000
00301000
00002000
,
00013000
00020000
00030100
00000200
,
00000310
00000001
00000010
00001000
,
00010000
01000000
10000000
00000000
,
00100000
00200000
01300000
02000000
,
03001000
00002000
00013000
00020000
,
00030100
00000010
00000001
00001000
,
00000010
00000000
00000000
00000000
00000100
00000000
00000000
00000001
00000000
00000001
00000000
00000001
00000000
00000000
00000000
00000000
,
00000100
00000010
00000000
00000010
,
00000000
00001000
00000000
00001000
,
00010000
00001000
00000000
00000000
00000000
00000000
00000000
00000000
,
00010000
00100000
10000000
01000000
,
10000000
00000000
00010000
00000000
00100000
00010000
01000000
00000000
,
10000000
00010000
00001000
00000001
,
00000100
00000000
00000001
00000000
00001000
00000100
00000010
00000000
,
00000001
00001000
00010000
10000000
,
00010000
00000000
10000000
00000000
00100000
00010000
01000000
00000000
,
10000000
00010000
00001000
00000001
,
00001000
00000000
00000100
00000000
00000001
00001000
00000100
00000000
,
00000010
00000001
00001000
00000000
,
00000010
00000000
00001000
00000000
00000100
00000001
00000100
00000000
,
00001000
00010000
01000000
10000000
,
00100000
00000000
10000000
00000000
00010000
01000000
00100000
00000000
,
00010000
00001000
00000010
00000001
,
00001000
00000000
00000010
00000000
00000100
00000010
00000100
00000000
,
00001000
01000000
00100000
10000000
,
00010000
00000000
00100000
00000000
00010000
10000000
01000000
00000000
,
00010000
00001000
00010000
00000000
,
00001000
00000000
00001000
00000000
00000100
00000001
00001000
00000000
,
00000200
00010000
00001000
00010300
,
00001000
00000000
00001000
00000000
00100000
00010000
01000000
00000000
,
00200000
01000000
10000000
01300000
,
10000000
00000000
10000000
00000000
01000000
00010000
00001000
00000000
,
00020000
00000010
00001000
00030010
,
00000100
00000000
00000001
00000000
00001000
00000100
00000010
00000000
,
00001001
00000000
00000000
00000000
,
00000010
00000001
00000100
00000001
,
00001000
00010000
10000000
00100000
,
01000000
00100000
10000000
01000000
,
00010000
00000100
00000010
00000000
,
00000001
00000000
00000001
00000000
00001000
00000100
00001000
00000000
,
00000010
00000000
00000010
00000000
00000100
00000001
00000100
00000000
,
00000010
00001000
00010000
01000000
,
00100000
00000000
00000000
00000000
10000000
00000000
00000000
01100000
,
;

//---------------dance-double - ----------------
#NOTEDATA:;
#CHARTNAME:;
#STEPSTYPE:dance-double;
#DESCRIPTION:;
#CHARTSTYLE:;
#DIFFICULTY:Hard;
#METER:9;
#RADARVALUES:0.336501,0.345202,0.078517,0.148310,0.017448,270.000000,261.000000,9.000000,17.000000,0.000000,0.000000,0.000000,0.000000,0.000000,0.336501,0.345202,0.078517,0.148310,0.017448,270.000000,261.000000,9.000000,17.000000,0.000000,0.000000,0.000000,0.000000,0.000000;
#CREDIT:;
#DISPLAYBPM:134.000000;
#NOTES:
00000000
00000000
00000000
00000000
,
00000000
00000000
00000000
00000000
,
00000000
00000000
00000000
00000000
,
00000000
00000000
00000000
00000000
,
00000000
00000000
00000000
00000000
,
00000001
00000010
00001000
00010000
,
01000000
10000000
01000000
00010000
,
01000000
00100000
00010000
00001000
,
00022000
00000000
00000000
00033000
,
00000010
00000000
00000001
00000000
00000100
00001000
00010000
00000000
,
00000010
00000000
00001000
00000000
00010000
01000000
00100000
00000000
,
10000000
00000000
00010000
00000000
00100000
01000000
10000000
00000000
,
01000000
00010000
00000100
00000010
,
00000001
00000000
00000001
00000000
00000100
00000010
00001000
00000000
,
00000001
00000000
00000100
00000000
00001000
00010000
00001000
00000000
,
00010000
00000000
01000000
00000000
10000000
00010000
00100000
00000000
,
00010000
01000000
00010000
00100000
,
00012000
00000000
00100000
00000000
00010000
00000000
00103000
00001000
,
00000200
00000000
00000010
00000000
00000001
00000000
00000310
00001000
,
00000200
00000000
00000010
00000000
00010000
00000000
00000310
00000001
,
00001000
00000010
00000100
00000000
,
00021000
00000000
00000010
00000000
00001000
00000000
00030010
00010000
,
02000000
00000000
00100000
00000000
10000000
00000000
03100000
00010000
,
02000000
00000000
00100000
00000000
00001000
00000000
03100000
10000000
,
00010000
00000000
00000000
00000000
00100000
00000000
00000000
01000000
00000000
00010000
00000000
00011000
00000000
00000000
00000000
00000000
,
00000200
00000010
00000000
00000010
,
00000000
00001000
00000000
00001300
,
00000002
00000200
00000000
00000000
00000000
00000000
00000303
00000000
,
00000010
00001000
00010000
00011000
,
00100000
00000000
10000000
00000000
01000000
00100000
00010000
00001000
,
00000200
00000000
00000010
00000000
00001000
00000000
00000310
00000001
,
00000100
00000000
00000010
00000000
00000100
00001000
00010000
00100000
,
02000000
00000000
00010000
00000000
10000000
00000000
03010000
00100000
,
01000000
00000000
10000000
00000000
00100000
00010000
00001000
00000100
,
00000020
00000000
00001000
00000000
00000100
00000000
00001030
00000001
,
00000100
00000000
00001000
00000000
00010000
00100000
10000000
01000000
,
00100000
01000000
01100000
00000000
,
00010000
00000000
00100000
00000000
10000000
01000000
00010000
00001000
,
00000200
00000000
00000001
00000000
00000010
00000000
00000301
00001000
,
00000100
00000000
00000010
00000000
00000001
00000010
00001000
00010000
,
00200000
00000000
10000000
00000000
01000000
00000000
10300000
00010000
,
01000000
00000000
10000000
00000000
01000000
00010000
00001000
00000010
,
00000200
00000000
00000001
00000000
00000010
00000000
00000301
00001000
,
00000100
00000000
00000010
00000000
00001000
00100000
01000000
00100000
,
00001000
00010000
00011000
00000000
,
01000000
00000000
01000000
00000000
00010000
01000000
10000000
00100000
,
01000000
00100000
00010000
00001000
,
00000100
00000000
00000100
00000000
00000010
00010000
00001000
00000100
,
00000001
00000010
00000001
00000100
,
00001000
00000000
00001000
00000000
00010000
00100000
10000000
00100000
,
01000000
00010000
10000000
01000000
,
00010000
00000000
00010000
00000000
00001000
00000010
00000001
00000010
,
00000100
00001000
00001001
00000000
,
00000010
00000001
00000100
00001000
,
00010000
00000000
00100000
00000000
01000000
00100000
01000000
00000000
,
00100000
10000000
01000000
00010000
,
00001000
00000000
00000010
00000000
00000100
00000010
00000100
00000000
,
00000001
00001000
00000001
00000000
00001000
00010000
00001000
00000000
,
00010000
10000000
00010000
00000000
01000000
00100000
01000000
00000000
,
00100000
10000000
00010000
00001000
,
00000001
00000000
00000000
00000000
00000000
00000000
00000000
00000000
00001000
00000000
00000000
00000010
00000000
00000000
00000110
00000000
,
;

//---------------dance-single - ----------------
#NOTEDATA:;
#CHARTNAME:;
#STEPSTYPE:dance-single;
#DESCRIPTION:;
#CHARTSTYLE:;
#DIFFICULTY:Challenge;
#METER:12;
#RADARVALUES:0.565820,0.531080,0.348964,0.331516,0.331516,454.000000,414.000000,40.000000,38.000000,0.000000,0.000000,0.000000,0.000000,0.000000,0.565820,0.531080,0.348964,0.331516,0.331516,454.000000,414.000000,40.000000,38.000000,0.000000,0.000000,0.000000,0.000000,0.000000;
#CREDIT:;
#DISPLAYBPM:134.000000;
#NOTES:
// measure 0
0000
0000
0000
0000
,  // measure 1
0000
0000
0000
0000
,  // measure 2
0000
0000
0000
0000
,  // measure 3
1000
0000
0000
0000
0001
0000
0100
0000
0010
0000
0000
0100
0000
0000
0001
0000
,  // measure 4
0010
0000
0000
0000
0001
0000
1000
0000
0100
0000
0000
1000
0000
0000
0001
0000
,  // measure 5
0010
0001
0010
0001
0000
0000
1000
0000
0100
0000
0000
0100
0000
0000
1000
0000
,  // measure 6
0010
0000
0000
0000
1000
0000
0100
0000
0010
0000
0000
0100
0000
0000
1000
0000
,  // measure 7
0100
0000
0000
0000
1000
0000
0001
0000
0010
0000
0000
0001
0000
0000
1000
0000
,  // measure 8
1001
0000
1000
0000
0100
0000
0000
0000
1000
0001
0000
0010
0001
0000
0100
0000
,  // measure 9
1001
0000
1000
0000
0100
0000
0010
0000
0001
0100
0000
0001
1000
0000
0000
0000
,  // measure 10
0010
0000
1000
0000
0100
0000
0000
0010
0001
0000
0100
0000
0001
0000
1000
0000
,  // measure 11
0010
0000
1000
0000
0100
0000
0010
0000
0001
0000
1000
0001
1000
0000
0000
0000
,  // measure 12
0010
0000
0100
0000
0001
0000
0010
0000
0110
0000
0000
1100
0000
0000
1001
0000
,  // measure 13
0000
0000
1000
0000
1000
0000
0100
0000
0010
0001
0000
0010
0001
0000
0000
0000
,  // measure 14
0100
0000
0010
0000
0010
0000
1000
0100
0000
1000
0001
0000
0001
0000
0000
0100
,  // measure 15
0000
0000
0010
0000
0010
0000
1000
0000
0001
0100
0000
0100
0001
0000
0000
0000
,  // measure 16
0010
0000
0001
0000
0100
0000
0001
0000
0101
0000
0000
1000
0100
0000
0010
0000
,  // measure 17
1001
0000
0000
0000
1000
0100
1000
0200
0000
0000
0000
0310
0001
0000
0100
0000
,  // measure 18
0110
0000
0000
0000
0010
1000
0010
2000
0000
0000
0000
3001
0100
0000
0010
0000
,  // measure 19
1010
0000
0000
0000
1000
0001
1000
0002
0000
0000
0000
0013
0001
0000
0100
0000
,  // measure 20
0110
0000
0000
0000
1000
0000
0001
0100
0001
0000
0000
0000
0000
0000
1000
0000
,  // measure 21
1100
0000
0000
0000
0010
0100
0010
0200
0000
0000
0000
0301
0010
0000
0100
0000
,  // measure 22
0110
0000
0000
0000
0001
1000
0001
2000
0000
0000
0000
3010
0100
0000
0001
0000
,  // measure 23
0011
0000
0000
0000
0001
1000
0001
2000
0000
0000
0000
3100
1000
0000
0010
0000
,  // measure 24
1001
0000
0000
0000
0001
0100
0001
0100
0000
0010
0000
1000
0001
0000
0000
0000
,  // measure 25
1002
0100
1000
0100
,  // measure 26
0010
0100
0010
1003
,  // measure 27
0011
2100
0010
0000
0100
0000
0001
0000
,  // measure 28
0010
0000
0001
0000
3100
1001
0110
0000
,  // measure 29
1002
0000
0103
0010
1000
1000
1000
0001
,  // measure 30
0010
0001
0000
0001
0100
0000
0020
0000
1000
0000
0000
0000
0130
0000
0001
0000
,  // measure 31
0012
0000
1003
0001
0100
0100
0100
0001
,  // measure 32
1000
0010
0000
0010
0100
0000
0002
0000
1000
0000
0000
0000
0103
0000
0010
0000
,  // measure 33
0210
0000
0301
1000
0100
0100
0100
1000
,  // measure 34
0010
1000
0000
0100
0010
0000
0002
0000
0100
0000
0000
0000
1003
0000
0001
0000
,  // measure 35
0102
0000
0103
0010
1000
1000
1000
0100
,  // measure 36
0010
0001
0000
0100
0001
0000
2000
0000
0000
0000
3010
0000
1000
0000
0100
0000
,  // measure 37
0210
0000
0000
0000
0310
0000
0100
0000
0001
1000
0001
0000
1000
0000
0100
0000
,  // measure 38
0010
0001
0000
1000
0001
0000
2000
0000
0100
0000
0000
0000
3010
0000
0100
0000
,  // measure 39
0201
0000
0000
0000
0301
0000
1000
0000
0100
1000
0100
0000
0010
0000
0001
0000
,  // measure 40
0100
0001
0000
0001
1000
0000
0020
0000
0100
0000
0000
0000
1030
0000
0100
0000
,  // measure 41
1200
0000
0000
0000
0301
0000
1000
0000
0010
1000
0010
0000
0100
0000
0001
0000
,  // measure 42
0010
0100
0000
0100
1000
0000
0020
0000
0001
0000
0000
0000
0130
0000
1000
0000
,  // measure 43
2001
0000
0000
0000
3100
0000
0010
0000
0001
1000
0001
0000
1000
0000
0100
0000
,  // measure 44
1000
0001
0000
0010
0001
0000
0200
0000
1000
0000
0000
0000
0310
0000
1002
0000
,  // measure 45
0000
2003
0000
3200
0000
0320
0000
0031
,  // measure 46
0100
0000
0010
1000
0000
1000
0200
0000
0000
0000
0000
0000
0310
0000
0001
0000
,  // measure 47
1000
0001
0010
0100
1000
0010
0100
0001
,  // measure 48
0020
0000
0000
0032
0000
0000
2003
0000
0000
0000
0000
0000
3001
0000
0010
0000
,  // measure 49
0001
1000
0100
0010
0001
1000
0010
0100
,  // measure 50
0010
0000
1000
0100
0000
1000
0001
0000
0000
0000
0001
0000
0100
0000
0010
0000
,  // measure 51
1000
0001
0010
0100
1000
0010
0100
0001
,  // measure 52
0010
0000
0001
0000
0100
0000
0000
0000
0010
1000
0000
0010
1000
0000
0001
0000
,  // measure 53
1002
0000
0103
0010
1000
1000
0001
0001
,  // measure 54
0011
0000
0101
0000
1001
1000
1100
0000
,  // measure 55
0020
0000
1030
0000
0001
0001
1000
1000
,  // measure 56
1100
0000
0101
0000
1010
0001
1000
0000
,  // measure 57
0120
0000
0100
0000
1030
0000
0000
0000
2001
0000
0000
0001
0000
0000
3100
0000
,  // measure 58
1000
0001
0100
0001
1000
0100
0020
0000
,  // measure 59
0031
1000
0001
0000
0100
0000
0000
0000
0010
0000
0010
0000
0100
0000
0100
0000
,  // measure 60
0102
0000
0000
0000
0013
0000
0001
0000
0001
1000
0000
1000
0100
0000
1001
0000
;
