#TITLE:Fascination ~eternal love mix~;
#ARTIST:2MB;
#BANNER:Fascination ~eternal love mix~.png;
#BACKGROUND:Fascination ~eternal love mix~-bg.png;
#JACKET:Fascination ~eternal love mix~-jacket.png;
#MUSIC:Fascination ~eternal love mix~.ogg;
#SAMPLESTART:36;
#SAMPLELENGTH:20;
#DISPLAYBPM:200;
#BPMS:0=199.6,8=200;
#BGCHANGES:;

//---------------dance-single - ----------------
#NOTES:
     dance-single:
     :
     Beginner:
     5:
     :
0000
0000
0000
0000
,
0000
0000
0000
0000
,
0000
0000
0000
0000
,
0000
0000
0000
0000
,
0000
0000
0000
0000
,
0000
0000
0000
0000
,
2000
0000
0000
0000
,
3000
0000
0000
0000
,
0002
0000
0000
0000
,
0003
0000
0100
0000
,
0020
0000
0000
0000
,
0030
0000
0000
0000
,
0200
0000
0000
0000
,
0300
0000
0000
0000
,
0000
0001
0001
0000
,
0000
1000
1000
0000
,
0000
0001
0001
0000
,
0000
1000
1000
0000
,
0000
0010
0010
0000
,
0000
0100
0100
0000
,
0000
0010
0010
0000
,
0000
0100
0100
0000
,
0000
0001
0001
0000
,
0000
0010
0010
0000
,
0000
0100
0100
0000
,
0000
1000
1000
0000
,
0000
0001
0001
0000
,
0000
0100
0100
0000
,
0000
0010
0010
0000
,
0000
1000
1000
0000
,
0001
0000
1000
0000
,
0001
0000
0010
0000
,
0100
0000
1000
0000
,
0001
0000
0100
0100
,
0100
0000
0010
0000
,
1000
0000
0001
0000
,
0010
0000
0001
0000
,
0100
0000
1000
0000
,
0001
0000
0000
0000
,
0000
0000
0000
0000
,
0000
1000
1000
0000
,
0010
0010
0010
0000
,
0000
0000
0000
0000
,
0000
0000
0100
0000
,
0001
0001
0001
0000
,
0000
0000
0000
0000
,
0000
0100
0100
0000
,
0001
0001
0001
0000
,
0000
0000
1000
1000
,
1000
0000
0000
0000
,
0100
0100
0000
0000
,
0000
0000
0010
0010
,
0000
0000
0001
0001
,
0001
0001
0000
0000
,
1000
1000
1000
0000
,
0001
0001
0000
0000
,
0100
0100
0000
0010
,
0010
0000
0100
0100
,
0000
0010
0010
0000
,
1000
1000
1000
0000
,
0001
0001
0001
0000
,
0010
0010
0010
0000
,
0002
0000
0003
0000
,
2000
0000
3000
0000
,
0020
0000
0030
0000
,
0200
0000
0300
0000
,
0002
0000
0003
0000
,
0020
0000
0030
0000
,
0200
0000
0300
0000
,
2000
0000
3000
0000
,
0001
0000
0001
0000
,
0001
0000
0001
0000
,
1000
0000
1000
0000
,
1000
0000
0010
0000
,
1000
0000
0100
0000
,
0100
0000
0100
0000
,
0010
0010
0010
0000
,
0001
0001
0001
0000
,
1000
1000
1000
0000
,
0001
0001
0001
0000
,
1000
1000
1000
0000
,
0100
0100
0100
0000
,
0010
0000
0000
0000
,
0000
0001
0000
0000
;

//---------------dance-single - ----------------
#NOTES:
     dance-single:
     :
     Easy:
     7:
     :
0000
0000
0000
0000
,
0000
0000
0000
0000
,
0000
0000
0000
0000
,
0000
0000
0000
0000
,
0000
0000
0000
0000
,
0000
0000
0000
0000
,
1000
0010
1000
0001
,
0010
0100
1000
0000
,
0001
0010
0001
0100
,
0010
1000
0001
0000
,
0100
0000
0010
1000
,
0001
0000
0010
0000
,
1001
0000
0000
1000
0000
0001
0000
1000
,
0000
0010
0100
0001
,
1000
0000
0100
0010
,
0001
1000
0001
0000
,
0110
0000
0000
0001
0000
1000
0000
0001
,
0000
1000
0010
0100
,
0001
0010
1000
0000
,
0100
1000
0001
0000
,
1001
0000
0000
0001
0000
0100
0000
0001
,
0000
0010
1000
0001
,
0110
0000
1000
0000
,
0001
0010
0100
0000
,
1001
0000
0000
1000
0000
0010
0000
0100
,
0000
0001
0010
0100
,
1000
0010
0100
0000
,
0001
1000
0001
0000
,
0110
0000
0000
0010
0000
1000
0000
0100
,
0000
0010
0001
0100
,
0001
0010
0001
0100
,
1000
0010
0001
0100
,
0001
0010
0001
0100
,
0001
0010
1000
0001
,
1000
0010
1000
0100
,
0010
0001
0100
0001
,
0010
1000
0100
0001
,
1000
0010
0001
0100
,
0020
1030
0001
1000
,
0100
0010
0001
0100
,
0001
2000
3020
0230
,
0302
2003
3002
1003
,
0010
0001
0100
1000
,
0001
0010
0002
2003
,
3002
0203
0320
1030
,
0100
1000
0010
0001
,
1000
0002
2003
3200
,
2300
3020
0230
0301
,
0010
0001
2000
3002
,
0203
0310
0100
0001
,
2000
3002
0013
0010
,
0001
0100
0002
2003
,
3010
0010
2000
3200
,
2300
3002
1003
0010
,
0200
0302
0023
0230
,
2300
3002
1003
0100
,
0020
0031
0000
2000
,
3001
0000
0200
0320
,
0230
0302
0023
0230
,
2300
3002
2003
3002
,
2003
3020
0230
0302
,
0023
0230
2300
3002
,
0103
0000
0010
1000
,
0100
0000
0010
0001
,
1000
0000
0001
0010
,
1000
0000
0100
0010
,
0100
0000
1000
0010
,
1000
0000
0001
0010
,
1000
0000
0100
0010
,
0002
0003
2000
3000
,
1001
0000
0010
1000
,
0100
0000
0010
0000
0001
1000
0001
0000
,
0000
0100
0000
0000
0010
0000
1000
0000
,
0100
0010
0100
0000
0000
1000
0000
0000
,
0001
0000
1000
0000
0001
0010
0001
0000
,
0000
0100
0000
0000
0010
0000
1000
0000
,
0110
1000
0100
0001
,
1000
0001
0010
0100
,
0010
0001
0100
0001
,
0010
1000
0001
1000
,
0010
1000
0100
0001
,
1000
0001
0010
0100
,
2000
0000
0000
0000
0000
0000
0001
0000
0000
0000
0100
0000
,
0000
3001
0000
0000
;

//---------------dance-single - ----------------
#NOTES:
     dance-single:
     :
     Medium:
     11:
     :
0000
0000
0000
0000
,
0000
0000
0000
0000
,
0000
0000
0000
0000
,
0000
0000
0000
0000
,
0000
0000
0000
0000
,
0000
0000
0000
0000
,
1000
0000
0100
0000
1000
0000
0001
0000
0100
0000
0001
0000
,
0000
0000
0000
0000
,
1000
0000
0010
0000
1000
0000
0001
0000
0010
0000
0001
0000
,
0000
0000
0000
0000
2000
0002
3003
0000
,
1000
0000
0100
0000
1000
0000
0001
0000
0010
0000
0001
0000
,
0000
0000
0000
0000
,
1000
0000
0010
0000
1000
0000
0001
0000
0100
0000
0001
0000
,
0000
1001
0110
1001
,
1000
0000
0100
0000
0010
0000
0001
0000
0100
0000
0010
0000
,
1000
0001
1000
0100
,
0010
0000
0001
0000
1000
0000
0010
0000
1000
0000
0001
0000
,
0000
0110
1001
0110
,
1000
0000
0001
0000
0100
0000
0001
0000
1000
0000
0100
0000
,
0010
0001
0100
1000
,
0001
0000
1000
0000
0010
0000
1000
0000
0001
0000
0100
0000
,
0001
0011
0110
1100
,
0001
0000
1000
0000
0001
0000
0100
0000
0010
0000
1000
0000
,
0000
1100
0101
0000
,
1000
0001
0000
0110
0000
1001
0000
0110
,
0000
1000
0001
0000
0101
0000
1010
0000
,
1000
0000
0001
0000
1000
0000
0100
0000
0010
0000
0001
0000
,
0100
0000
0001
1000
0000
0001
0000
0100
,
0010
1000
0000
0101
0000
1100
0000
0101
,
0000
0011
0110
1100
,
0001
1000
0001
0000
0100
0010
0100
0000
,
0001
0010
0000
1000
0100
0010
0000
0001
,
1000
0000
0001
0100
0001
0000
1000
0100
,
1000
0000
0010
1000
0100
0010
0001
1000
,
0001
0100
0001
0000
1000
0010
1000
0000
,
0001
1000
0000
0001
0010
0100
0000
1000
,
0010
0000
0100
0001
0100
0000
0001
0010
,
0001
0000
1000
0100
0010
0001
0100
0010
,
1000
0001
0100
0001
,
0010
0000
1000
0000
0100
0010
0001
0000
,
1000
1001
1010
0101
,
0011
0000
0110
0000
1100
0000
0001
0100
,
0001
0100
0001
0000
1000
0000
0001
0010
,
0001
0010
0100
1000
0001
0000
1000
0000
,
1100
0000
0101
0000
1100
0000
0010
0001
,
0100
0000
0100
0010
1000
0001
1000
0000
,
0100
0110
1001
1010
,
0101
0000
1100
0000
0011
0000
1000
0001
,
1000
0010
0110
0101
,
1001
0000
1000
0100
1000
0100
1000
0100
,
0010
0010
0011
1010
,
0100
0100
0101
1100
,
0001
0100
0001
1000
0100
0000
0100
0000
,
1001
0000
0110
0000
1000
0010
1000
0001
,
0020
0230
2300
3002
,
0203
0000
0320
0000
1030
0100
0010
0001
,
0200
0310
0000
0101
,
0011
0000
1001
0011
,
0110
1100
0101
1100
,
1001
1001
1001
1001
,
0010
1000
0100
0000
0010
0001
0100
0010
,
1000
0100
0001
0000
1001
0000
0110
0000
,
1000
0100
0001
0000
0010
0000
0001
1000
,
0100
0000
1100
1100
,
0001
0000
0000
0000
0100
0000
0100
0001
,
1000
0001
0011
0011
,
0100
1000
0000
0000
1010
0000
0010
1000
,
0001
0000
0110
1000
,
0001
0100
0000
0000
1001
0000
1001
0000
,
0001
0000
0010
0000
0001
0000
1000
0000
0010
0000
1000
0000
,
0001
0100
0000
0001
0100
0010
0000
1000
,
0001
1000
0100
0000
0010
0001
0100
0000
,
0010
1000
0000
0001
1000
0000
0100
0000
,
0010
0001
1000
0000
0001
1000
0000
0100
,
0001
0000
0010
0000
0100
1000
0010
0000
,
1000
0001
0000
1000
0100
0000
0010
0000
,
0011
0000
0100
0000
1000
0010
0001
1000
,
0010
0000
0100
0000
0001
0010
1000
0001
,
1000
0000
0100
0000
0010
0001
0100
0001
,
0010
0000
0100
0000
1000
0001
1000
0010
,
1000
0000
0100
0000
0001
0010
0100
1000
,
0001
0000
1000
0000
0001
0100
0010
1000
,
0002
0000
0000
0003
0000
0000
1001
0000
0000
0000
0010
0000
,
0000
1000
0000
0001
0000
0100
0000
0000
0000
0000
0000
0010
,
0000
0100
0000
0000
0000
0000
0000
0000
0000
0000
0000
0000
;

//---------------dance-single - ----------------
#NOTES:
     dance-single:
     :
     Hard:
     13:
     :
0000
0000
0000
0000
,
0000
0000
0000
0000
,
0000
0000
0000
0000
,
0000
0000
0000
0000
,
0000
0000
0000
0000
,
0000
0000
0000
0000
,
1000
0000
0100
0000
1000
0000
0001
0000
0100
0000
0001
0000
,
0010
0001
1000
0100
,
0001
0000
0010
0000
0001
0000
1000
0000
0010
0000
1000
0000
,
0100
0000
0010
0000
0002
2000
3003
0000
,
0001
0100
1000
0010
0001
0100
0010
1000
,
0001
0000
0010
0100
0000
0100
0000
0100
,
1000
0010
0100
0001
1000
0001
0010
0100
,
1000
0010
0001
0100
0001
0010
1000
0000
,
0001
0010
1000
0100
0001
0010
0100
1000
,
0010
0000
0100
0001
0000
0001
0000
0001
,
0010
0100
1000
0001
0000
0100
0000
0001
,
1000
0000
0010
0100
0010
1000
0001
0000
,
0010
0001
1000
0001
0010
0000
0100
1000
,
0001
1000
0001
0100
0000
0010
0000
0010
,
1000
0100
0000
0010
0001
1000
0001
0100
,
0010
0000
1000
0100
0010
0001
0100
0001
,
0010
0100
0000
1000
0001
0000
1000
0001
,
1000
0000
0010
0100
0000
0001
0000
1000
,
0100
0010
0001
0100
0001
0010
1000
0001
,
0100
1010
1001
1100
,
0010
0001
0100
1000
0001
0000
1000
0010
,
1000
0000
0100
0010
0000
0001
0000
0100
,
0001
1000
0010
0100
0001
0010
1000
0001
,
0100
0101
1001
0011
,
1000
0100
0011
0000
0100
0001
1010
0000
,
0001
1100
0000
0010
1000
0101
0000
0010
,
1001
0000
0100
0001
1100
0000
0010
0001
,
1100
0000
0010
0001
1000
0010
0001
0100
,
0001
0010
1100
0000
0010
1000
0101
0000
,
0010
1001
0000
0100
0001
1010
0000
0100
,
0011
0000
1000
0001
0010
1000
0100
0010
,
0001
0100
0001
0010
1000
0100
0001
1000
,
0020
0000
1030
0000
0100
0001
0010
0001
,
1000
0000
0100
0000
0010
0001
0100
0001
,
0010
0000
0001
0100
1000
0100
0001
0000
,
0011
0000
0110
0000
1100
0000
0001
1000
,
0010
1000
0001
0000
0100
0000
0001
0010
,
0001
0100
1000
0010
0001
1000
0100
0000
,
1010
0000
0110
0000
0101
0000
0010
0001
,
1000
0010
0001
0010
1000
0100
0010
0001
,
0100
0101
1100
0101
,
0011
0000
0110
0000
1100
0000
0001
0100
,
0010
1000
0001
1000
0100
0010
0001
0100
,
0001
0000
0010
1000
0001
0010
1000
0100
,
1001
0000
0110
0000
1000
0010
0001
0100
,
0001
0000
0010
0100
1000
0010
0001
0000
,
1000
0100
0010
0001
0100
0001
0010
0000
,
1100
0000
1010
0000
0001
0010
1000
0100
,
0010
0001
0100
0001
0010
0000
0100
1000
,
0010
1000
0001
0000
1000
0100
0010
0001
,
0011
1100
0001
1010
,
0101
0100
1001
0110
,
1001
1100
0110
0011
,
0101
0000
1010
0000
0001
0010
1000
0100
,
0010
0001
1000
0001
0100
0010
0100
0001
,
0010
1000
0100
0001
1000
0001
0010
0100
,
1000
0100
0002
0000
0013
0000
0001
1000
,
0010
0100
0001
0010
,
1000
0000
0100
0000
0001
0000
0010
1000
,
0001
0000
1000
0000
0100
0000
0010
0001
,
0100
0000
0001
0000
0010
0000
1000
0001
,
1000
0100
0010
0001
,
0100
0001
0010
1000
,
0001
0000
0100
0000
0010
0000
1000
0000
0100
0000
0001
0000
,
1000
0010
1000
0001
0010
0100
1000
0010
,
1000
0001
0100
0000
0001
0010
1000
0100
,
0010
0001
0100
0001
1000
0010
0100
0000
,
0001
0010
0001
0100
0001
0010
0100
1000
,
0010
0100
0001
0000
1000
0100
1000
0001
,
0010
0100
1000
0010
1000
0001
0010
0100
,
1100
0000
0001
0010
0001
0100
0001
0010
,
0100
1000
0001
1000
0010
0100
0001
1000
,
0001
0010
0001
0100
0001
0010
1000
0001
,
1000
0010
0100
0001
0010
0100
1000
0001
,
0010
1000
0100
0010
0001
0100
0001
0010
,
1000
0001
1000
0010
0100
0001
1000
0100
,
0110
0000
0000
0000
0000
0000
0001
0000
0000
0000
1000
0000
,
0000
0001
0000
0100
0000
0010
0000
0000
0000
0000
0000
0100
,
0000
0100
0000
0000
0000
0000
0000
0000
0000
0000
0000
0000
;

//---------------dance-single - ----------------
#NOTES:
     dance-single:
     :
     Challenge:
     18:
     :
0000
0000
0000
0000
,
0000
0000
0000
0000
,
0000
0000
0000
0000
,
0000
0000
0000
0000
,
0000
0000
0000
0000
,
0000
0000
0000
0000
,
1000
0010
0100
0001
1000
0100
0001
0010
0100
0001
0010
1000
,
0100
0001
0010
0000
1100
0000
0101
0000
,
0001
0100
0010
1000
0010
0100
0001
0100
0001
1000
0010
1000
,
0001
0000
0100
0000
1000
0000
0000
0000
0010
0100
0010
0100
0010
0000
0000
0000
,
1000
0100
0010
0001
0100
0001
0010
0100
0001
1000
0010
1000
,
0001
0010
0001
1000
0000
0100
0000
0100
,
0010
0001
1000
0100
1000
0010
0001
0010
0100
0001
0100
1000
,
0010
1000
0001
1000
0100
0010
0001
0000
,
0100
0001
1000
0010
1000
0010
0100
0001
0100
1000
0010
0001
,
0100
0000
0110
0000
1010
0000
0001
1000
,
0001
0010
0100
0010
1000
0010
1000
0001
0100
1000
0100
0001
,
1000
0010
0110
0100
0101
1000
0001
0000
,
0010
0001
0100
0001
0010
1000
0100
1000
0010
0001
1000
0100
,
0010
0000
1001
0000
0011
0100
1000
0000
,
1001
1010
0001
0101
0000
0011
1000
1100
,
0000
1000
0110
0010
1001
0100
0110
0000
,
1001
0001
0011
1000
1100
0000
0010
0100
,
0001
0000
1100
0010
0101
0000
1000
0001
,
1001
0011
0100
1100
0010
1010
0001
1100
,
0010
0000
0110
0001
0011
1000
0101
0000
,
1000
0001
1100
0010
0110
0100
0001
0010
,
0001
0000
1001
0100
1010
0100
0001
0000
,
0011
1001
0010
0101
1000
1100
0001
0101
,
0010
0100
0110
0001
0011
1000
1100
0000
,
0011
0110
1100
0000
1010
1001
0101
0000
,
0011
1100
0000
1001
0011
1100
0000
0110
,
0011
0000
1001
0101
0011
0000
1001
1010
,
1100
0000
0101
0100
0110
0010
1010
1000
,
1100
1001
0101
0000
0011
1001
1010
0000
,
0110
1001
0000
0011
1100
0101
0000
1010
,
1100
0000
0110
0010
0011
0001
0100
1000
,
1010
0001
0100
1000
0011
1000
0100
0001
,
1000
0001
1000
0000
0010
0000
0100
0000
0001
0000
0010
0000
1000
0000
0001
0000
,
0100
0010
1000
0010
0001
0001
0100
1000
,
0100
0000
0001
0000
0001
0100
1000
0000
0010
1000
0100
0000
0010
0001
1000
0000
,
1000
0010
0100
0000
0001
1000
0100
0000
0010
0001
0010
0000
1000
0000
0001
0000
,
0100
1000
0100
1000
0001
0010
0010
0001
,
0100
0000
1000
0000
0010
0000
0100
0000
1000
0100
0001
0000
0001
0100
0010
0000
,
0010
1000
0010
0000
0001
0010
0100
0000
0100
1000
0001
0000
1000
0000
1000
0000
,
1000
1000
0010
0001
0001
0010
0100
0100
,
0001
0000
0100
0000
0001
1000
0010
0000
1000
0100
0010
0000
1000
0001
0100
0000
,
0010
0100
1000
0000
0001
0100
1000
0000
0001
0010
0100
0000
0100
0000
0010
0000
,
0010
0000
0010
0000
1000
0000
1000
0000
0001
1000
0001
0000
0100
0001
0100
0000
,
1000
0100
0010
0000
0001
1000
0010
0000
0001
0000
0100
0000
1000
0000
0100
0000
,
0001
0010
0100
0000
1000
0010
0100
0000
0101
0000
1000
0000
0101
0000
0010
0000
,
1000
0000
0001
0000
0010
0000
1000
0000
0100
0010
0001
0000
0100
1000
0010
0000
,
0110
0000
0001
0000
0110
0000
1000
0000
0001
0010
1000
0000
0100
1000
0001
0000
,
1000
0010
0001
0000
0100
0001
0010
0000
1100
0000
0010
0000
0101
0000
1000
0000
,
0011
0110
1100
0110
0011
0000
1100
0110
,
0011
0110
1100
0000
1001
0100
0010
0010
,
1010
0100
1010
0100
0001
0000
0011
1000
,
0011
0000
1000
0000
0100
0000
0000
0000
1000
0010
0100
0000
0001
0010
1000
0000
,
1100
0100
0110
0010
0011
0100
0101
1000
,
1001
0100
1001
0010
1001
0100
1001
0010
,
1010
0001
1100
0001
0011
0100
1100
0100
,
0110
0010
0011
1000
0101
0100
0110
0001
,
1001
0000
0000
0000
1000
0100
0010
0001
0100
0000
0000
0000
0010
0001
0100
0010
,
1000
0000
0000
0000
0001
0010
0100
1000
0010
0000
0000
0000
1000
0001
1000
0010
,
0100
0000
0000
0000
0001
0010
0001
0100
1000
0000
0000
0000
0001
0010
0100
0010
,
0001
0000
0000
0000
0100
0010
1000
0001
0100
0000
0000
0000
0001
0010
1000
0100
,
0010
0000
0000
0000
0001
1000
0001
0010
0100
0000
0000
0000
0010
0001
0100
0001
,
0010
0000
0000
0000
1000
0100
0001
0010
1000
0000
0000
0000
0001
0100
0010
0100
,
0001
0000
0000
0000
1000
0100
0010
0001
1000
0000
0000
0000
0001
0100
0010
1000
,
0001
1000
0010
0100
0010
1000
0001
0100
0001
1000
0100
0010
,
0001
0000
0100
0000
0010
1000
0010
0100
0001
0000
0010
0000
0100
1000
0100
0010
,
0001
0000
0100
0000
0001
1000
0001
0010
0100
0000
1000
0000
0001
1000
0100
0010
,
1000
0000
0001
0000
0010
0100
0010
0001
0100
0000
1000
0000
0001
0010
0001
0100
,
0001
0000
0010
0000
1000
0001
1000
0100
0001
0000
0010
0000
0100
0010
0001
0100
,
1000
0000
0010
0000
0001
1000
0001
0010
1000
0000
0100
0000
0010
0100
0010
0001
,
0100
0000
1000
0000
0001
0010
1000
0100
0001
0000
0010
0000
0001
0100
1000
0001
,
0100
0000
1000
0010
0001
0000
0010
1000
0100
0000
0010
0001
1000
0000
0001
0100
,
0010
0000
1000
0001
1000
0000
0100
1000
0100
0000
0010
0100
0001
0000
0001
0010
,
0001
0000
0100
0001
0010
0000
1000
0100
0001
0000
1000
0010
0100
0000
0001
1000
,
0100
0000
0001
1000
0010
0000
1000
0100
0010
0000
1000
0001
0100
0000
0001
0010
,
1000
0000
0010
0001
0010
0000
0001
0100
0001
0000
1000
0010
0100
0000
0100
1000
,
0100
0000
0100
0001
1000
0000
1000
0100
0001
0000
0010
1000
0010
0000
0001
0010
,
1000
0000
0000
0000
0000
0000
1100
0000
0000
0000
0011
0000
,
0000
0110
0000
1001
0000
0110
0000
0000
0000
0000
0000
1000
,
0000
0101
0000
0000
0000
0000
0000
0000
0000
0000
0000
0000
;
