#TITLE:Fascination MAXX;
#ARTIST:100-200-400;
#BANNER:Fascination MAXX-bn.png;
#BACKGROUND:Fascination MAXX-bg.png;
#JACKET:Fascination MAXX-jacket.png;
#MUSIC:Fascination MAXX.ogg;
#SAMPLESTART:22.202;
#SAMPLELENGTH:20;
#DISPLAYBPM:100:200;
#BPMS:0=199.6,8=200,231=100,235=200,306=100,314=200;
#STOPS:88.5=0.3,242.66667=0.3;
#BGCHANGES:;

//---------------dance-single - ----------------
#NOTES:
     dance-single:
     :
     Beginner:
     4:
     :
0000
0000
0000
0000
,
0000
0000
0000
0000
,
0000
0001
0000
0001
,
0000
0001
0000
0001
,
0000
0001
0000
0001
,
0000
0001
0000
0001
,
0000
0001
0000
0001
,
0000
0001
0000
0001
,
0000
0001
0000
0001
,
0000
0001
0000
0001
,
0000
0000
0010
0000
,
0001
0000
0100
0000
,
1000
0000
0010
0000
,
0000
1000
0000
0001
,
0000
0000
0100
0000
,
0010
0000
1000
0000
,
0001
0000
1000
0000
,
0001
0000
0100
0000
,
0010
0000
1000
0000
,
1000
0000
0001
0000
,
1000
0000
0010
0000
,
0100
0000
0001
0000
,
1000
0100
0000
1000
,
0000
0010
0000
0100
,
0000
0001
0000
1000
,
0000
0001
0000
0010
,
0000
0010
0000
0010
,
0000
0010
0000
0010
,
0000
0010
0000
0010
,
0000
0010
0000
0010
,
0000
0010
0000
0010
,
0000
0010
0000
0010
,
0000
0010
0000
0010
,
0000
0010
0000
0010
,
0000
0000
0000
0000
,
0000
0000
0000
0000
,
0001
1000
0001
0100
,
0000
0000
0000
0000
,
0000
0000
0000
0000
,
0010
0000
0000
1000
,
0000
0000
0000
0000
,
0000
0000
0000
0000
,
0100
0000
0000
0001
,
0000
0000
0000
0000
,
0000
1000
0000
0000
,
0000
0000
0000
0010
,
0000
0000
0000
0000
,
0000
0100
0000
0000
,
0001
0000
0000
1000
,
0000
0000
0000
0001
,
0010
1000
0000
0000
,
0000
0000
0000
0100
,
0000
0000
0100
0000
,
0000
0100
0000
0000
,
1000
0001
1000
0010
,
0000
0000
0000
0100
,
0010
1000
0000
0000
,
0001
0000
0000
1001
,
0000
0000
0000
0002
,
0000
0000
0000
0000
,
0000
0000
0003
0200
,
0000
0000
0000
0000
,
0000
0300
0000
0010
,
0000
0010
0000
0010
,
0000
0010
0000
1000
,
0000
1000
0000
1000
,
0000
1000
0000
0001
,
0000
0001
0000
0001
,
0000
0001
0000
0100
,
0000
0100
0000
0100
,
0000
0100
0010
0000
,
1000
0000
0001
0000
,
1000
0100
0000
0010
,
0001
1000
0000
0001
,
0000
1000
0000
0001
,
0000
0010
0000
0100
,
1000
0001
0100
0000
,
0000
0000
1001
0000
,
0000
0000
1000
0000
,
0001
0000
0010
0000
,
0001
0100
1000
0000
,
0010
0100
0000
0000
;

//---------------dance-single - ----------------
#NOTES:
     dance-single:
     :
     Easy:
     7:
     :
0000
0000
0000
0000
,
0000
0000
0000
0000
,
0000
0000
0000
0000
,
0000
0000
0000
0000
,
0000
0000
0000
0000
,
0000
0000
0000
0010
,
0000
0001
0000
0000
0100
0000
0000
0000
,
0000
0000
0010
0000
0000
1000
0000
0000
,
0100
0000
0000
0010
,
0000
0001
0000
0000
1000
0000
0100
0000
,
1001
0010
0001
0100
,
0001
0010
0100
1000
,
0010
1000
0100
0010
,
0001
0100
0001
0010
,
1000
0001
1000
0010
,
1000
0100
0010
0001
,
0100
0001
0010
0100
,
1000
0010
1000
0100
,
1001
0000
1000
0010
,
1000
0001
0010
0100
,
1000
0010
0100
0001
,
0010
0001
0100
0010
,
1000
0001
1000
0000
0010
0000
1000
0000
,
0100
0010
0001
0100
,
0001
0000
0010
1000
0000
0010
1000
0000
,
0001
1000
0100
0010
,
0000
0000
1001
1001
,
0000
0110
0000
1000
,
0001
0000
0000
1000
0000
0000
0000
0000
0000
0000
0000
1010
,
0000
0000
0000
0000
0000
0101
0000
0000
0000
1000
0000
0000
,
0000
1001
0000
0100
,
0010
0110
0000
0001
,
0001
1000
1000
0010
,
1000
0100
0001
0020
,
0031
0000
0100
0010
,
0000
1000
0001
0000
,
2000
3200
0320
0032
,
0103
0010
1000
0100
,
0010
0001
0100
0000
,
0002
1000
0103
2000
,
3010
0000
0100
0000
,
0001
0000
0010
0000
,
0002
0100
0013
0200
,
0310
1000
0001
0010
,
1000
0200
0300
0010
,
0001
1000
0010
0100
,
1001
0000
1010
0000
,
0101
1000
1100
0001
,
0100
0010
1000
0110
,
0000
0001
0000
1000
0000
0000
0002
0000
,
2003
3020
0030
0100
,
0001
1000
0100
0020
,
0000
0030
0002
0000
,
0003
2000
0000
3000
,
0020
0230
0302
0103
,
0110
1000
1001
2000
,
3020
2030
3001
0100
,
1010
0001
1000
1001
,
0010
1000
0100
0002
,
0000
0000
0000
2000
,
3003
1100
0101
0200
,
0000
0000
0020
0330
,
0110
0110
1000
0001
,
0010
0001
0100
0010
,
1000
0100
0001
0010
,
1000
0001
1000
0010
,
1000
0100
1000
0000
0000
0010
0000
0000
,
0001
0000
0000
0000
0100
0010
0100
0000
,
0000
0001
0000
0000
1000
0000
0000
0000
,
0001
0010
0001
0000
0000
0100
0000
0000
,
1000
0001
1001
0010
,
1000
0100
0001
0010
,
0001
0100
0001
0010
,
1000
0001
1000
0100
,
0010
0001
0100
0010
,
0100
0001
0010
0100
,
1000
0001
0100
0010
,
1000
0000
0000
0000
0001
0000
0000
0000
1001
0000
0000
0000
1000
0000
0000
0001
,
0000
0100
0100
0100
0001
0000
0010
0000
,
1000
0010
1000
0001
,
1000
0100
0010
0001
0000
0000
0000
0000
,
0100
0010
1000
0001
0000
0000
0000
0000
;

//---------------dance-single - ----------------
#NOTES:
     dance-single:
     :
     Medium:
     11:
     :
0000
0000
0000
0000
,
0000
0000
0000
0000
,
0000
0000
0000
0000
,
0000
0000
0000
0000
,
0000
0000
0000
0000
,
0000
0000
0000
0000
1000
0100
0010
0000
,
0001
1000
0000
0001
1000
0000
0000
0000
,
0010
0100
0001
0000
1000
0100
0000
1000
,
0100
0000
0000
0000
0010
0001
1000
0000
,
0010
0100
0000
0010
0100
0000
0001
0000
,
1000
0000
0010
0100
0001
0000
1000
0001
,
0000
0000
0010
0100
1000
0010
0100
0001
,
0000
0011
0000
1100
0000
0000
0000
0000
,
0000
0001
1000
0100
0010
0001
0010
0001
,
0000
0000
0000
0000
0100
0010
1000
0001
,
0000
1010
0000
0101
0000
0000
0000
0000
,
1000
0100
1000
0001
0000
1000
0100
0010
,
0000
0000
0001
0100
0010
1000
0100
0010
,
0001
0000
0001
0000
1000
0100
0000
0001
,
0100
0000
1000
0010
0000
0100
0001
0000
,
0010
0001
0010
0100
1000
0000
0001
0100
,
0001
0000
1000
0010
0000
1000
0100
0000
,
0010
0001
1000
0010
0000
0001
0010
0000
,
1000
0100
0000
0001
0100
0000
0001
0010
,
0100
0010
0100
1000
0000
0001
1000
0000
,
0010
1000
0000
0001
0100
0010
1000
0000
,
0001
0000
0011
1100
,
0000
0001
1000
0000
0000
0001
1000
0000
,
1100
0000
0000
0101
0000
0000
0000
0000
0000
0000
0000
1000
,
0000
0100
0000
0000
0000
0010
0000
0001
0000
0100
0000
0000
,
0000
0000
0000
1001
0000
0000
0000
0000
0000
1000
0000
0001
,
0000
1000
0000
0100
0000
0000
0000
0000
0000
0010
0000
0001
,
0000
0010
0000
0100
0000
1000
0000
0100
0000
2000
0000
0000
,
3020
0230
0302
0023
,
0031
0100
1000
0001
,
1000
0000
0010
0000
0100
0010
0100
0000
,
0002
0023
0230
2300
,
3001
0000
1000
0000
0001
0010
0001
0000
,
0100
0000
0010
1000
0010
0000
1000
0000
,
0002
0000
0103
0000
1000
0001
2000
0000
,
3100
0000
0010
0001
0100
0000
0001
0010
,
1000
0000
0100
0000
0010
0001
0010
0000
,
0200
1300
0001
2000
,
3010
0000
0100
0000
0001
1000
0001
0000
,
0010
0000
0200
0000
0310
0001
0100
0000
,
0100
0000
0100
0010
0100
0010
2000
0000
,
3001
0000
0010
0001
0100
0000
0010
0000
,
1000
0100
2000
0000
3001
0100
0001
0000
,
0210
0301
1000
2001
,
3010
2000
0000
3002
0000
0003
0020
0000
,
0032
0000
2003
0000
3010
0100
0010
1000
,
0010
0000
0100
0000
0001
1000
0002
0000
,
0000
0003
2000
0000
,
3000
0000
0020
0000
0130
0001
1000
0000
,
0020
2030
3200
0320
,
0031
0000
0100
0000
0001
1000
0002
0000
,
2003
0000
3200
0000
0310
0001
0100
0010
,
2000
0001
3100
1001
,
0010
0001
1000
0000
0100
1000
0002
0000
,
0000
2003
0000
3020
,
0000
0000
0000
1030
0000
0001
1000
0000
0001
0200
0000
0000
,
0000
0000
0320
0000
,
1030
0000
0000
0000
0100
0000
1000
0000
0000
0000
0100
0000
1000
0000
0000
0000
0000
0000
0001
0000
0000
0100
0000
0000
,
0000
0010
1000
0000
0100
0010
0000
0001
,
1000
0000
0001
0100
0001
0000
1000
0000
,
0010
1000
0100
0010
0001
1000
0001
0000
,
1000
0100
0010
0000
0001
1000
0000
0001
,
1000
0000
0000
0000
0001
1000
0100
0000
,
0010
0001
0000
0010
0001
0000
0000
0000
,
0100
0010
1000
0000
0001
0100
0000
0001
,
0100
0000
0010
0000
1001
0000
1000
0100
,
0010
0001
0100
0010
1000
0000
0001
0000
,
1010
0000
1000
0001
1000
0001
0010
0100
,
1000
0000
0100
0000
0010
0001
0100
0010
,
1000
0001
0000
1000
0100
1000
0001
0000
,
0010
0100
1000
0000
0001
0100
0010
1000
,
0100
0010
0001
1000
0002
0000
0100
0000
,
0013
0000
0000
1000
0000
0001
0000
0000
1001
0000
0000
0001
0000
1000
0000
0001
,
0000
1100
0110
0011
1000
0100
0001
0000
,
0010
0100
0000
1000
0001
0000
1000
0010
,
1000
0001
0100
0010
0000
0000
0000
0000
,
1000
0100
0010
0001
0000
0000
0000
0000
;

//---------------dance-single - ----------------
#NOTES:
     dance-single:
     :
     Hard:
     13:
     :
0000
0000
0000
0000
,
0000
0000
0000
0000
,
0000
0000
0000
0000
,
0000
0000
0000
0000
,
0000
0000
0000
0000
,
0000
0000
0000
0000
1000
0100
0010
0001
,
0100
0001
0010
0100
1000
0000
0001
0000
,
0100
0001
0010
0100
1000
0010
1000
0001
,
0100
0000
0010
0000
1000
0100
0010
0001
,
1000
0001
0010
0100
1000
0000
0001
1000
,
0100
0010
0001
0100
0001
0010
1000
0100
,
0000
0010
0001
1000
0001
0010
0100
1000
,
0000
0010
1000
0001
0000
0100
0100
0010
,
1000
0001
0010
0001
0100
0010
1000
0001
,
0000
0010
0001
0010
0100
1000
0010
0100
,
0001
1000
0001
0010
0000
0100
0100
1000
,
0001
0100
0001
0010
0100
1000
0010
1000
,
0001
0100
0010
0100
0001
1000
0100
0010
,
1001
0000
0110
0000
1000
0100
0001
1000
,
0010
0001
1000
0100
0001
1000
0010
0001
,
1000
0100
0001
0100
1000
0000
0001
0010
,
1000
0001
0100
1000
0001
0010
0100
1000
,
0010
0100
0001
0010
1000
0001
0100
1000
,
0001
0010
1000
0001
0100
1000
0010
0100
,
0001
1000
0100
0001
0000
0010
0001
0100
,
0001
0010
0100
1000
0010
0100
0002
0000
,
0000
0003
1100
0101
,
0000
0010
0010
0000
0000
1000
1000
0000
,
1010
0000
0000
0101
0000
0000
0000
0000
0000
0000
0000
1000
,
0000
0100
0000
0000
0000
0010
0000
0001
0000
0200
0000
0000
,
0300
0000
0000
1001
0000
0000
0110
0000
0000
1000
0000
0001
,
0000
1000
0000
0010
0000
0000
0000
0000
0000
0100
0000
0001
,
0000
0000
1000
0000
0000
0000
0001
0000
0000
0000
0010
0000
0000
0000
0100
0000
0000
0000
1000
0000
0000
0010
0000
0000
,
1000
0100
0010
0001
1000
0001
0200
0000
,
0310
1000
0100
0010
0001
0100
0001
0010
,
0100
1000
0010
1000
0001
0010
0100
0000
,
2000
3002
2003
3020
,
0130
0001
0010
0000
1000
1000
1000
0000
,
1100
0000
0101
0000
0010
0100
1000
0000
,
0002
0010
0010
0000
1003
1000
2000
0000
,
3100
0010
0001
0100
0001
0010
1000
0100
,
0100
0000
0010
0001
0100
0010
0100
0000
,
0002
1000
0103
0020
,
0031
0100
0001
0010
0100
1000
0001
0000
,
0100
0010
2000
0000
3001
0010
1000
0000
,
1000
0000
0001
0100
0001
1000
0100
0010
,
1001
0000
0010
1000
0101
0000
0001
0000
,
1000
0000
0020
0000
1030
0100
0001
0100
,
2000
0000
3001
0010
1000
0000
1100
0000
,
0010
0011
0000
1100
0001
1000
0020
0000
,
0230
0000
0302
0000
1003
0100
0001
0100
,
1000
0000
0010
0000
0100
0100
0200
0000
,
0001
1300
0102
0010
,
1003
0000
0210
0000
0001
0001
0301
0000
,
0011
0000
0110
0000
1100
0000
1010
0100
,
1000
0001
1000
0010
0100
0001
1001
0000
,
0101
0000
0011
1000
0100
0000
0010
0001
,
0100
0010
1000
0100
0001
1000
1001
0000
,
0010
0100
0001
0010
0100
1000
0002
0000
,
0203
0320
2030
3002
,
0023
0000
0000
0031
1000
0001
0100
0010
1000
0200
0000
0000
,
0001
1300
0020
0100
,
1030
0000
0001
0000
1000
0000
0001
0000
1000
0000
0100
0000
0010
0000
0000
0000
0000
0000
0001
0000
0000
0100
0000
0000
,
0000
0010
1000
0001
1000
0100
0010
0001
,
0100
0010
1000
0001
1000
0100
0010
0001
,
0100
0010
1000
0001
1000
0010
0100
0001
,
1000
0100
0010
0100
1000
0010
0001
0010
,
1000
0000
1100
0000
0100
0001
0010
0001
,
1000
0010
1000
0100
0001
0000
0011
0000
,
1000
0001
0010
0100
1000
0010
1000
0001
,
0100
0000
0110
0000
1001
0000
1000
0010
,
1000
0100
0010
0001
0100
0010
1000
0001
,
0010
0000
0100
1000
0010
1000
0001
0010
,
0100
0001
0100
1000
0010
0100
0001
1000
,
0001
0010
1000
0100
0001
0100
1000
0000
,
0010
0100
0010
1000
0100
0010
0001
1000
,
0010
0100
0010
0100
0010
0000
1000
0000
0002
0000
0100
0000
0010
0000
1000
1000
,
1003
0000
0001
1000
0000
0010
0000
0100
1001
0000
0000
0011
0000
0110
0000
1100
,
0000
1001
0110
1001
1000
0100
0011
0000
,
0001
1010
0000
1000
0110
0000
0001
0100
,
0010
1000
0100
0001
0020
0000
0030
0000
,
0001
1000
0010
0101
0000
0000
0000
0000
;

//---------------dance-single - ----------------
#NOTES:
     dance-single:
     :
     Challenge:
     17:
     :
0000
0000
0000
0000
,
0000
0000
0000
0000
,
1001
0000
0000
0000
1000
0100
0010
0001
0100
0000
0000
0000
0001
0010
0100
1000
,
0001
0000
0000
0000
1000
0001
0100
0010
1000
0000
0000
0000
0001
1000
0010
0100
,
0001
0000
0000
0000
1000
0010
0100
0001
0010
0000
0000
0000
0001
0100
0010
1000
,
0100
0000
0010
0100
0010
0001
1000
0010
0100
0000
0001
0000
0010
0100
1000
0001
,
0010
0000
0100
0000
1000
0010
0100
0001
1000
0000
0100
0000
1000
0010
0100
0001
,
0100
0000
0010
0000
0100
0001
1000
0010
1000
0000
0001
0000
0010
0001
1000
0010
,
0100
0000
0001
0000
0010
0100
0010
0001
1000
0000
0001
0000
1000
0100
1000
0100
,
0010
0000
0001
0000
1000
0010
1000
0100
0001
0000
0010
0000
0100
1000
0001
0100
,
0010
1000
0001
0100
0001
1000
0010
0100
,
0010
0100
1000
0001
0001
0100
1000
0010
,
1000
0001
0001
0010
0100
0010
1000
0100
,
0100
1000
0001
0100
0001
0010
0010
1000
,
0001
0100
0100
0010
1000
0001
1000
0010
,
1000
0001
0100
0100
1000
0001
0010
0010
,
1001
0100
0010
1010
0001
0101
1000
0001
,
0010
0010
0100
0100
1000
0001
1000
0001
,
0101
0000
1100
0000
0001
0011
1000
0100
,
1010
0001
1000
0110
0001
1000
0101
0010
,
1000
0100
0001
0010
1000
0000
1001
0010
,
1010
0001
1000
1100
0010
0001
0101
0100
,
0010
0110
1001
1010
0100
0101
0011
1000
,
1100
0011
0100
1010
1001
0010
1000
0100
,
0001
1000
1100
0101
0000
0011
1100
0010
,
1001
0000
0110
0000
1000
0000
0010
0000
0100
0000
0001
0000
1000
0100
0001
0000
,
0010
0001
0100
0000
0001
0010
0100
0000
1000
0010
1000
0000
0100
0010
0001
0000
,
1000
0010
0100
0000
0001
0010
0100
0000
0010
0001
1000
0000
0001
0100
0010
0000
,
1000
0100
0001
0000
1000
0010
0100
0000
0010
0100
0010
0000
0100
0001
0010
0000
,
0001
0100
1000
0000
0001
0010
0001
0000
0100
0001
1000
0000
0010
1000
0100
0000
,
0010
0001
0100
0000
0001
0010
1000
0000
0100
0010
0001
0000
0100
0001
1000
0000
,
0001
0010
0100
0000
0010
0001
0100
0000
0001
0010
1000
0000
0100
1000
0010
0000
,
0100
0001
1000
0000
0001
0010
1000
0000
0100
0010
0001
0000
1000
0100
0010
0001
,
1000
0010
0100
0001
1000
0100
0010
0001
1000
0010
0100
0001
0010
0000
0001
0000
,
0100
0001
0010
0100
1000
0010
0001
1000
,
0001
0010
0100
1000
0010
0100
0001
0010
,
0011
0010
0110
0100
1100
1000
1001
0010
,
1000
0100
0001
0010
0001
0100
0001
0010
,
1000
0001
1000
0010
1000
0100
0001
0010
,
1100
0010
0001
0100
1000
0001
1010
0100
,
0001
0010
1000
0001
1000
0010
1000
0100
,
0001
1000
0100
0001
1000
0001
1000
0010
,
0011
1000
0100
0010
0001
0100
1001
0010
,
1000
0001
0010
0100
1000
0010
0001
0100
,
0010
1000
0101
1000
0010
0001
0100
0010
,
1000
0100
0001
0010
1000
0001
0110
1000
,
0100
0001
0010
0001
0100
0010
1000
0001
,
0010
1000
0101
1000
0010
0001
0100
0010
,
1010
0100
0001
0010
1000
0001
0011
0100
,
1000
1010
0001
0011
0100
1000
1100
0001
,
1001
0010
0110
1000
0001
0010
0001
0100
,
1000
0010
0001
1000
0100
0001
1100
0010
,
0001
0100
1000
0010
0011
1000
0010
0001
,
0010
0100
1001
0010
0001
0100
1000
0001
,
0101
0010
1001
0010
1100
0001
1010
0100
,
0001
0010
1000
0100
0001
1000
0101
0001
,
1100
0010
0110
1000
0100
0001
0010
0100
,
0011
1000
0010
0001
0100
0010
1001
0000
,
1000
0000
0000
0000
0000
0000
0100
0000
0000
0000
0000
0000
0001
0000
0000
0000
0000
0000
0010
0000
0000
0000
0000
0000
1000
0000
0000
0100
0000
0000
0001
0000
0000
0000
0000
0000
1000
0000
0000
0000
0100
0000
0000
0000
0010
0000
0000
0000
,
0100
1000
0010
0100
0001
0010
0001
1000
0001
0010
0100
1000
,
0001
0100
0010
1000
0100
0010
0001
1000
0001
0100
0001
0010
,
0001
0100
0010
1000
0001
0010
0001
1000
0010
1000
0100
0001
,
0010
0000
0000
0000
0100
0000
0000
0000
0010
0000
0000
0000
0001
0000
0000
0000
0100
0000
0000
0000
0010
0000
0000
0000
1000
0000
0000
0000
0000
0000
0001
0000
0000
0000
0000
0000
0010
0000
0000
0100
0000
0000
0010
0000
0000
0001
0000
0000
,
0100
0000
1000
0000
0001
0010
0001
0100
1000
0000
0001
0000
0010
1000
0100
0010
,
0001
0000
0100
0000
0001
1000
0010
0100
0001
0000
0010
0000
1000
0001
1000
0010
,
0100
0000
0001
0000
0010
0100
0010
0100
1000
0000
0001
0000
1000
0010
0001
0100
,
0010
0000
0100
0000
0001
0010
1000
0001
1000
0000
0100
0000
0010
0100
1000
0010
,
0001
0000
0100
0000
0001
0010
1000
0001
0010
0000
0100
0000
0010
0001
1000
0010
,
0100
0000
0001
0010
0100
0010
0001
0100
1000
0000
0010
1000
0001
1000
0100
0010
,
0001
0000
0100
0001
1000
0001
1000
0100
0010
0000
0001
0000
0100
0010
0100
0001
,
1000
0000
0001
0010
1000
0100
0010
0001
0100
0000
0001
0000
0010
0000
1000
0000
,
0001
0010
1000
0100
0001
0010
0001
0100
,
0010
1000
0100
0001
0001
0010
1000
0001
,
1000
0010
0001
0100
0001
1000
0010
1000
,
1000
0100
0001
1000
0001
0010
1000
0100
,
0010
0100
0100
0001
0001
1000
0010
1000
,
0100
0010
1000
0001
0100
0010
1000
0001
0100
1000
0010
0010
0010
0100
0001
0001
,
0001
1000
0100
0100
0010
0001
0100
0010
1001
1000
0010
0101
0001
1100
1000
0101
,
0010
0100
1010
0100
0011
1000
1100
0001
0011
0000
0110
0000
1100
0000
0000
0000
,
1010
0101
0000
0011
1100
0000
1001
1010
,
1100
0110
0011
0101
0110
0000
0000
0000
,
1001
1010
1100
0101
0000
0000
0000
0000
;
