#VERSION:0.83;
#TITLE:Everybody Wants to Rule the World;
#SUBTITLE:;
#ARTIST:Tears for Fears;
#TITLETRANSLIT:;
#SUBTITLETRANSLIT:;
#ARTISTTRANSLIT:;
#GENRE:;
#ORIGIN:;
#TAGS:;
#CREDIT:;
#BANNER:Everybody Wants to Rule the World-bn.png;
#BACKGROUND:Everybody Wants to Rule the World-bg.png;
#PREVIEWVID:;
#JACKET:Everybody Wants to Rule the World-jacket.png;
#CDIMAGE:;
#DISCIMAGE:;
#LYRICSPATH:;
#CDTITLE:;
#MUSIC:Everybody Wants to Rule the World.ogg;
#OFFSET:1.250000;
#SAMPLESTART:43.839001;
#SAMPLELENGTH:20.000000;
#SELECTABLE:YES;
#DISPLAYBPM:112.000000;
#BPMS:0.000000=111.779999;
#STOPS:;
#DELAYS:;
#WARPS:;
#TIMESIGNATURES:0.000000=4=4;
#TICKCOUNTS:0.000000=4;
#COMBOS:0.000000=1;
#SPEEDS:0.000000=1.000000=0.000000=0;
#SCROLLS:0.000000=1.000000;
#FAKES:;
#LABELS:0.000000=Song Start;
#BGCHANGES:;
#KEYSOUNDS:;
#ATTACKS:
;

//---------------dance-single - ----------------
#NOTEDATA:;
#CHARTNAME:;
#CHARTHASH:1184658863:
#STEPSTYPE:dance-single;
#BANNER:;
#DESCRIPTION:;
#CHARTSTYLE:;
#DIFFICULTY:Beginner;
#METER:1;
#METERF:0.000000;
#RADARVALUES:0.081472,0.110786,0.015414,0.000000,0.000000,74.000000,72.000000,2.000000,0.000000,0.000000,0.000000,0.000000,0.000000,0.000000,0.081472,0.110786,0.015414,0.000000,0.000000,74.000000,72.000000,2.000000,0.000000,0.000000,0.000000,0.000000,0.000000,0.000000;
#CREDIT:;
#DISPLAYBPM:112.000000;
#NOTES:
0000
0000
0000
0000
,
0000
0000
0000
0000
,
0000
0000
0000
0000
,
0000
0000
0000
0000
,
0000
0000
0000
0000
,
0001
0000
0001
0000
,
0000
0000
0000
0000
,
0100
0000
0100
0000
,
0000
0000
0000
0000
,
0010
0000
0010
0000
,
0000
0000
0000
0000
,
1000
0000
1000
0000
,
0000
0000
0000
0000
,
1001
0000
0000
0000
,
0010
0000
0100
0000
,
0010
0000
0000
0000
,
1000
0000
0001
0000
,
1000
0000
0000
0000
,
0001
0000
0100
0000
,
0010
0000
0000
0000
,
1000
0000
0001
0000
,
0100
0000
0100
0000
,
0010
0000
0010
0000
,
1000
0000
1000
0000
,
0001
0000
0001
0000
,
1000
0000
0100
0000
,
0010
0000
0001
0000
,
0100
0000
0100
0000
,
0000
0000
0000
0000
,
0010
0000
0010
0000
,
0000
0000
0000
0000
,
1001
0000
0000
0000
,
0000
1000
0000
0001
,
0000
0000
0000
0000
,
0000
0100
0000
0010
,
0000
0000
0000
0000
,
0000
1000
0000
0001
,
0000
0000
0010
0000
,
0001
0000
1000
0000
,
0000
0000
0100
0000
,
1000
0000
0001
0000
,
1000
0000
0100
0000
,
0010
0000
0001
0000
,
1000
0000
0000
0000
,
0001
0000
0000
0000
,
0100
0000
0000
0000
,
0010
0000
0000
0000
,
1000
0000
0000
0000
,
0100
0000
0000
0000
,
0010
0000
0000
0000
,
0001
0000
0000
0000
,
0100
0000
0100
0000
,
0100
0000
0000
0000
,
0001
0000
0001
0000
,
0001
0000
0000
0000
,
1000
0000
1000
0000
,
1000
0000
0000
0000
,
0001
0000
1000
0000
;

//---------------dance-single - ----------------
#NOTEDATA:;
#CHARTNAME:;
#CHARTHASH:2147483647:
#STEPSTYPE:dance-single;
#BANNER:;
#DESCRIPTION:;
#CHARTSTYLE:;
#DIFFICULTY:Easy;
#METER:5;
#METERF:0.000000;
#RADARVALUES:0.186065,0.230242,0.030827,0.015414,0.000000,169.000000,165.000000,4.000000,2.000000,0.000000,0.000000,0.000000,0.000000,0.000000,0.186065,0.230242,0.030827,0.015414,0.000000,169.000000,165.000000,4.000000,2.000000,0.000000,0.000000,0.000000,0.000000,0.000000;
#CREDIT:;
#DISPLAYBPM:112.000000;
#NOTES:
0000
0000
0000
0000
,
0000
0000
0000
0000
,
0000
0000
0000
0000
,
0000
0000
0000
0000
,
0000
0000
1001
1001
,
0001
0010
0001
0000
,
0100
0010
1000
0000
,
0100
1000
0100
0000
,
1000
0001
0010
0000
,
0010
1000
0010
0000
,
0001
0100
1000
0000
,
0100
0001
0100
0000
,
0010
0001
0100
0000
,
0001
0000
1000
0000
,
0001
0100
0010
0100
,
0001
0000
0010
0000
,
0001
1000
0100
1000
,
0010
0000
0100
0000
,
0001
1000
0010
0100
,
0010
0000
1000
0000
,
0100
1000
0001
1000
,
0001
1000
0100
0000
,
1000
0001
0100
0000
,
0010
1000
0100
0000
,
0010
0001
0100
0000
,
0001
0001
1000
1000
,
0010
0010
0100
0100
,
0010
0000
1000
0000
,
0100
0010
0001
0000
,
0100
0000
0001
0000
,
1000
0001
0100
0000
,
1001
0001
1000
0010
,
0100
0010
0100
0010
,
0000
1000
0001
0010
,
0001
0100
0010
1000
,
0100
0000
1001
1000
,
0001
0010
0001
0100
,
0000
0010
0100
0010
,
1000
0001
1000
0100
,
0000
0010
0001
0100
,
0010
1000
0001
1000
,
0010
0010
0100
0100
,
0001
0001
1000
1000
,
0001
0100
0000
0100
,
0000
0001
0000
1000
,
0000
0010
0000
1000
,
0000
0100
0000
0010
,
0000
0001
0000
1000
,
0000
0010
0000
1000
,
0000
0010
0000
0100
,
0000
0001
0000
1000
,
0001
0001
1000
1000
,
0001
0100
0100
0000
,
0010
0010
0100
0100
,
0010
1000
1000
0000
,
0001
0010
0001
1000
,
0100
0010
0100
1000
,
0002
0000
2000
0000
,
0000
0000
0000
0000
,
0000
0000
0000
3003
;

//---------------dance-single - ----------------
#NOTEDATA:;
#CHARTNAME:;
#CHARTHASH:1839433256:
#STEPSTYPE:dance-single;
#BANNER:;
#DESCRIPTION:;
#CHARTSTYLE:;
#DIFFICULTY:Medium;
#METER:8;
#METERF:0.000000;
#RADARVALUES:0.291759,0.322338,0.400755,0.154137,0.119456,265.000000,213.000000,52.000000,20.000000,0.000000,0.000000,0.000000,0.000000,0.000000,0.291759,0.322338,0.400755,0.154137,0.119456,265.000000,213.000000,52.000000,20.000000,0.000000,0.000000,0.000000,0.000000,0.000000;
#CREDIT:;
#DISPLAYBPM:112.000000;
#NOTES:
0000
0000
0000
0000
,
0000
0000
0000
0000
,
0000
0000
0000
0000
,
0000
0000
0000
0000
,
0000
0000
1010
0101
,
2000
0000
0000
0000
0000
3001
0000
0000
0000
0100
0000
0000
,
0001
0011
1000
1010
,
0020
0000
0000
0000
0000
0130
0000
0000
0000
0001
0000
0000
,
1000
1100
0001
0101
,
0002
0000
0000
0000
0000
0013
0000
0000
0000
1000
0000
0000
,
0010
1001
0100
1001
,
0200
0000
0000
0000
0000
1300
0000
0000
0000
0010
0000
0000
,
1000
0110
0001
0110
,
2000
0000
0000
0000
0000
3010
0000
0000
0000
0100
0000
0000
,
0001
0001
1000
0100
,
0020
0000
0000
0000
0000
0031
0000
0000
0000
1000
0000
0000
,
0010
0010
0100
0001
,
0200
0000
0000
0000
0000
0310
0000
0000
0000
1000
0000
0000
,
0100
0100
0001
1000
,
0002
0000
0000
0000
0000
1003
0000
0000
0000
0100
0000
0000
,
1000
1000
0001
0010
,
0001
0100
0010
1000
,
1100
1001
0101
1001
,
0010
1000
0001
0100
,
1010
1001
0011
1001
,
1000
0010
0100
0001
,
1001
0110
1001
0110
,
2001
0000
0000
0000
0000
3010
0000
0000
0000
0100
0000
0001
,
1000
1100
0001
0011
,
0210
0000
0000
0000
1300
0000
0000
0000
0000
0001
0000
0100
,
0010
1010
0100
0101
,
2001
3002
2003
3100
,
0000
1000
0000
1010
0000
0000
0000
0001
0000
0101
0000
0000
,
2001
3020
0230
0301
,
0000
0100
0000
0110
0000
0000
0000
0010
0000
0110
0000
0000
,
2002
0003
0010
3100
,
0000
1000
0000
1100
0000
0000
0000
0010
0000
0011
0000
0000
,
0001
1000
0010
0100
,
0110
1010
0110
0101
,
0001
1000
0100
0010
,
0011
0110
1100
0110
,
0001
0100
0010
1000
,
1001
0110
1001
0110
,
1001
0010
0100
0001
,
1000
0001
0100
0010
,
1000
0001
1000
0010
,
0100
0010
1000
0100
,
0010
0100
0010
0001
,
0100
0010
1000
0001
,
1000
0001
0010
0100
,
1000
0010
0100
0001
,
1000
0000
0001
0100
0000
0000
0001
0000
1000
0100
0000
0000
,
1000
0000
0010
0100
0000
0001
0000
0000
0000
0110
0000
0000
,
0010
0000
1000
0001
0000
0000
0010
0000
0001
1000
0000
0000
,
0001
0000
0100
0010
0000
1000
0000
0000
0000
1001
0000
0000
,
1000
0000
0010
0100
0000
0000
0010
0000
0100
0001
0000
0000
,
1000
0000
0001
0010
0000
0000
1000
0000
0001
0100
0000
0000
,
0002
0000
0000
0000
0000
2000
0000
0000
0000
0000
0000
0000
,
0000
0000
0000
0000
,
0000
0000
0000
3003
;

//---------------dance-single - ----------------
#NOTEDATA:;
#CHARTNAME:;
#CHARTHASH:2147483647:
#STEPSTYPE:dance-single;
#BANNER:;
#DESCRIPTION:;
#CHARTSTYLE:;
#DIFFICULTY:Hard;
#METER:10;
#METERF:0.000000;
#RADARVALUES:0.394149,0.414435,0.431583,0.231205,0.493237,358.000000,302.000000,56.000000,30.000000,0.000000,0.000000,0.000000,0.000000,0.000000,0.394149,0.414435,0.431583,0.231205,0.493237,358.000000,302.000000,56.000000,30.000000,0.000000,0.000000,0.000000,0.000000,0.000000;
#CREDIT:;
#DISPLAYBPM:112.000000;
#NOTES:
0000
0000
0000
0000
,
0000
0000
0000
0000
,
0000
0000
0000
0000
,
0000
0000
0000
0000
,
0000
0000
0000
0000
0000
0000
1000
0100
0000
1000
0001
1000
,
0002
0000
0000
0103
0000
0110
0000
0000
0010
1000
0000
0001
,
1000
0000
0100
0010
0000
0000
0001
0000
1000
0100
0000
0000
,
2000
0000
0000
3001
0000
1001
0000
0000
0100
0001
0000
1000
,
0001
0000
0010
0100
0000
0000
1000
0000
0001
0010
0000
0000
,
0012
0000
0000
1003
0000
1010
0000
0000
0010
0100
0000
0001
,
0010
0000
0100
1000
0000
0000
0001
0000
1000
0100
0000
0000
,
2100
0000
0000
3001
0000
0101
0000
0000
1000
0010
0000
0100
,
0010
0000
1000
0001
0000
0000
0010
0000
0100
1000
0001
1000
,
0020
0000
0000
0130
0000
0101
0000
0000
0001
1000
0000
0000
,
1100
1100
1001
0101
,
2010
0000
0000
3001
0000
1001
0000
0000
0100
0010
0000
0000
,
0101
0101
0110
1010
,
1200
0000
0000
1300
0000
1010
0000
0000
0001
0100
0000
0000
,
1010
1010
0110
0101
,
0021
0000
0000
0031
0000
0101
0000
0000
1000
0100
0000
0000
,
0011
0000
0000
0011
0000
0000
1000
0010
0100
0001
0000
1000
,
0002
0203
0320
2030
,
3001
0000
0001
1000
0000
1000
0010
0000
0010
0100
0000
0000
,
0020
2030
3002
0203
,
0301
0000
0001
0010
0000
0010
0100
0000
0100
1000
0000
0000
,
1100
0011
0101
1010
,
1001
0011
0110
1100
,
2001
0000
0000
3001
0000
0101
0000
0000
1000
0010
0000
0100
,
0001
0000
0010
0001
0000
1000
0010
0000
0100
0001
0000
0000
,
0021
0000
0000
0130
0000
1100
0000
0000
0001
1000
0000
0010
,
1000
0000
0100
1000
0000
0010
0100
0000
0001
0010
0000
0000
,
1001
0000
0000
0001
0000
0100
0010
0000
0010
1000
0000
1000
,
0200
2300
3002
0023
,
0130
0000
0000
0010
0000
0010
0001
0000
0001
1000
0000
1000
,
0002
0000
0000
2003
0000
0000
3010
0000
1000
0010
0000
0100
,
0001
0000
0000
1000
0010
1000
0010
0000
0000
0100
0000
0001
,
2000
3020
0230
0302
,
0013
0011
1001
1010
,
1000
0000
1000
0010
0000
0010
0100
0000
0100
0001
0000
0000
,
0100
0101
1001
1100
,
1000
0000
1000
0001
0000
0001
0010
0000
0010
0100
0000
0000
,
1100
0011
0101
0110
,
1010
1100
1001
0011
,
0101
0000
0000
1000
0000
0010
0000
0100
0000
0001
0000
1000
,
0000
0001
0000
0010
0000
0100
0000
0010
0000
0001
0000
1000
,
0000
0001
0000
1000
0000
0100
0000
0010
0000
0100
0000
0010
,
0000
0001
0000
0100
0000
0010
0000
1000
0000
0001
0000
0010
,
0000
0001
0000
1000
0000
0010
0000
0100
0000
0001
0000
0010
,
0000
0001
0000
0100
0000
0010
0000
1000
0000
0100
0000
0010
,
0000
0001
0000
1000
0000
0001
0000
0010
0000
0100
0000
1000
,
0000
0001
0000
0100
0000
0010
0000
1000
0000
0001
0000
0011
,
0000
0000
0001
0100
0000
0010
0000
0000
0010
1000
0000
0100
,
0000
0000
0100
1000
0000
0001
0000
0000
0001
1000
0000
0010
,
0000
0000
1000
0010
0000
0100
0000
0000
0001
1000
0000
0001
,
0000
0000
0100
0010
0000
1000
0000
0000
0100
0010
0000
0001
,
0000
0000
1000
0010
0000
0100
0000
0000
0010
0100
0000
0001
,
0000
0000
0010
0001
0000
1000
0000
0000
0001
1000
0010
0100
,
0002
0000
0000
0000
0000
2000
0000
0000
0000
0000
0000
0000
,
0000
0000
0000
0000
,
0000
0000
0000
3003
;

//---------------dance-single - ----------------
#NOTEDATA:;
#CHARTNAME:;
#CHARTHASH:989356086:
#STEPSTYPE:dance-single;
#BANNER:;
#DESCRIPTION:;
#CHARTSTYLE:;
#DIFFICULTY:Challenge;
#METER:13;
#METERF:0.000000;
#RADARVALUES:0.519661,0.575604,0.585719,0.015414,0.782243,472.000000,396.000000,76.000000,2.000000,0.000000,0.000000,0.000000,0.000000,0.000000,0.519661,0.575604,0.585719,0.015414,0.782243,472.000000,396.000000,76.000000,2.000000,0.000000,0.000000,0.000000,0.000000,0.000000;
#CREDIT:;
#DISPLAYBPM:112.000000;
#NOTES:
// measure 0
0000
0000
0000
0000
,  // measure 1
0000
0000
0000
0000
,  // measure 2
0000
0000
0000
0000
,  // measure 3
0010
1000
0100
0010
0001
0100
0010
1000
0100
0010
0001
0100
,  // measure 4
0010
1000
0100
0010
0001
0100
0010
1000
0100
0010
0001
0100
,  // measure 5
0010
0000
1000
0100
0000
0010
0001
0000
0100
0010
0000
1000
,  // measure 6
0100
0000
1000
0010
0000
1000
0001
0000
0010
0001
0000
0100
,  // measure 7
0010
0000
1000
0010
0000
0100
0001
0000
0010
0001
0000
1000
,  // measure 8
0001
0000
0100
0010
0000
0100
0001
0000
0010
0001
0000
1000
,  // measure 9
0100
0000
0010
0100
0000
0010
0001
0000
0100
0010
0000
1000
,  // measure 10
0001
0000
1000
0100
0000
0010
0001
0000
1000
0001
0000
0100
,  // measure 11
0001
0000
1000
0010
0000
1000
0100
0000
0010
0100
0000
1000
,  // measure 12
0010
0000
0100
0001
0000
1000
0001
0100
0010
1000
0100
0010
,  // measure 13
0001
0000
1000
0001
0000
1000
0010
0000
0100
0001
0000
0000
,  // measure 14
0011
0000
0000
0011
0000
0000
1001
0000
0000
1100
0000
1000
,  // measure 15
0010
0000
1000
0100
0000
0010
0001
0000
1000
0001
0000
0000
,  // measure 16
1010
0000
0000
1010
0000
0000
0110
0000
0000
0101
0000
0001
,  // measure 17
1000
0000
0001
0010
0000
0001
0100
0000
0010
1000
0000
0000
,  // measure 18
1100
0000
0000
1100
0000
0000
0110
0000
0000
0011
0000
0010
,  // measure 19
0001
0000
1000
0100
0000
1000
0010
0000
0100
0001
0000
0000
,  // measure 20
0101
0000
0000
0101
0000
0000
1000
0100
0010
0001
0100
0010
,  // measure 21
1000
1010
0110
0101
,  // measure 22
0011
1100
1010
0110
,  // measure 23
1001
1010
1100
0011
,  // measure 24
0101
0110
1001
0011
,  // measure 25
1100
0011
1001
0110
,  // measure 26
1010
0011
0101
0110
,  // measure 27
1001
0000
0100
0010
0000
1000
0000
0000
0100
0010
0001
1000
,  // measure 28
0000
0000
0100
0010
1000
0001
0000
0000
1000
0100
0010
0001
,  // measure 29
0100
0000
0001
0010
0000
0001
0000
0000
1000
0010
1000
0100
,  // measure 30
0000
0000
0010
0001
0100
0010
0000
0000
1000
0001
1000
0100
,  // measure 31
1001
0000
0000
0001
0000
0100
0010
0000
1000
0100
0000
0010
,  // measure 32
0001
0101
0000
0101
0000
0010
1000
1100
0000
1100
0000
1000
,  // measure 33
1001
0000
0000
0010
0000
1000
0001
0000
1000
0100
0000
0010
,  // measure 34
0001
0011
0000
0011
0000
0001
1000
1010
0000
1010
0000
0100
,  // measure 35
0110
0000
0000
0010
1000
0001
1000
0100
0010
0001
0000
1000
,  // measure 36
0010
0110
0000
0110
0000
0100
0001
1001
0000
1001
0000
1000
,  // measure 37
0100
1100
0011
1001
,  // measure 38
0101
1010
1100
0110
,  // measure 39
0001
1001
1010
0011
,  // measure 40
1100
1001
0110
1010
,  // measure 41
1100
0011
1001
0110
,  // measure 42
1010
0110
1001
0011
,  // measure 43
1001
0000
0000
1000
0001
0100
0000
0010
1000
0100
1000
0010
,  // measure 44
0000
0100
0001
1000
0001
0100
0000
0001
0010
0100
0010
0001
,  // measure 45
0000
0100
0001
1000
0001
0100
0000
0010
1000
0001
1000
0010
,  // measure 46
0000
1000
0100
0010
0100
1000
0000
0010
1000
0001
1000
0010
,  // measure 47
0000
0100
0010
1000
0001
0010
0000
0001
0100
0010
1000
0001
,  // measure 48
0000
1000
0001
1000
0010
0100
0000
0010
1000
0100
0010
0001
,  // measure 49
0000
0100
0001
1000
0100
0010
0000
0001
0100
0001
0010
0100
,  // measure 50
0000
1000
0010
0100
0010
1000
0000
0001
0010
0001
1000
0010
,  // measure 51
1000
0000
0100
1000
0000
0010
0100
0000
0001
1000
0000
0001
,  // measure 52
0010
0000
0100
1000
0000
0001
0000
0000
0100
0010
0000
1000
,  // measure 53
0000
0000
0001
1000
0000
0010
1000
0000
0100
0010
0000
0001
,  // measure 54
1000
0000
0010
0100
0000
0001
0000
0000
0001
1000
0000
0100
,  // measure 55
1000
0000
0010
0100
0000
0001
0010
0000
0100
1000
0000
0001
,  // measure 56
1000
0000
0010
0100
0000
0001
1000
0100
0001
0100
0010
1000
,  // measure 57
0002
0000
0000
0000
0000
2000
0000
0000
0000
0000
0000
0000
,  // measure 58
0000
0000
0000
0000
,  // measure 59
0000
0000
0000
3003
;
