#VERSION:0.83;
#TITLE:Electric Feel;
#SUBTITLE:;
#ARTIST:MGMT;
#TITLETRANSLIT:;
#SUBTITLETRANSLIT:;
#ARTISTTRANSLIT:;
#GENRE:;
#ORIGIN:;
#CREDIT:;
#BANNER:Electric Feel-bn.png;
#BACKGROUND:Electric Feel-bg.png;
#PREVIEWVID:;
#JACKET:Electric Feel-jacket.png;
#CDIMAGE:;
#DISCIMAGE:;
#LYRICSPATH:;
#CDTITLE:;
#MUSIC:Electric Feel.ogg;
#OFFSET:0.222222;
#SAMPLESTART:56.865002;
#SAMPLELENGTH:20.000000;
#SELECTABLE:YES;
#DISPLAYBPM:103.000000;
#BPMS:0.000=103.000;
#STOPS:;
#DELAYS:;
#WARPS:;
#TIMESIGNATURES:0.000=4=4;
#TICKCOUNTS:0.000=4;
#COMBOS:0.000=1;
#SPEEDS:0.000=1.000=0.000=0;
#SCROLLS:0.000=1.000;
#FAKES:;
#LABELS:0.000=Song Start;
#BGCHANGES:;
#KEYSOUNDS:;
#ATTACKS:
;

//---------------dance-single - ----------------
#NOTEDATA:;
#CHARTNAME:;
#STEPSTYPE:dance-single;
#DESCRIPTION:;
#CHARTSTYLE:;
#DIFFICULTY:Hard;
#METER:12;
#RADARVALUES:0.454113,0.464443,0.286613,0.086852,0.277927,366.000000,333.000000,33.000000,10.000000,0.000000,0.000000,0.000000,0.000000,0.000000,0.454113,0.464443,0.286613,0.086852,0.277927,366.000000,333.000000,33.000000,10.000000,0.000000,0.000000,0.000000,0.000000,0.000000;
#CREDIT:;
#DISPLAYBPM:103.000000;
#NOTES:
// measure 0
0000
0000
0000
0000
,  // measure 1
0000
0000
0000
0000
,  // measure 2
0000
0000
0000
0000
,  // measure 3
0000
0000
0000
0000
,  // measure 4
1001
0000
1000
0001
0100
0010
0100
0001
,  // measure 5
1000
0100
0010
0001
0101
0000
0001
0010
,  // measure 6
0200
0000
1300
0010
1000
0001
0010
0100
,  // measure 7
1100
0000
0010
1000
0100
0010
0001
0100
,  // measure 8
0001
1000
0100
0010
0110
0000
1000
0001
,  // measure 9
0020
0000
0031
0100
0010
1000
0100
0010
,  // measure 10
0011
0000
0100
0010
1000
0100
0010
0001
,  // measure 11
0100
0001
1000
0100
1010
0000
0010
1000
,  // measure 12
0002
0000
0103
0001
0010
0100
1000
0100
,  // measure 13
0001
0000
0000
1000
0100
0000
0000
0001
0100
0000
0100
0000
1001
0000
0000
0100
,  // measure 14
0001
0000
0000
1000
0100
0000
0000
0000
0010
0000
0010
0000
0010
0000
1000
0000
,  // measure 15
0100
0000
0100
0000
0110
0000
0000
0010
0001
0000
0000
1000
0100
0000
0000
0000
,  // measure 16
1000
0010
0000
0010
0100
0000
0001
0000
1000
0000
0100
0000
1100
0000
0000
0010
,  // measure 17
1000
0000
0000
0010
0001
0000
0100
0000
0001
0000
0001
0000
0001
0000
1000
0000
,  // measure 18
0100
0000
0100
0000
0011
0000
0000
1000
0100
0000
0000
0010
0001
0000
0000
0000
,  // measure 19
0100
0001
0000
0001
1000
0000
0010
0000
1000
0000
1000
0000
1010
0000
0000
1000
,  // measure 20
0100
0000
0000
0001
0100
0000
0010
1000
0010
0000
0010
0000
0010
0000
1000
0000
,  // measure 21
0001
0000
0001
0000
0101
0000
0000
0100
0010
0000
0000
0010
1000
0000
0000
0000
,  // measure 22
0001
0000
0010
0000
0100
0000
1000
0000
0010
0000
0010
0000
0110
0000
0000
0100
,  // measure 23
0001
0000
0000
1000
0100
0000
0000
0000
0010
0001
0000
0001
0100
0000
0010
0000
,  // measure 24
1000
1000
0001
0100
1002
0000
0100
0000
,  // measure 25
0100
0100
0100
0100
,  // measure 26
0100
0000
0000
0000
0103
0000
0001
1000
0001
0000
0010
0000
0100
0000
1000
0000
,  // measure 27
1100
0100
0201
0000
0010
0000
0310
0000
,  // measure 28
1000
0000
1000
0000
1000
0000
0100
0010
0001
0000
0001
0000
0001
0000
0100
0000
,  // measure 29
0010
0000
0000
0000
1000
0000
0000
1000
0100
0000
0100
0000
0100
0000
1000
0000
,  // measure 30
1010
0001
0012
0000
1000
0000
1003
0000
,  // measure 31
0001
0000
1000
0100
0000
1000
0100
0010
0001
0000
0001
0000
0001
0000
0100
0000
,  // measure 32
0110
0000
0000
0000
1001
0000
1000
0001
1000
0000
0100
0010
0001
0000
0100
0000
,  // measure 33
0101
0000
1000
0000
1100
0000
0000
1000
0100
0000
0000
0010
0001
0000
0100
0000
,  // measure 34
0010
0000
0010
0000
0010
0000
1000
0001
0100
0000
0100
0000
0100
0000
0010
0000
,  // measure 35
1000
0000
0000
0001
0100
0000
0000
0010
1000
0000
1000
0000
1000
0000
0001
0000
,  // measure 36
0011
0000
0010
0000
1010
0000
0000
1000
0010
0000
0000
0001
0010
0000
0000
0000
,  // measure 37
0001
0000
0100
0010
0000
0100
0010
1000
0001
0000
0001
0000
0001
0000
1000
0000
,  // measure 38
0010
0000
0000
1000
0100
0000
1000
0001
0101
0000
0000
0000
0102
0000
1000
0000
,  // measure 39
0100
0000
0000
0000
0103
0000
0000
0000
1000
0100
0010
0000
1000
0100
0010
0000
,  // measure 40
1000
0100
0010
0001
0010
0100
1000
0000
1010
0000
0000
0000
2010
0000
0100
0000
,  // measure 41
0010
0000
0000
0000
3010
0000
0000
0000
0001
0010
0100
0000
0001
0010
0100
0000
,  // measure 42
0001
0010
0100
1000
0100
0010
0001
0000
0011
0000
0000
0000
0012
0000
0100
0000
,  // measure 43
1000
0000
0000
0000
1003
0000
0000
0000
1000
0100
0001
0000
1000
0100
0001
0000
,  // measure 44
1000
0100
0001
0100
1000
0100
0001
0000
1100
0000
0000
0000
1200
0000
0001
0000
,  // measure 45
1000
0000
0000
0000
1300
0000
0000
0000
1000
0001
1000
0001
1000
0001
1000
0001
,  // measure 46
1000
0001
1000
0001
1000
0000
0000
0000
1001
0000
0000
0000
0000
0000
0000
0000
;

//---------------dance-single - ----------------
#NOTEDATA:;
#CHARTNAME:;
#STEPSTYPE:dance-single;
#DESCRIPTION:;
#CHARTSTYLE:;
#DIFFICULTY:Medium;
#METER:8;
#RADARVALUES:0.313909,0.302897,0.269242,0.156334,0.008685,253.000000,222.000000,31.000000,18.000000,0.000000,0.000000,0.000000,0.000000,0.000000,0.313909,0.302897,0.269242,0.156334,0.008685,253.000000,222.000000,31.000000,18.000000,0.000000,0.000000,0.000000,0.000000,0.000000;
#CREDIT:;
#DISPLAYBPM:103.000000;
#NOTES:
0000
0000
0000
0000
,
0000
0000
0000
0000
,
0000
0000
0000
0000
,
0000
0000
0000
0000
,
1001
0000
0100
1000
0001
0000
0001
1000
,
0010
0000
0010
0000
1100
0000
1000
0001
,
0010
0000
0001
1000
0100
0000
0100
0000
,
0011
0000
0010
0100
1000
0000
0010
0100
,
0001
0000
0001
0000
0101
0000
1000
0010
,
0001
0000
0001
0100
1000
0000
1000
0000
,
1010
0000
0010
0100
0001
0000
1000
0100
,
0010
0000
0010
0000
0110
0000
0100
1000
,
0100
0000
1000
0001
0100
0000
0100
0000
,
0011
0000
1100
0000
0010
1000
0100
0000
,
0001
0000
0001
0000
1000
0100
1000
0001
,
0100
1001
0010
0010
,
1010
0000
0101
0000
1000
0001
0100
0000
,
1000
0000
1000
0000
0001
0010
0001
1000
,
0010
0110
0100
0100
,
0101
0000
1100
0000
0001
1000
0100
0000
,
0010
0000
0100
0000
0001
0100
1000
0100
,
0001
0110
1000
0001
,
0011
0000
1010
0000
0001
0010
1000
0000
,
0100
0000
1000
0000
0001
0010
1000
0010
,
0001
1000
0001
0000
2002
0000
0000
0000
,
0000
3000
0100
0100
,
0100
0000
0000
0000
0103
0000
0001
1000
0001
0000
0000
0000
0100
0000
0010
0000
,
1000
0000
2200
0000
0300
0000
3001
1000
,
0010
0100
0010
0000
0100
0010
0002
0000
,
0000
0000
1003
0001
0100
0010
0100
0010
,
1000
0000
0202
0000
0300
0000
0103
0010
,
1000
0100
1000
0000
0001
0100
0002
0000
,
0000
0000
0000
0000
0103
0000
0001
1000
0001
0000
0000
0000
1000
0000
0100
0000
,
0010
0000
0022
0000
0030
0000
0103
0010
,
1000
0001
1000
0000
0001
0010
0200
0000
,
0000
0000
1300
0100
1000
0001
0100
0001
,
0100
0000
2020
0000
3000
0000
1030
0010
,
0100
0001
0100
0000
0010
1000
0010
0000
,
0200
0310
0110
1002
,
0010
0000
1003
0000
0001
0100
0001
0100
,
0001
1000
1000
0000
1100
0000
1020
0000
,
0100
0000
1030
0000
0010
1000
0010
1000
,
0010
0100
0100
0000
1001
0000
0201
0000
,
1000
0000
0301
0000
0100
0010
0100
0010
,
1000
0001
0001
0000
0011
0000
0210
0000
,
0010
0000
1300
0000
1000
1000
0001
0001
,
0100
0100
0100
0000
1001
0000
0000
0000
;

//---------------dance-single - ----------------
#NOTEDATA:;
#CHARTNAME:;
#STEPSTYPE:dance-single;
#DESCRIPTION:;
#CHARTSTYLE:;
#DIFFICULTY:Easy;
#METER:6;
#RADARVALUES:0.172464,0.222125,0.138964,0.269242,0.000000,139.000000,123.000000,16.000000,31.000000,0.000000,0.000000,0.000000,0.000000,0.000000,0.172464,0.222125,0.138964,0.269242,0.000000,139.000000,123.000000,16.000000,31.000000,0.000000,0.000000,0.000000,0.000000,0.000000;
#CREDIT:;
#DISPLAYBPM:103.000000;
#NOTES:
0000
0000
0000
0000
,
0000
0000
0000
0000
,
0000
0000
0000
0000
,
0000
0000
0000
0000
,
1001
0000
0000
1000
0001
0000
0200
0000
,
0000
0000
0300
0000
0110
0000
0000
0010
,
1000
0002
0000
0003
,
0101
0000
0000
0100
0010
0000
2000
0000
,
0000
0000
3000
0000
1100
0000
0000
1000
,
0010
0200
0000
0300
,
1010
0000
0000
1000
0001
0000
0020
0000
,
0000
0000
0030
0000
0011
0000
0000
0001
,
0100
2000
0000
3000
,
0010
0100
0001
2000
,
0000
3000
0100
0010
,
1000
0002
0000
0003
,
0001
1000
0010
0200
,
0000
0300
0100
0001
,
1000
0020
0000
0030
,
1000
0100
0010
0002
,
0000
0003
0100
1000
,
0001
0020
0000
0030
,
1000
0001
0010
0200
,
0000
0300
1000
0001
,
0100
0010
2002
0000
,
0000
0000
0000
0000
,
0000
0000
3003
1000
0010
0000
0100
0000
,
0001
2000
0000
3000
,
1000
0100
1000
0002
,
0000
0000
0003
0000
0010
0001
0010
0000
,
1000
0200
0000
0300
,
1000
0001
1000
0000
0010
0000
0200
0000
,
0000
0000
0300
0001
1000
0000
0001
0000
,
0010
0200
0000
0300
,
1000
0010
0100
0002
,
0000
0000
0003
0000
0100
0010
0100
0000
,
0001
2000
0000
3000
,
0010
1000
0010
0000
1000
0000
0002
0000
,
0000
0003
0101
0202
,
0000
0300
0100
1000
,
0100
0100
0103
0000
1100
0000
2200
0000
,
0000
0300
0100
0001
,
0100
0100
3100
0000
1010
0000
2020
0000
,
0000
0030
0010
0001
,
0010
0010
3010
0000
0011
0000
0022
0000
,
0000
0030
1000
1000
,
1000
1003
1001
0000
;

//---------------dance-single - ----------------
#NOTEDATA:;
#CHARTNAME:;
#STEPSTYPE:dance-single;
#DESCRIPTION:;
#CHARTSTYLE:;
#DIFFICULTY:Beginner;
#METER:1;
#RADARVALUES:0.086852,0.121159,0.069482,0.000000,0.000000,70.000000,62.000000,8.000000,0.000000,0.000000,0.000000,0.000000,0.000000,0.000000,0.086852,0.121159,0.069482,0.000000,0.000000,70.000000,62.000000,8.000000,0.000000,0.000000,0.000000,0.000000,0.000000,0.000000;
#CREDIT:;
#DISPLAYBPM:103.000000;
#NOTES:
0000
0000
0000
0000
,
0000
0000
0000
0000
,
0000
0000
0000
0000
,
0000
0000
0000
0000
,
1001
0000
0000
0010
,
0000
0000
0110
0000
,
0000
1000
0000
0000
,
1001
0000
0000
0100
,
0000
0000
0110
0000
,
0000
0001
0000
0000
,
1001
0000
0000
1000
,
0000
0000
0110
0000
,
0000
0100
0000
0000
,
0001
0000
0000
0100
,
0000
0000
1000
0000
,
0000
0010
0000
0000
,
1000
0000
0000
0001
,
0000
0000
0100
0000
,
0000
0010
0000
0000
,
1000
0000
0000
0100
,
0000
0000
0010
0000
,
0000
0001
0000
0000
,
0100
0000
0000
0010
,
0000
0000
1000
0000
,
0001
0000
1001
0000
,
0000
0000
0000
0000
,
0000
0000
0010
0010
,
0000
0000
0000
0000
,
1000
0000
0000
0001
,
0000
0000
0100
0100
,
0000
0000
0000
0000
,
0001
0000
1000
0000
,
0000
0000
0001
0001
,
0000
0000
0000
0000
,
0100
0000
0010
0000
,
0000
0000
1000
1000
,
0000
0000
0000
0000
,
0010
0000
0100
0000
,
0000
0000
0001
0001
,
0000
0000
1000
0000
,
0100
0000
1000
1000
,
0000
0000
0010
0000
,
0100
0000
0010
0010
,
0000
0000
1000
0000
,
0001
0000
0100
0100
,
0000
0000
0010
0000
,
1000
0000
1001
0000
;
